#VERSION:0.83;
#TITLE:Give You Up;
#SUBTITLE:;
#ARTIST:Micky;
#TITLETRANSLIT:;
#SUBTITLETRANSLIT:;
#ARTISTTRANSLIT:;
#GENRE:;
#ORIGIN:;
#CREDIT:;
#BANNER:;
#BACKGROUND:;
#PREVIEWVID:;
#JACKET:;
#CDIMAGE:;
#DISCIMAGE:;
#LYRICSPATH:;
#CDTITLE:;
#MUSIC:Micky - Give-You-Up-HOT-RnB_1 (unew).ogg;
#OFFSET:-0.258000;
#SAMPLESTART:41.967999;
#SAMPLELENGTH:15.900000;
#SELECTABLE:YES;
#BPMS:0.000=116.497;
#STOPS:;
#DELAYS:;
#WARPS:;
#TIMESIGNATURES:0.000=4=4;
#TICKCOUNTS:0.000=4;
#COMBOS:0.000=1;
#SPEEDS:0.000=1.000=0.000=0;
#SCROLLS:0.000=1.000;
#FAKES:;
#LABELS:0.000=Song Start;
#BGCHANGES:;
#KEYSOUNDS:;
#ATTACKS:
;

//---------------dance-single - ----------------
#NOTEDATA:;
#CHARTNAME:;
#STEPSTYPE:dance-single;
#DESCRIPTION:;
#CHARTSTYLE:;
#DIFFICULTY:Beginner;
#METER:3;
#RADARVALUES:0.134911,0.178487,0.103881,0.028331,0.000000,100.000000,89.000000,11.000000,3.000000,0.000000,0.000000,0.000000,0.000000,0.000000,0.134911,0.178487,0.103881,0.028331,0.000000,100.000000,89.000000,11.000000,3.000000,0.000000,0.000000,0.000000,0.000000,0.000000;
#CREDIT:;
#NOTES:
0000
0000
0000
0000
,
0000
0000
0000
0000
,
0000
0110
0000
0000
,
0000
1001
0000
0000
,
0000
0001
0000
1000
,
0000
0010
0000
0000
,
0010
0010
0000
0000
,
1000
0001
0000
0000
,
0000
1001
0000
1000
,
0000
0010
0000
0000
,
0100
0100
0000
0000
,
0001
1000
0000
0001
,
0000
2000
0000
3000
,
0000
0002
0000
0003
,
0000
1000
0000
0001
,
0000
1000
0000
0000
,
0000
0001
1000
0001
,
0000
1000
0000
0001
,
0000
0100
0010
0100
,
0000
0001
0000
1000
,
0000
0002
0003
1000
,
1000
0100
0000
0010
,
0000
0001
0001
1000
,
0000
0010
0100
0001
,
0100
0001
0000
1000
,
0000
1001
0000
0001
,
0000
1001
0000
1000
,
0000
1001
0000
0000
,
0000
0001
0000
1000
,
0000
0001
0000
0100
,
0000
0100
0000
0001
,
0000
1000
0000
0010
,
0000
0100
0000
0010
,
0000
0100
0000
0001
,
0000
0010
0000
1000
,
0000
0100
0000
0000
,
0000
0001
0001
0001
,
0000
1001
0000
1000
,
0000
1000
1000
1000
,
0000
0001
0000
1000
,
0000
0001
0000
0100
,
0000
0001
0001
1000
,
0000
0100
0000
0010
,
0000
0010
0000
0001
,
0000
1001
0000
0000
,
0000
0110
0000
0000
,
0000
1001
0000
0000
,
0000
0110
0000
0000
;

//---------------dance-single - ----------------
#NOTEDATA:;
#CHARTNAME:;
#STEPSTYPE:dance-single;
#DESCRIPTION:;
#CHARTSTYLE:;
#DIFFICULTY:Easy;
#METER:6;
#RADARVALUES:0.252283,0.290042,0.179431,0.075550,0.000000,187.000000,168.000000,19.000000,8.000000,0.000000,0.000000,0.000000,0.000000,0.000000,0.252283,0.290042,0.179431,0.075550,0.000000,187.000000,168.000000,19.000000,8.000000,0.000000,0.000000,0.000000,0.000000,0.000000;
#CREDIT:;
#NOTES:
0000
0000
0000
0000
,
0000
0000
0000
0000
,
0000
0000
0100
0000
0000
0010
0000
0000
,
0000
0000
1000
0000
0000
0001
0000
0000
,
0000
0000
0001
0000
1000
0100
1000
0000
,
0010
0100
0010
0000
0000
0100
0000
0000
,
0010
0000
0110
0000
0000
0001
0000
0000
,
1000
0000
0001
0100
0001
0000
1000
0000
,
1000
0000
1010
0000
0010
0000
1000
0001
,
0100
0000
0010
0000
0000
0010
0000
0000
,
0100
0000
0110
0000
0000
0100
0000
0000
,
0001
1000
0001
1001
,
1000
0010
0100
0001
,
1000
0001
1000
0000
,
1000
0100
0010
0001
,
1000
0010
0100
0000
,
0100
0001
0010
1000
,
0010
0001
0100
0000
,
0100
0010
1000
0001
,
0100
1000
0000
0001
,
0000
0002
0103
2000
,
3010
0000
0100
0000
0010
0100
0010
0000
,
0100
0020
1030
0200
,
0301
0000
0001
0000
0100
0001
1000
0000
,
0010
0200
0310
1000
,
0001
1001
1000
0010
,
0100
1001
0001
1100
,
0100
1010
0010
0011
,
0002
1003
0100
1000
,
1100
0011
0001
1000
,
0001
0101
0100
0010
,
0110
1000
0000
0010
,
0000
0000
0101
0000
0000
0000
0010
0100
,
0010
0000
0100
0000
0000
0000
0001
0100
,
0001
0000
0010
0000
0001
0000
1000
0100
,
1000
0100
0000
0000
,
0000
0011
0001
2000
,
3001
1001
0001
0010
,
0100
1000
0001
0200
,
0310
0001
1000
0010
,
0100
0101
0000
0100
,
0010
1000
0001
1000
,
0010
0000
0100
0000
0001
0000
0100
0010
,
0100
0000
0001
0000
1000
0000
0001
0010
,
0001
0000
1000
0000
0000
0001
0000
0000
,
0100
0000
0110
0000
0000
0010
0000
0000
,
1000
0000
1001
0000
0000
0001
0000
0000
,
1000
0100
0000
0000
;

//---------------dance-single - ----------------
#NOTEDATA:;
#CHARTNAME:;
#STEPSTYPE:dance-single;
#DESCRIPTION:;
#CHARTSTYLE:;
#DIFFICULTY:Medium;
#METER:9;
#RADARVALUES:0.323786,0.334663,0.132213,0.028331,0.084994,240.000000,226.000000,14.000000,3.000000,0.000000,0.000000,0.000000,0.000000,0.000000,0.323786,0.334663,0.132213,0.028331,0.084994,240.000000,226.000000,14.000000,3.000000,0.000000,0.000000,0.000000,0.000000,0.000000;
#CREDIT:;
#NOTES:
0000
0000
0000
0000
,
0000
0000
0000
0000
,
0000
0000
0000
0000
0100
0000
0000
0010
0000
0000
1000
0000
0000
0000
0000
0000
,
0001
0000
0000
0000
0100
0000
0000
0001
0000
0000
1000
0000
0000
0000
0000
0000
,
0001
0000
1000
0100
0010
0001
1000
0100
,
1000
0000
0001
0000
0100
0000
0000
0001
0000
0000
0100
0000
0000
0000
0010
0000
,
0100
0000
0010
0000
1000
0000
0000
0001
0000
0000
1000
0000
0000
0000
0001
0000
,
0010
0001
0100
0000
0001
0000
0100
0000
,
0110
0000
0010
0100
0001
0010
0001
0010
,
0100
0000
1000
0000
0100
0000
0000
1000
0000
0000
0100
0000
0000
0000
0010
0000
,
0001
0000
0010
0000
0001
0000
0000
0010
0000
0000
0001
0000
0000
0000
1000
0000
,
0001
0100
0010
0000
1010
0000
0100
0000
,
0201
0000
0301
1000
0001
0000
1000
0001
,
0100
0000
0000
0000
0010
0000
0000
0100
0000
0000
0010
0000
0000
0000
0000
0000
,
1000
0000
0001
0100
0001
0000
0100
0001
,
0100
0000
0000
0000
0010
0000
0000
1000
0000
0000
0001
0000
0000
0000
0000
0000
,
1001
0000
1000
0100
0010
0000
0001
1000
,
0001
0000
0000
0000
1000
0000
0000
0010
0000
0000
1000
0000
0000
0000
0000
0000
,
0001
0000
0100
0010
0100
0000
0010
0100
,
0010
1000
0001
1000
,
0001
0000
1000
0100
1000
0100
1000
0000
,
0001
0000
0100
0000
0001
0100
0001
0100
,
0001
0000
1000
0100
1000
0100
1000
0000
,
0001
0000
0100
0000
0001
0100
0010
0100
,
0001
0000
1000
0000
0010
0000
0100
0010
,
0100
0000
0001
0000
1000
0100
1000
0000
,
0001
0010
0001
0000
1000
0000
0100
0000
,
0110
0000
0010
0000
0001
0000
1000
0010
,
0100
0000
0000
0000
0010
0000
0000
0100
0000
0000
0001
0000
0000
0000
0000
0000
,
1001
0000
0000
0000
1000
0000
0000
0010
0000
0000
0100
0000
0000
0000
0000
0000
,
0101
0000
0000
0000
0001
0000
0000
0100
0000
0000
0010
0000
0000
0000
0000
0000
,
1010
0000
0000
0000
0100
0010
0100
0000
,
0010
0000
0000
0000
0100
0000
0000
0010
0000
0000
0100
0000
0000
0000
0000
0000
,
0110
0000
0000
0000
0001
0000
0000
1000
0000
0000
0010
0000
0000
0000
0000
0000
,
1010
0000
0000
0000
1000
0000
0000
0001
0000
0000
0100
0000
0000
0000
0000
0000
,
0110
0000
0000
0000
0010
0100
0010
0000
,
2000
0000
3001
0000
0100
0001
0100
0000
,
0010
0000
1000
0010
1000
1000
0001
0001
,
1000
0000
0001
0000
0010
0100
0010
0000
,
0001
0000
1000
0010
0100
0100
0001
0001
,
1000
1010
0010
0000
,
0100
0101
0001
0000
,
0001
1010
0100
0000
,
0100
0000
0010
0000
1000
0001
1000
0000
,
0002
0000
0000
0000
0103
0000
0000
0100
0000
0000
0010
0000
0000
0000
0000
0000
,
0010
0000
1000
0000
0001
0000
0000
0001
0000
0000
0100
0000
0000
0000
0000
0000
,
0100
0000
0010
0000
1000
0000
0000
1000
0000
0000
0001
0000
0000
0000
0000
0000
,
0100
0100
0001
0000
0000
0000
0000
0000
;

//---------------dance-single - ----------------
#NOTEDATA:;
#CHARTNAME:;
#STEPSTYPE:dance-single;
#DESCRIPTION:;
#CHARTSTYLE:;
#DIFFICULTY:Hard;
#METER:12;
#RADARVALUES:0.451952,0.423907,0.226650,0.113325,0.146378,335.000000,311.000000,24.000000,12.000000,0.000000,0.000000,0.000000,0.000000,0.000000,0.451952,0.423907,0.226650,0.113325,0.146378,335.000000,311.000000,24.000000,12.000000,0.000000,0.000000,0.000000,0.000000,0.000000;
#CREDIT:;
#NOTES:
// measure 0
0000
0000
0000
0000
,  // measure 1
0000
0000
0000
0000
,  // measure 2
0000
0000
0000
0000
0110
0000
0000
0010
0000
0000
0100
0000
0000
0000
0000
0000
,  // measure 3
0001
0000
0100
0000
0101
0000
0000
0001
0000
0000
1000
0000
0000
0000
0010
0000
,  // measure 4
1000
0100
1000
0000
0010
0000
0100
0000
0010
0000
1000
0000
1000
0000
0100
0000
,  // measure 5
0010
0000
0001
0000
0100
0000
0000
0001
0000
0000
0100
0000
0000
0000
0010
0000
,  // measure 6
1000
0000
0010
0000
1010
0000
0000
0010
0000
0000
1000
0000
0000
0000
0001
0000
,  // measure 7
0010
0001
0101
0000
0001
1000
0001
0000
,  // measure 8
0100
0010
0100
0000
0010
0000
0100
0000
0100
0000
0001
0000
1000
0000
0010
0000
,  // measure 9
0100
0000
1000
0000
0100
0000
0000
0001
0000
0000
0100
0000
0000
0000
0001
0000
,  // measure 10
0010
0000
0100
0000
1010
0000
0000
0100
0000
0000
0001
0000
0000
0000
1000
0000
,  // measure 11
0001
0100
1010
0000
1001
0000
0100
0000
,  // measure 12
0001
0100
0001
0000
1000
0000
0010
0000
0100
0000
0000
0000
0001
0000
0010
0000
,  // measure 13
0100
0000
1000
0000
0100
0000
0000
0100
0000
0000
0020
0000
0000
0000
0000
0000
,  // measure 14
0031
0100
1001
0100
0010
1000
0001
0100
,  // measure 15
0010
0000
1000
0000
1010
0000
0000
1000
0000
0000
0002
0000
0000
0000
0000
0000
,  // measure 16
1003
0100
1000
0000
0010
0000
0100
0000
0001
0000
1000
0000
0010
0000
0100
0000
,  // measure 17
0010
0000
1000
0000
0100
0000
0000
0010
0000
0000
0002
0000
0000
0000
0000
0000
,  // measure 18
0103
0010
0100
0010
1000
0000
0001
0100
,  // measure 19
0010
1000
1001
0000
0100
0000
1000
0000
,  // measure 20
0010
0100
0010
0000
1000
0000
0001
0000
1000
0000
0100
0000
2000
0000
3000
0000
,  // measure 21
0002
0003
0101
0100
0001
1000
0001
0100
,  // measure 22
0020
0030
1100
0100
0010
0100
0020
0030
,  // measure 23
0002
0003
1001
1000
0010
0100
0001
0100
,  // measure 24
0001
1000
0001
0000
0100
0000
0000
0000
0010
0000
0010
0000
0100
0000
0100
0000
,  // measure 25
0001
1000
0001
0000
1000
1000
0010
0010
,  // measure 26
0100
0000
0001
0100
0000
0000
0010
0000
1000
0000
1000
0000
0001
0000
0100
0000
,  // measure 27
0010
1000
0110
0000
0001
0001
0010
0010
,  // measure 28
0100
0000
1000
0000
0010
0000
0100
0010
0000
0000
0100
0000
0001
0000
1000
0000
,  // measure 29
1001
0000
0000
0000
1010
0000
0000
0010
0000
0000
0100
0000
0001
0000
1000
0000
,  // measure 30
0001
0000
1000
0000
0001
0000
0000
0100
0000
0000
0010
0000
1000
0000
0001
0000
,  // measure 31
0011
0000
0001
0010
0100
0010
0100
1000
,  // measure 32
0001
0100
0001
0000
0100
0000
0001
0100
0000
0000
0001
0000
1000
0000
0010
0000
,  // measure 33
0110
0000
0000
0000
1010
0000
0000
1000
0000
0000
0010
0000
0100
0000
0001
0000
,  // measure 34
1001
0000
0000
0000
0101
0000
0000
0001
0000
0000
0100
0000
0010
0000
0010
0000
,  // measure 35
0100
0001
1000
0001
0010
0001
0001
1000
,  // measure 36
0200
0000
0310
0001
0100
1000
0200
0300
,  // measure 37
0010
0000
0011
0001
1000
0100
0001
0100
,  // measure 38
1000
0000
0001
0100
1000
0100
2000
3000
,  // measure 39
0001
0000
0010
0100
0001
0100
0001
1000
,  // measure 40
0100
1000
0100
0000
1000
0000
0000
0000
0010
0000
0100
0000
0010
0000
0100
0000
,  // measure 41
0001
1000
1001
0000
0001
0100
0001
0100
,  // measure 42
0010
0000
1000
0001
0000
0000
0001
0000
1000
0000
1000
0000
0010
0000
0010
0000
,  // measure 43
0100
0001
0101
0000
1000
0100
0010
0100
,  // measure 44
2000
0000
0000
0000
3001
0000
0100
0001
0000
0100
0001
0000
0000
0000
0100
0000
,  // measure 45
1000
0000
0100
0000
0001
0000
1000
0010
0000
1000
0001
0000
0000
0000
0010
0000
,  // measure 46
0100
0000
0010
0000
0100
0000
1000
0100
0000
0010
0001
0000
0000
0000
0010
0000
,  // measure 47
1000
0010
0100
0000
0000
0000
0000
0000
;
