#VERSION:0.83;
#TITLE:Geocentrism;
#SUBTITLE:;
#ARTIST:Gekidan Record + world sequence;
#TITLETRANSLIT:;
#SUBTITLETRANSLIT:;
#ARTISTTRANSLIT:;
#GENRE:;
#ORIGIN:;
#CREDIT:from pop n music eclale;
#BANNER:Ec_Geocentrism.png;
#BACKGROUND:;
#PREVIEWVID:;
#JACKET:;
#CDIMAGE:;
#DISCIMAGE:;
#LYRICSPATH:;
#CDTITLE:;
#MUSIC:Geocentrism.ogg;
#OFFSET:-0.354000;
#SAMPLESTART:39.140999;
#SAMPLELENGTH:16.000000;
#SELECTABLE:YES;
#BPMS:0.000=150.000;
#STOPS:;
#DELAYS:;
#WARPS:;
#TIMESIGNATURES:0.000=4=4;
#TICKCOUNTS:0.000=4;
#COMBOS:0.000=1;
#SPEEDS:0.000=1.000=0.000=0;
#SCROLLS:0.000=1.000;
#FAKES:;
#LABELS:0.000=Song Start;
#BGCHANGES:;
#KEYSOUNDS:;
#ATTACKS:
;

//---------------dance-single - ----------------
#NOTEDATA:;
#CHARTNAME:;
#STEPSTYPE:dance-single;
#DESCRIPTION:;
#CHARTSTYLE:;
#DIFFICULTY:Beginner;
#METER:3;
#RADARVALUES:0.149555,0.206286,0.041216,0.065946,0.000000,127.000000,122.000000,5.000000,8.000000,0.000000,0.000000,0.000000,0.000000,0.000000,0.149555,0.206286,0.041216,0.065946,0.000000,127.000000,122.000000,5.000000,8.000000,0.000000,0.000000,0.000000,0.000000,0.000000;
#CREDIT:;
#NOTES:
0000
0000
0000
0000
,
0000
0000
0000
0000
,
0000
0000
0000
0000
,
0000
1000
0000
0000
,
0001
0000
0000
1000
,
0000
0000
0001
0000
,
0000
0100
0000
0000
,
0010
0000
0000
1000
,
0000
0000
0001
0000
,
0000
2000
0000
3000
,
0001
0000
0000
0002
,
0000
0003
1000
0000
,
0000
0010
0000
0010
,
0010
0000
0000
1000
,
0000
0001
0001
0000
,
0000
1000
0000
0010
,
0010
0000
0000
0100
,
0000
0000
0001
0000
,
0000
1000
0000
0001
,
1000
0001
0000
2000
,
0000
3000
0001
0000
,
0000
0100
0000
0000
,
0010
0000
0000
2000
,
0000
3000
0002
0000
,
0003
0100
0000
0000
,
0110
0000
0000
0001
,
0000
0000
0011
0000
,
0000
0100
0000
0000
,
1100
0000
0000
0001
,
0000
0000
1001
0000
,
0000
0001
1000
0001
,
1000
0000
0000
0001
,
0100
0001
0100
0000
,
0000
0010
1000
0010
,
1000
0000
0000
0001
,
0100
0001
1000
0000
,
0000
0001
0001
0001
,
0000
0000
0000
1000
,
1000
1000
0000
0000
,
0000
1001
0000
0000
,
0010
0000
0000
0100
,
0000
1000
1000
0000
,
0000
0002
0000
0003
,
0100
0000
0000
0010
,
0000
1000
0001
0000
,
0000
0001
1000
0001
,
1000
0000
0000
0010
,
0100
0010
0100
0000
,
0000
0001
0001
1000
,
1000
0000
0000
0001
,
0000
0000
1000
0000
,
0000
0010
0100
0010
,
0100
0000
0000
0001
,
0000
0000
1000
0000
,
0000
0001
1000
0001
,
1000
0000
0000
1000
,
0001
1000
0010
0000
,
0000
0100
0010
0100
,
0010
0000
0000
1000
,
0001
1000
0001
0000
,
0000
0100
0000
0000
,
0010
0000
0000
2000
,
0000
3000
0000
0000
,
0000
0002
0000
0000
,
0000
0003
0000
0100
,
0000
0000
0100
0000
,
0000
0010
0000
0000
,
0010
0000
0000
0100
,
0000
0000
0000
0000
,
0000
0010
0000
0000
,
0010
0000
0000
1000
,
0000
0000
0001
0000
;

//---------------dance-single - ----------------
#NOTEDATA:;
#CHARTNAME:;
#STEPSTYPE:dance-single;
#DESCRIPTION:;
#CHARTSTYLE:;
#DIFFICULTY:Easy;
#METER:5;
#RADARVALUES:0.247296,0.324164,0.123648,0.214323,0.000000,210.000000,195.000000,15.000000,26.000000,0.000000,0.000000,0.000000,0.000000,0.000000,0.247296,0.324164,0.123648,0.214323,0.000000,210.000000,195.000000,15.000000,26.000000,0.000000,0.000000,0.000000,0.000000,0.000000;
#CREDIT:;
#NOTES:
0000
0000
0000
0000
,
0000
0000
0000
0000
,
0000
0000
0000
0000
,
0000
1000
0000
0000
,
0010
0000
1000
0001
,
0000
0001
0100
0000
,
0000
0110
0000
0000
,
1001
0000
0000
1100
,
0000
0000
0011
0000
,
0000
0001
0000
1000
,
0001
0000
0010
0100
,
0000
1000
0010
0000
,
0000
0100
0010
0100
,
0001
0000
0000
1000
,
0100
0010
0001
0000
,
0000
0001
0100
0010
,
1000
0000
0000
1000
,
0010
1000
0010
0100
,
0001
2000
0000
3010
,
0100
0001
1000
0002
,
0000
1003
0010
0100
,
0001
2000
0000
3010
,
0100
0000
0001
2000
,
0000
3001
2002
0000
,
3003
0010
0100
0001
,
2002
0000
3003
0100
,
0010
0100
0110
1000
,
0001
0100
0001
0100
,
0202
0000
0303
0001
,
1000
0001
0100
0000
,
0001
1000
0010
0100
,
0202
0000
0303
0001
,
0010
0001
0100
0001
,
1000
0010
1000
0100
,
1000
0010
0100
0002
,
0003
1000
1000
0001
,
1000
0002
0000
0103
,
0010
1000
0001
0110
,
0000
1000
0001
1000
,
0001
0100
0001
1000
,
2000
0000
3000
0001
,
0100
0001
0001
1000
,
0000
0100
0010
0001
,
2000
0000
3000
0001
,
0100
0001
0200
0000
,
0300
0001
1000
0001
,
0100
0010
1000
0001
,
0100
0010
1000
0001
,
0000
0001
1000
0001
,
1001
1000
0001
0100
,
0010
0000
0100
0010
,
1000
0001
0001
1000
,
0002
0000
0003
1000
,
0100
1000
0010
1000
,
0100
0010
0001
1000
,
0002
0000
0003
1000
,
0001
1000
0002
0000
,
0003
1001
0100
0010
,
0220
0000
0330
0100
,
0001
1000
1001
0001
,
0000
0100
0100
0010
,
0010
0000
1000
0001
,
0000
0000
1001
0001
,
1000
0010
0100
0010
,
2000
0000
3000
0001
,
0000
0010
0100
0000
,
1000
0002
0000
0003
,
0100
0000
0010
0200
,
0300
0000
0001
0000
,
1000
0002
0003
0000
,
0100
0000
0000
0010
,
0000
0000
0100
0000
;

//---------------dance-single - ----------------
#NOTEDATA:;
#CHARTNAME:;
#STEPSTYPE:dance-single;
#DESCRIPTION:;
#CHARTSTYLE:;
#DIFFICULTY:Medium;
#METER:7;
#RADARVALUES:0.312064,0.383103,0.230810,0.247296,0.000000,265.000000,237.000000,28.000000,30.000000,0.000000,0.000000,0.000000,0.000000,0.000000,0.312064,0.383103,0.230810,0.247296,0.000000,265.000000,237.000000,28.000000,30.000000,0.000000,0.000000,0.000000,0.000000,0.000000;
#CREDIT:;
#NOTES:
// measure 0
0000
0000
0000
0000
,  // measure 1
0000
0000
0000
0000
,  // measure 2
0000
0000
0000
0000
,  // measure 3
0000
0000
1000
0000
0000
0001
0100
0001
,  // measure 4
0100
0000
0010
0110
,  // measure 5
0000
1000
0001
1000
0001
0000
0000
0100
,  // measure 6
0010
0100
0010
0000
0000
1000
0001
0000
,  // measure 7
1000
0000
0101
0000
0001
0100
0002
0000
,  // measure 8
0003
1000
0100
0000
1000
0100
0010
0000
,  // measure 9
0000
0001
0020
0000
0030
0000
0100
1000
,  // measure 10
0001
0000
0000
1000
0010
0000
0110
0000
,  // measure 11
0000
0010
1000
0000
,  // measure 12
0000
0000
0002
0000
0000
1003
0010
0100
,  // measure 13
0010
0000
1000
0000
0001
0100
0002
0000
,  // measure 14
0003
1000
0010
1000
0010
0100
0020
0000
,  // measure 15
0030
0000
0200
0000
0300
0010
0100
0010
,  // measure 16
0100
0001
0011
1000
,  // measure 17
0100
0010
0002
0003
,  // measure 18
1000
0010
2000
0000
0000
0000
3001
0010
,  // measure 19
0001
0101
0011
2000
,  // measure 20
0000
0000
3010
0100
0001
0010
0100
0000
,  // measure 21
1000
0100
2000
0000
0000
0000
3001
0010
,  // measure 22
0002
0103
0010
0200
,  // measure 23
0000
0301
2000
0000
,  // measure 24
3001
0110
0000
0011
,  // measure 25
0011
0000
0000
1000
,  // measure 26
0010
0100
0101
0001
,  // measure 27
0010
0100
1000
0100
,  // measure 28
0011
0000
0000
1000
,  // measure 29
0010
0000
0100
0000
0001
0000
0000
1000
,  // measure 30
0001
1000
1000
0001
,  // measure 31
0001
0000
0000
0100
,  // measure 32
0010
0100
0010
1000
,  // measure 33
0001
0201
0000
0301
,  // measure 34
2000
0000
3001
0002
,  // measure 35
0000
0103
0010
0100
,  // measure 36
0110
0000
1001
0000
0000
0001
1000
0000
,  // measure 37
0010
0100
0001
1010
,  // measure 38
0010
1000
0011
0001
,  // measure 39
1000
0012
0000
1003
,  // measure 40
0200
0000
0310
0001
,  // measure 41
1000
0010
0100
0001
,  // measure 42
0000
1000
0200
0000
0310
0000
0001
0000
,  // measure 43
0012
0000
1003
0010
,  // measure 44
0100
0001
2000
0000
,  // measure 45
3001
1001
0001
0100
,  // measure 46
0010
0010
1000
0001
,  // measure 47
0100
0010
1000
0001
,  // measure 48
0000
0001
0100
0000
0110
0000
0010
0000
,  // measure 49
1001
1000
0010
0200
,  // measure 50
0000
0300
0110
1001
,  // measure 51
0110
2001
0000
3001
,  // measure 52
0100
0010
0000
0010
,  // measure 53
1000
0001
0001
0100
,  // measure 54
0000
0010
1000
0000
0001
0000
0100
0000
,  // measure 55
0202
0000
0303
0001
,  // measure 56
1000
0010
0200
0000
,  // measure 57
0310
0100
0001
1000
,  // measure 58
0002
0000
0103
0010
,  // measure 59
1000
0001
1000
1100
,  // measure 60
0000
0001
0001
0010
,  // measure 61
0200
0300
0100
2000
,  // measure 62
0000
3000
0001
0100
,  // measure 63
0010
2000
0000
3000
,  // measure 64
0001
0000
0100
0010
,  // measure 65
1000
0001
1100
0000
,  // measure 66
0000
0010
0000
0100
,  // measure 67
0001
0000
0000
1000
,  // measure 68
0000
0010
0100
0000
,  // measure 69
0000
0001
0000
1000
,  // measure 70
0010
0000
0000
0100
,  // measure 71
0000
0000
0100
0000
;

//---------------dance-single - ----------------
#NOTEDATA:;
#CHARTNAME:;
#STEPSTYPE:dance-single;
#DESCRIPTION:;
#CHARTSTYLE:;
#DIFFICULTY:Hard;
#METER:12;
#RADARVALUES:0.456909,0.594541,0.181351,0.445133,0.131891,388.000000,366.000000,22.000000,54.000000,0.000000,0.000000,0.000000,0.000000,0.000000,0.456909,0.594541,0.181351,0.445133,0.131891,388.000000,366.000000,22.000000,54.000000,0.000000,0.000000,0.000000,0.000000,0.000000;
#CREDIT:;
#NOTES:
0000
0000
0000
0000
,
0000
0000
0000
0000
,
0000
0000
0000
0000
,
0000
0000
0200
0000
0000
0310
0100
0010
,
1000
0000
0001
0200
,
0300
0000
0010
1000
0010
0000
0100
0000
0001
0000
1000
0000
0010
0000
1000
0000
,
0001
1000
0200
0000
0300
0010
0001
0000
,
1100
0000
1001
0000
0001
0010
0200
0000
,
0300
1000
0100
0000
0010
0000
0001
0000
,
0000
1000
0010
0000
0000
0000
0100
0010
,
0100
0000
0000
0010
0100
0001
0201
0000
,
0300
0000
0001
1000
0001
0100
0010
0100
,
0010
0000
2000
0000
3001
0100
0001
0100
,
0010
0000
1000
0010
0000
0100
0010
0000
0100
0000
0001
0000
2000
0000
0000
0000
,
3001
0010
0001
1000
0100
0010
0001
0000
,
0000
0000
0000
0000
1000
0000
0010
0100
0010
0000
1000
0000
0001
0000
0100
0000
,
0010
0000
1000
0010
0000
1000
0010
0000
0100
0000
0000
0000
0001
0000
0000
0000
,
1000
0000
0110
0000
0001
0010
0001
0010
,
0100
0000
1000
0000
0010
0000
0100
0010
0100
0000
0000
0000
0001
0000
1000
0000
,
0002
0000
1003
0000
0010
0100
0020
0000
,
1030
0000
0000
0000
0001
0000
0100
0000
0010
0000
1000
0001
1000
0000
0000
0000
,
0001
0100
0020
0000
1030
0000
0001
0100
,
0010
0000
0000
0000
1000
0100
1000
0000
0001
0000
0100
0000
0220
0000
0000
0000
,
0330
0000
0010
0100
0010
0000
1000
0000
0002
0000
0000
0000
1000
0000
0000
0000
,
0103
0010
0100
0001
,
2000
3010
0100
0001
,
1000
0010
0100
0000
0002
0000
0023
0000
,
0230
2300
3001
0100
,
0020
0000
1030
0001
0100
0000
0002
0000
,
2003
0000
3020
0000
0230
0000
0300
0001
,
1000
0001
1000
0000
0001
0000
0000
0000
0100
0000
0000
0000
0010
0000
0000
0000
,
2000
3000
0000
0002
,
0203
0000
0000
0000
0320
0000
0000
0000
2030
0000
0000
3000
0001
0000
0000
0000
,
0011
0000
2200
0000
0300
0000
3001
0100
,
0010
0000
1000
0110
,
0000
0001
1000
0100
,
0010
0000
0001
0000
0000
0100
0010
0000
,
2000
3200
0320
0032
,
1003
0010
0110
0011
,
1001
0110
0101
1010
,
0010
0000
0100
0010
0100
0000
0000
0000
0001
0000
1000
0000
0010
0000
0100
0001
,
0100
0010
1000
0000
0010
0000
0001
0000
,
0000
0000
0010
0000
1000
0000
0001
0100
0001
0000
0000
0000
1000
0000
0000
0000
,
0020
0000
0000
0000
0130
0000
0000
0000
0001
0000
1000
0010
2000
0000
0000
0000
,
3002
0000
0203
0000
0320
0000
1030
0001
,
1000
0001
0011
0100
,
0010
1000
0001
0100
,
0010
0000
0100
0000
0110
0000
1000
0001
,
0000
0100
0001
0000
1000
0000
0100
0000
,
0010
0001
0100
0020
,
1000
0031
0100
0010
,
1100
0012
0000
0103
,
0010
0000
0100
0010
0100
0000
0000
0000
0001
0000
1000
0000
0001
0000
0100
0010
,
1000
0000
0001
0010
0100
0000
1000
0000
,
0000
0100
0020
0000
0032
0000
2003
0000
,
3200
0000
0000
0000
0300
0000
0000
0000
0010
0000
0001
0010
0002
0000
0000
0000
,
2003
0000
3002
0000
2003
0000
3010
0100
,
0001
0100
0110
0000
1000
0000
0010
0000
,
2100
0000
3010
0000
0100
0001
1001
0000
,
0101
0010
0001
1000
,
0000
0000
0001
0100
0010
1000
0001
0000
,
1000
0000
0010
0100
0001
0000
2000
0000
,
0010
3010
0100
0001
,
1000
0200
0010
0000
,
0310
0001
1000
0020
,
0100
0000
0130
0001
,
1000
0000
0002
0000
0000
0000
1003
0010
,
0100
0000
0010
0100
0000
0010
0100
0000
0010
0000
1000
0000
0001
0000
1000
0001
,
0000
1000
0001
0000
0010
0000
0100
0000
1000
0000
0100
0010
0000
0001
0100
0000
,
0010
0000
1000
0000
0001
0000
0010
0100
0000
0010
0100
0000
1000
0000
0001
0000
,
0100
0000
0010
0100
0000
0010
1000
0000
0001
0000
0010
0000
0001
0000
0100
0001
,
0000
0100
0001
0000
0010
0000
0001
0000
0100
0000
0001
0010
0000
0001
0010
0000
,
0001
0100
0000
0000
0000
0000
0000
0000
;
