#VERSION:0.83;
#TITLE:Forever The Earth;
#SUBTITLE:;
#ARTIST:n.a.r.d;
#TITLETRANSLIT:;
#SUBTITLETRANSLIT:;
#ARTISTTRANSLIT:;
#GENRE:;
#ORIGIN:;
#CREDIT:from pop n music 11;
#BANNER:n.a.r.d - Forever The Earth.png;
#BACKGROUND:;
#PREVIEWVID:;
#JACKET:;
#CDIMAGE:;
#DISCIMAGE:;
#LYRICSPATH:;
#CDTITLE:;
#MUSIC:n.a.r.d - Forever The Earth.mp3;
#OFFSET:-0.032000;
#SAMPLESTART:10.682000;
#SAMPLELENGTH:15.800000;
#SELECTABLE:YES;
#BPMS:0.000=90.000;
#STOPS:;
#DELAYS:;
#WARPS:;
#TIMESIGNATURES:0.000=4=4;
#TICKCOUNTS:0.000=4;
#COMBOS:0.000=1;
#SPEEDS:0.000=1.000=0.000=0;
#SCROLLS:0.000=1.000;
#FAKES:;
#LABELS:0.000=Song Start;
#BGCHANGES:;
#KEYSOUNDS:;
#ATTACKS:
;

//---------------dance-single - ----------------
#NOTEDATA:;
#CHARTNAME:;
#STEPSTYPE:dance-single;
#DESCRIPTION:;
#CHARTSTYLE:;
#DIFFICULTY:Beginner;
#METER:1;
#RADARVALUES:0.070937,0.088277,0.022069,0.033104,0.000000,45.000000,43.000000,2.000000,3.000000,0.000000,0.000000,0.000000,0.000000,0.000000,0.070937,0.088277,0.022069,0.033104,0.000000,45.000000,43.000000,2.000000,3.000000,0.000000,0.000000,0.000000,0.000000,0.000000;
#CREDIT:;
#NOTES:
0000
0000
0000
0000
,
1000
0000
0000
0000
,
0001
0000
0000
0000
,
1000
0000
0000
0000
,
1000
0000
0001
0000
,
0001
0000
0000
0000
,
1000
0000
1000
0000
,
0001
0000
0001
0000
,
1000
0000
0001
0000
,
0001
0000
0000
0000
,
1000
0000
0001
0000
,
0001
0000
0000
0000
,
1001
0000
0000
0000
,
1000
0000
1000
0000
,
0001
0000
0000
0000
,
0001
0000
0001
0000
,
1000
0000
0000
0000
,
1000
0000
0001
0000
,
1000
0000
0000
0000
,
0001
0000
1000
0000
,
0001
0000
0000
0000
,
2000
0000
3000
0000
,
0002
0000
0003
0000
,
1000
0000
0001
0000
,
1000
0000
0000
0000
,
0002
0000
0003
0000
,
1000
0000
1000
0000
,
1000
0000
0000
0000
,
0010
0000
0000
0000
,
0010
0000
0000
0000
,
0010
0000
0000
0000
,
0010
0000
0000
0000
,
0110
0000
0000
0000
;

//---------------dance-single - ----------------
#NOTEDATA:;
#CHARTNAME:;
#STEPSTYPE:dance-single;
#DESCRIPTION:;
#CHARTSTYLE:;
#DIFFICULTY:Easy;
#METER:4;
#RADARVALUES:0.193894,0.233106,0.088277,0.066208,0.000000,123.000000,115.000000,8.000000,6.000000,0.000000,0.000000,0.000000,0.000000,0.000000,0.193894,0.233106,0.088277,0.066208,0.000000,123.000000,115.000000,8.000000,6.000000,0.000000,0.000000,0.000000,0.000000,0.000000;
#CREDIT:;
#NOTES:
0000
0000
0000
0000
,
1000
0000
0100
0000
0010
0000
0001
0001
,
0001
1000
0001
0100
,
0010
0000
0100
0000
0001
0000
1000
1000
,
1000
0000
0001
1000
0001
0000
1000
0001
,
1000
0000
0001
0100
0001
0000
1000
0000
,
1000
0010
1000
0001
,
2000
0001
3001
1000
,
1000
0000
1000
1000
1000
0000
0001
0000
,
1000
0000
0010
0000
1000
1000
1000
0000
,
1000
0001
0101
0010
,
0100
0010
1000
0001
,
1001
1000
1000
0000
,
0001
0001
0010
0000
,
0001
0001
0010
0010
,
0001
0000
1001
0000
,
2000
0001
3001
0100
,
0020
0000
0130
0100
,
0110
0000
0000
0010
,
0010
0000
1000
0100
,
0001
0000
0001
0100
,
2000
0000
3001
1000
,
0010
0100
0010
0000
,
1000
0001
1000
0001
,
1000
0100
0010
0001
,
0002
0000
1003
0001
,
0100
0010
1000
0010
,
0100
0001
0001
1000
,
1001
0000
0001
1000
,
1001
0000
1000
0100
,
0110
0000
0001
0010
,
0110
0000
0000
0100
,
0200
0000
0300
0000
;

//---------------dance-single - ----------------
#NOTEDATA:;
#CHARTNAME:;
#STEPSTYPE:dance-single;
#DESCRIPTION:;
#CHARTSTYLE:;
#DIFFICULTY:Medium;
#METER:6;
#RADARVALUES:0.296358,0.304831,0.121381,0.231727,0.000000,188.000000,177.000000,11.000000,21.000000,0.000000,0.000000,0.000000,0.000000,0.000000,0.296358,0.304831,0.121381,0.231727,0.000000,188.000000,177.000000,11.000000,21.000000,0.000000,0.000000,0.000000,0.000000,0.000000;
#CREDIT:;
#NOTES:
0000
0000
0000
0000
,
0010
0100
0100
0001
0010
0100
1000
0001
,
0010
0100
0100
0001
1000
0010
0001
0100
,
0010
0010
0100
0000
1000
0000
1000
1000
,
2000
3000
0001
0100
0001
0010
1000
0010
,
0001
0100
0001
0200
0000
0300
0001
0000
,
1000
0100
0010
0100
2000
0000
3000
0001
,
2000
0000
0001
0001
3000
0001
1000
0000
,
2000
3000
1000
0010
1000
0100
0001
0100
,
1000
0010
1000
0200
0000
0000
0300
0001
,
0010
0100
0010
0002
0000
0003
0010
0000
,
0200
0300
0010
0002
0000
0003
1000
0000
,
1001
0000
1000
0200
0000
1300
0001
1000
,
0001
0100
0001
0020
0000
0030
0001
0000
,
1001
0000
1000
0010
0010
0100
0010
0100
,
0001
1000
0100
0020
0000
0030
0001
0000
,
2000
0000
0001
0000
3100
0000
0100
0010
,
0002
0000
0103
0100
,
0110
0000
0110
0000
1001
0000
0010
1000
,
0010
0000
1000
0010
1000
0000
0100
1000
,
0010
0000
0100
0000
0001
0100
0001
0100
,
2000
0100
3000
0001
,
0011
0000
0110
0000
1010
0000
1000
0100
,
2000
0000
3002
0000
1003
0100
0001
0100
,
1000
0000
0100
0010
0010
0000
0001
0001
,
2000
0000
0100
0000
3000
0000
0001
0010
,
0100
0000
0010
0001
1000
0000
0110
0000
,
0101
0000
0001
1000
0001
0001
0100
1000
,
0200
0000
0301
0000
0001
1000
0001
1000
,
1001
0000
1000
0001
1000
0001
0100
0000
,
0200
0000
0301
1000
0001
0010
0001
1000
,
0100
0000
0100
0100
0000
0100
0100
0000
,
0200
1000
1300
0000
;

//---------------dance-single - ----------------
#NOTEDATA:;
#CHARTNAME:;
#STEPSTYPE:dance-single;
#DESCRIPTION:;
#CHARTSTYLE:;
#DIFFICULTY:Hard;
#METER:9;
#RADARVALUES:0.405128,0.376556,0.198623,0.308969,0.204140,257.000000,239.000000,18.000000,28.000000,0.000000,0.000000,0.000000,0.000000,0.000000,0.405128,0.376556,0.198623,0.308969,0.204140,257.000000,239.000000,18.000000,28.000000,0.000000,0.000000,0.000000,0.000000,0.000000;
#CREDIT:;
#NOTES:
// measure 0
0000
0000
0000
0000
,  // measure 1
0100
0001
0000
0100
0001
0000
0001
0010
0000
0100
1000
0000
1000
0001
0000
0000
,  // measure 2
0010
0100
0000
0010
0100
0000
1000
0001
0000
0000
0010
0000
0001
0100
0000
0000
,  // measure 3
0010
0100
0000
0000
0110
0000
0100
0010
0000
1000
0001
0000
1000
0001
1000
0000
,  // measure 4
2000
3000
0001
0100
0001
0110
0000
0100
,  // measure 5
0001
0000
0100
0000
0010
0000
0200
0000
0001
0000
0300
0000
0001
1000
0000
0000
,  // measure 6
1000
0000
0100
0000
0010
0000
0100
0010
0000
0000
0100
0000
1000
0001
0000
0000
,  // measure 7
2000
0000
0000
0000
3001
0000
0100
0001
0000
0000
1000
0000
0001
1000
0000
0000
,  // measure 8
2000
3000
0010
0100
1000
0100
0001
0100
,  // measure 9
0001
0000
0010
0000
0100
0000
2000
0000
3000
0000
0001
0000
1000
0001
0000
0000
,  // measure 10
0010
0000
0100
0000
0010
0000
0002
0000
1000
0000
1003
0000
0010
0100
0000
0000
,  // measure 11
0002
0000
0003
0000
0010
0000
0002
0000
0000
0000
1003
0000
1000
0001
0000
0000
,  // measure 12
1001
0000
1000
0200
1000
1300
0001
1000
,  // measure 13
0001
0100
0010
0200
0010
0310
1001
0000
,  // measure 14
2000
3000
0100
0010
0010
0001
0010
0100
,  // measure 15
1001
1000
0001
0200
0310
0010
0100
0010
,  // measure 16
2000
0001
0001
0001
3100
0100
0100
0010
,  // measure 17
0002
1000
1000
0100
0203
0300
0020
0030
,  // measure 18
0100
0010
0000
0000
0110
0000
0100
0010
0000
0000
0100
0000
0010
1000
0000
0000
,  // measure 19
0010
0100
0000
0000
1001
0000
0001
1000
0000
0001
0010
0000
0001
0000
0100
0020
,  // measure 20
0000
0000
0030
0000
0100
0000
0001
0000
1001
0000
0100
0000
0001
0000
0100
0002
,  // measure 21
0000
0003
0100
0010
0100
0001
1001
1000
,  // measure 22
0001
0000
0010
0000
0110
0000
1000
0010
0000
0000
1000
0000
1100
0000
0100
0000
,  // measure 23
2000
0000
0001
0000
3002
0000
1000
0000
1003
0000
0100
0000
0010
0000
0001
2000
,  // measure 24
0000
0000
3000
0000
0010
0000
1000
0000
0100
0000
0010
0000
0001
0000
0010
0200
,  // measure 25
0000
0301
0100
1000
0001
1000
1001
0010
,  // measure 26
0110
0000
0000
0000
0010
0000
0100
0001
0000
0000
1000
0000
0001
1000
0000
0000
,  // measure 27
0202
0000
0303
0000
0001
0000
1000
0001
1000
0000
0001
0000
0100
0000
0010
0200
,  // measure 28
0000
0301
0001
1000
0001
1000
0100
0010
,  // measure 29
0110
0010
0001
1000
1000
0100
0010
0100
,  // measure 30
0200
0000
0310
0002
0003
1000
1001
0100
,  // measure 31
0110
0000
0000
0000
0100
0000
0010
0100
0000
0000
0100
0000
0010
0000
0100
0000
,  // measure 32
0201
0001
0001
0001
0310
0000
0000
0000
;
