#VERSION:0.83;
#TITLE:For Dear ~;
#SUBTITLE:;
#ARTIST:Reiji Sakurai;
#TITLETRANSLIT:;
#SUBTITLETRANSLIT:;
#ARTISTTRANSLIT:;
#GENRE:;
#ORIGIN:;
#CREDIT:;
#BANNER:Reiji Sakurai - For Dear ~ (cut).png;
#BACKGROUND:;
#PREVIEWVID:;
#JACKET:;
#CDIMAGE:;
#DISCIMAGE:;
#LYRICSPATH:;
#CDTITLE:;
#MUSIC:Reiji Sakurai - For Dear ~ (cut).mp3;
#OFFSET:-0.034000;
#SAMPLESTART:41.415001;
#SAMPLELENGTH:16.000000;
#SELECTABLE:YES;
#BPMS:0.000=188.506;
#STOPS:;
#DELAYS:;
#WARPS:;
#TIMESIGNATURES:0.000=4=4;
#TICKCOUNTS:0.000=4;
#COMBOS:0.000=1;
#SPEEDS:0.000=1.000=0.000=0;
#SCROLLS:0.000=1.000;
#FAKES:;
#LABELS:0.000=Song Start;
#BGCHANGES:;
#KEYSOUNDS:;
#ATTACKS:
;

//---------------dance-single - ----------------
#NOTEDATA:;
#CHARTNAME:;
#STEPSTYPE:dance-single;
#DESCRIPTION:;
#CHARTSTYLE:;
#DIFFICULTY:Beginner;
#METER:4;
#RADARVALUES:0.153861,0.191399,0.025952,0.038929,0.000000,83.000000,81.000000,2.000000,3.000000,0.000000,0.000000,0.000000,0.000000,0.000000,0.153861,0.191399,0.025952,0.038929,0.000000,83.000000,81.000000,2.000000,3.000000,0.000000,0.000000,0.000000,0.000000,0.000000;
#CREDIT:;
#NOTES:
0000
0000
0000
0000
,
0100
0000
0010
0000
,
0100
0000
0000
0000
,
0010
0000
0100
0000
,
0010
0000
1000
0000
,
0001
0000
1000
0000
,
0001
0000
0000
0000
,
0001
0000
0001
0000
,
1000
0000
0000
0000
,
1000
0000
0000
0000
,
0001
0000
0000
0000
,
0100
0000
0010
0000
,
0100
0000
0000
0000
,
0010
0000
0100
0000
,
0010
0000
0000
0000
,
0100
0000
0000
0000
,
0010
0000
0000
0000
,
0110
0000
0000
0000
,
0001
0000
0000
0000
,
1000
0000
0001
0000
,
0010
0000
0000
0000
,
1000
0000
0001
0000
,
0100
0000
0000
0000
,
0010
0000
0010
0000
,
0000
0000
0100
0000
,
0010
0000
0100
0000
,
0000
0000
0010
0000
,
0100
0000
0010
0000
,
0000
0000
0000
0000
,
1001
0000
0000
0000
,
0100
0000
0001
0000
,
1000
0000
0000
0000
,
0001
0000
0001
0000
,
1000
0000
0001
0000
,
0000
0000
1000
0000
,
0010
0000
0100
0000
,
0000
0000
0001
0000
,
0100
0000
0010
0000
,
0000
0000
1000
0000
,
0100
0000
0001
0000
,
0000
0000
1000
0000
,
0100
0000
0010
0000
,
0000
0000
0001
0000
,
0100
0000
0001
0000
,
0000
0000
0001
0000
,
0001
0000
0100
0000
,
0000
0000
0100
0000
,
0100
0000
1000
0000
,
0000
0000
0000
0000
,
0001
0000
1000
0000
,
0001
0000
0000
0000
,
1000
0000
0010
0000
,
1000
0000
0000
0000
,
0020
0000
0000
0000
0000
0000
0000
0030
,
0000
0000
0100
0000
,
0200
0000
0000
0000
0000
0000
0000
0300
,
0000
0000
0010
0000
,
0020
0000
0000
0000
0000
0000
0000
0030
,
0000
0000
1000
0000
,
1000
0000
0000
0000
;

//---------------dance-single - ----------------
#NOTEDATA:;
#CHARTNAME:;
#STEPSTYPE:dance-single;
#DESCRIPTION:;
#CHARTSTYLE:;
#DIFFICULTY:Easy;
#METER:5;
#RADARVALUES:0.220596,0.267959,0.064881,0.051905,0.000000,119.000000,114.000000,5.000000,4.000000,0.000000,0.000000,0.000000,0.000000,0.000000,0.220596,0.267959,0.064881,0.051905,0.000000,119.000000,114.000000,5.000000,4.000000,0.000000,0.000000,0.000000,0.000000,0.000000;
#CREDIT:;
#NOTES:
// measure 0
0000
0000
0000
0000
,  // measure 1
0100
0000
0010
0000
,  // measure 2
0100
0000
0001
1000
,  // measure 3
0001
0000
1000
0000
,  // measure 4
0001
0000
1000
0001
,  // measure 5
0100
0000
0010
0000
,  // measure 6
1000
0000
0001
0001
,  // measure 7
1000
1000
0001
0000
,  // measure 8
0000
0000
0100
0000
,  // measure 9
0010
0000
0100
0000
,  // measure 10
0010
0000
0100
0010
,  // measure 11
0100
0000
0010
0000
,  // measure 12
0100
0000
0010
0100
,  // measure 13
0010
0000
0001
0000
,  // measure 14
1000
0000
0001
0000
,  // measure 15
0001
0000
1000
0000
,  // measure 16
0001
0000
0000
0000
,  // measure 17
0100
0000
0010
0000
,  // measure 18
0100
0000
0000
0000
,  // measure 19
0010
0000
0100
0000
,  // measure 20
0010
0000
0000
0000
,  // measure 21
1000
1000
1000
0000
,  // measure 22
0001
0000
0000
0000
,  // measure 23
0001
0001
0001
0000
,  // measure 24
1000
0000
0000
0000
,  // measure 25
1000
0000
0100
0000
,  // measure 26
0010
0000
0001
0000
,  // measure 27
1000
0000
0100
0000
,  // measure 28
0010
0000
0000
0000
,  // measure 29
0001
0000
1000
0000
,  // measure 30
0010
0000
0100
0000
,  // measure 31
0001
0000
0000
0000
,  // measure 32
1001
0000
1001
0000
,  // measure 33
1000
0000
0001
0000
,  // measure 34
0000
0000
1000
0000
,  // measure 35
0010
0000
0100
0000
,  // measure 36
0001
0000
1000
1000
,  // measure 37
1000
0000
0001
0000
,  // measure 38
0010
0000
0001
0000
,  // measure 39
1000
0000
0010
0000
,  // measure 40
0100
0000
0001
0001
,  // measure 41
0001
0000
1000
0000
,  // measure 42
0010
0000
0100
0000
,  // measure 43
0001
0000
0010
0000
,  // measure 44
0100
0000
1000
1000
,  // measure 45
1000
0000
0001
0000
,  // measure 46
0001
0000
1000
0000
,  // measure 47
1000
0000
0010
0000
,  // measure 48
0010
0000
0000
0000
,  // measure 49
0110
0000
0110
0000
,  // measure 50
0000
0000
0220
0000
,  // measure 51
0000
0330
0000
0000
0001
0000
0000
0000
,  // measure 52
0000
0000
1000
0000
,  // measure 53
0002
0000
1000
0000
,  // measure 54
0000
0003
0000
0000
1000
0000
0000
0000
,  // measure 55
0001
0000
0100
0000
,  // measure 56
0010
0010
0010
0000
,  // measure 57
2000
0000
0001
0000
,  // measure 58
0000
3000
0000
0000
0001
0000
0000
0000
,  // measure 59
0100
0000
0000
0000
;

//---------------dance-single - ----------------
#NOTEDATA:;
#CHARTNAME:;
#STEPSTYPE:dance-single;
#DESCRIPTION:;
#CHARTSTYLE:;
#DIFFICULTY:Medium;
#METER:8;
#RADARVALUES:0.394848,0.382799,0.090834,0.233572,0.000000,213.000000,206.000000,7.000000,18.000000,0.000000,0.000000,0.000000,0.000000,0.000000,0.394848,0.382799,0.090834,0.233572,0.000000,213.000000,206.000000,7.000000,18.000000,0.000000,0.000000,0.000000,0.000000,0.000000;
#CREDIT:;
#NOTES:
0000
0000
0000
0000
0000
0000
0100
0020
,
0000
0000
0000
0030
0100
0000
0010
0200
,
0000
0000
0000
0300
0001
0000
1000
0002
,
0000
0000
0000
0003
1000
0000
0001
2000
,
0000
0000
0000
3000
0001
0000
0100
0002
,
0000
0000
0000
0003
1000
0000
0010
0200
,
0000
0000
0000
0300
0001
0000
0010
0000
,
0100
0000
1000
0000
0010
0000
0010
0100
,
0000
0000
0010
0000
0100
0000
0001
2000
,
0000
0000
0000
3001
1000
0000
0001
1000
,
0000
0000
0010
0000
0100
0000
0001
2000
,
0000
0000
0000
3000
0010
0000
0010
0100
,
0000
0000
0100
0000
0001
0000
1000
0002
,
0000
0000
0000
0003
1000
0000
0010
0200
,
0000
0000
0000
0300
0001
0000
1000
0000
,
0010
0000
0100
0010
0100
0000
0000
0110
,
0000
0000
0000
0000
0010
0000
0100
0010
,
0000
0000
0100
0000
0001
0000
1000
0010
,
0000
0000
0100
0000
0010
0000
0010
0010
,
0000
0000
0100
0000
0100
0000
0100
0010
,
0000
0000
0100
0000
0001
0000
1000
0001
,
0000
0000
0001
0000
1000
0000
0100
0010
,
0000
0100
1000
0010
,
0100
0001
1000
0010
,
0100
0000
0001
1000
,
1001
0000
0100
0000
0010
0100
0000
0020
,
0000
0030
0000
0000
0100
0000
0010
0000
,
0100
0000
0010
0000
0010
0100
0000
0010
,
0000
0000
0100
0000
0020
0000
0000
0030
,
2000
0000
0000
3000
0001
0000
1000
0001
,
0000
1000
0001
0000
0100
0000
0000
0000
,
0010
0010
0010
0000
,
1000
0001
1000
0001
,
0200
0000
0000
0300
0001
0000
1000
0001
,
0000
0100
0001
0010
,
0100
0000
1000
0000
0001
0000
1000
0100
,
0000
0100
1000
0010
,
0100
0000
0001
0000
0001
1000
0000
0001
,
0000
0100
0010
0100
,
0001
0000
1000
0000
0001
1000
0000
0001
,
0000
0100
0010
0100
,
0010
0000
0010
0000
0100
0001
0000
0100
,
0000
0001
1000
0001
,
0100
0000
0010
0000
0010
0100
0000
1001
,
0000
0000
1000
0001
,
1001
0000
0100
0000
1000
0001
0000
0001
,
0000
0000
1000
0010
,
0001
0000
0010
0000
1000
0000
0001
2000
,
0000
0000
0000
3000
0000
0000
0000
0000
,
1000
0000
0001
1000
0000
0000
0001
1000
,
0000
0001
0001
0001
,
1001
0000
0000
0000
1000
0000
0001
1000
,
0000
1000
0010
0100
,
0010
2000
3000
1000
,
0001
0010
0001
1000
,
0200
0000
0300
0000
1000
0000
0000
1001
,
0000
0001
1000
0000
,
1002
0000
0000
0000
1000
0000
0000
1000
,
0000
0003
1000
0000
0001
0000
0100
0000
,
0001
0000
0000
0000
;

//---------------dance-single - from pop n music 12----------------
#NOTEDATA:;
#CHARTNAME:;
#STEPSTYPE:dance-single;
#DESCRIPTION:from pop n music 12;
#CHARTSTYLE:;
#DIFFICULTY:Hard;
#METER:12;
#RADARVALUES:0.613590,0.612478,0.246548,0.220596,0.025952,331.000000,312.000000,19.000000,17.000000,0.000000,0.000000,0.000000,0.000000,0.000000,0.613590,0.612478,0.246548,0.220596,0.025952,331.000000,312.000000,19.000000,17.000000,0.000000,0.000000,0.000000,0.000000,0.000000;
#CREDIT:;
#NOTES:
0000
0000
0000
0000
0010
0000
0100
0020
,
0000
0030
0100
0000
0100
0000
0010
0200
,
0000
0310
0010
0000
1000
0000
1000
0001
,
1000
0000
0001
0000
1000
0010
1000
0020
,
0000
0030
0100
0000
0001
0000
0100
0020
,
0000
0030
0100
0000
0001
0010
0100
2000
,
0000
3001
0001
0000
0001
0000
0011
0000
,
0110
0000
1100
0000
0010
0100
0010
0100
,
0000
0010
0100
0010
0100
0000
0001
2000
,
0000
3000
0000
0001
1000
0000
0001
1000
,
0000
0010
0100
0000
0001
0010
0100
2000
,
0000
3000
0001
0000
0100
0010
0100
0010
,
0000
0100
0010
1000
0001
0000
1000
0002
,
0000
0003
1000
0000
0010
0100
0010
0100
,
0000
0010
0001
1000
0100
0000
0001
0010
,
0000
0000
0000
0000
0001
0000
0010
0000
0001
0000
0000
0100
0000
0000
0001
0000
,
0000
0000
1000
0000
0010
0100
0010
0100
,
0010
0000
0100
0010
0010
0000
1000
0100
,
0000
0010
0100
0000
1000
0000
0100
0010
,
0000
0001
0100
0000
0010
0000
0010
0100
,
0000
0000
0100
0010
0010
0000
0100
0102
,
0000
0000
0103
0000
0010
0000
0100
0020
,
0000
0030
1000
0001
0100
0000
0010
0100
,
0010
0000
1000
0000
0001
0100
0010
0100
,
0001
0000
1000
0100
1000
0000
1100
0000
,
1001
0000
0110
0000
0010
0100
0000
0020
,
0000
0000
0030
0100
0100
0010
0010
0000
,
0100
0000
0011
0000
0010
0100
0000
0100
,
0000
0010
0001
0000
0100
0010
0100
0000
,
0010
0100
0001
0100
0010
0010
0000
0110
,
0000
0101
0000
1000
0001
1000
0001
0200
,
0000
0000
0310
0000
0100
0010
0100
0000
,
0010
0100
0010
0100
0010
0100
0010
0000
0000
0000
0000
0000
0000
0000
0000
0000
,
0101
0000
0100
0000
0001
1000
0001
1000
,
0000
0100
0010
0000
0001
0010
0001
1000
,
0100
1000
0001
0100
0001
0100
0000
0010
,
0000
0100
0010
0000
0110
0000
0010
0000
,
0101
0000
0100
0001
0010
0001
0000
0001
,
0000
0001
0100
0000
0010
0000
1000
0000
,
1001
0000
1000
0010
0100
1000
0000
1000
,
0000
1000
0100
0000
0001
0010
0001
0000
,
0110
0000
1000
0000
0100
0001
0100
0001
,
0000
0100
1000
0000
1000
0010
0100
0000
,
0001
0000
0100
0000
0010
0100
0000
1001
,
0000
0100
0010
0000
0100
0001
0100
0010
,
1001
0000
0100
0000
0100
0001
0100
0001
,
0000
0001
0100
0000
0010
1000
0010
0100
,
0001
0000
0010
0000
0100
0000
1000
0002
,
0000
0000
0003
0000
0000
1000
0001
1000
,
0001
0010
0100
0010
0001
0010
0100
1000
,
0000
0100
0010
0001
0010
0001
0000
0000
,
2001
0000
3001
0000
1000
0001
0000
1001
,
0000
0001
1000
0000
0020
0000
0130
0000
,
0200
0000
0001
0000
0301
1000
0001
1000
,
0000
0010
0100
0000
0001
0100
1000
0000
,
0100
0001
0010
0000
0001
0010
0100
1000
,
0000
1000
0001
0000
1000
0100
0000
0100
,
2000
0000
0001
0000
3001
0000
0100
1000
,
0000
0010
0100
0000
0001
0010
0100
0010
,
0001
0000
0000
0000
;
