#TITLE:First Date;
#SUBTITLE:;
#ARTIST:ko-saku;
#TITLETRANSLIT:;
#SUBTITLETRANSLIT:;
#ARTISTTRANSLIT:;
#GENRE:;
#CREDIT:;
#BANNER:;
#BACKGROUND:;
#LYRICSPATH:;
#CDTITLE:;
#MUSIC:GuitarFreaks V4 & DrumMania V4_ ko-saku - First Date.ogg;
#OFFSET:-0.677000;
#SAMPLESTART:6.885000;
#SAMPLELENGTH:17.000000;
#SELECTABLE:YES;
#BPMS:0.000000=183.026001
;
#STOPS:
;
#BGCHANGES:;
#KEYSOUNDS:;
#ATTACKS:;

//---------------dance-single - ----------------
#NOTES:
     dance-single:
     :
     Beginner:
     1:
     0.058238,0.110933,0.000000,0.041812,0.000000,39.000000,39.000000,0.000000,4.000000,0.000000,0.000000,0.058238,0.110933,0.000000,0.041812,0.000000,39.000000,39.000000,0.000000,4.000000,0.000000,0.000000:
0000
0000
0000
0000
,
0000
0000
0000
0000
,
0000
0000
0000
0000
,
0000
0000
0000
0000
,
0000
0000
0000
0100
,
0000
0000
0000
0000
,
0000
0000
0000
0001
,
0000
0000
0000
0000
,
0000
0000
0000
1000
,
0000
0000
0000
0000
,
0000
0000
0000
0001
,
0000
0000
0000
0000
,
0000
0000
0000
0200
,
0000
0000
0000
0300
0000
0000
0000
0000
,
0000
0000
0000
0020
,
0000
0000
0000
0030
0000
0000
0000
0000
,
0000
0000
0000
1000
,
0000
0000
0000
1000
,
0000
0000
0000
1000
,
0000
0000
0000
0000
,
0000
0000
0000
0001
,
0000
0000
0000
0000
,
0000
0000
0000
1000
,
0000
0000
0000
0000
,
0000
0000
0000
0001
,
0000
0000
0000
0000
,
0000
0000
0000
0010
,
0000
0000
0000
0000
,
0000
0000
0000
0001
,
0000
0000
0000
0001
,
0000
0000
0000
0001
,
0000
0000
0000
0000
,
0000
0000
0000
0100
,
0000
0000
0000
0100
,
0000
0000
0000
0100
,
0000
0000
0000
0000
,
0000
0000
0000
0010
,
0000
0000
0000
0000
,
0000
0000
0000
1000
,
0000
0000
0000
0000
,
0000
0000
0000
0001
,
0000
0000
0000
0001
,
0000
0000
0000
0001
,
0000
0000
0000
0000
,
0000
0000
0000
1000
,
0000
0000
0000
0001
,
0000
0000
0000
1000
,
0000
0000
0000
0000
,
0000
0000
0000
0100
,
0000
0000
0000
0000
,
0000
0000
0000
0010
,
0000
0000
0000
0000
,
0000
0000
0000
2000
,
0000
0000
0000
3000
0000
0000
0000
0000
,
0000
0000
0000
0002
,
0000
0000
0000
0003
0000
0000
0000
0000
,
0000
0000
0000
1000
,
0000
0000
0000
0000
,
0000
0000
0000
0010
,
0000
0000
0000
0000
,
0000
0000
0000
0100
,
0000
0000
0000
0000
,
0000
0000
0000
0100
,
0000
0000
0000
0000
,
0000
0000
0000
0010
,
0000
0000
0000
0000
,
0000
0000
0000
0010
,
0000
0000
0000
0000
,
0000
0000
0000
1000
,
0000
0000
0000
0000
,
0000
0000
0000
0001
;

//---------------dance-single - ----------------
#NOTES:
     dance-single:
     :
     Easy:
     4:
     0.162769,0.221866,0.031359,0.104530,0.000000,109.000000,106.000000,3.000000,10.000000,0.000000,0.000000,0.162769,0.221866,0.031359,0.104530,0.000000,109.000000,106.000000,3.000000,10.000000,0.000000,0.000000:
0000
0000
0000
0100
,
0000
0000
0000
0000
,
0000
0000
0000
0200
,
0000
0000
0000
0000
0000
0300
0000
0000
,
0000
0000
0000
1001
,
0000
0001
0000
1000
,
0000
0001
0000
0100
,
0000
0010
0000
1000
,
0000
0001
0000
1001
,
0000
0010
0000
0200
,
0000
0300
0000
1000
,
0000
0001
0000
0200
,
0000
0300
0000
0001
,
0001
0001
0000
1000
,
0000
0001
0000
1000
,
1000
1000
0000
0100
,
0000
1000
0000
0001
,
0000
0100
0000
0001
,
0000
1000
0000
0010
,
0000
0100
0000
0001
,
0000
0000
0000
1100
,
0000
1000
0000
0001
,
0000
0100
0000
0001
,
0000
0010
0000
0001
,
0000
1000
0000
0001
,
0000
0100
0000
0001
,
0000
1000
0000
0001
,
0000
1000
0000
0010
,
0000
0000
0000
0200
,
0000
0000
0000
0001
,
0000
0000
0000
0301
,
0000
0000
0000
1000
,
0000
0000
0000
0002
,
0000
0000
0000
1000
,
0000
0000
0000
1003
,
0000
0000
0000
0000
,
0000
0000
0000
0100
,
0000
0001
0000
0100
,
0000
0000
0000
0001
,
0000
1000
0000
0001
,
0000
0000
0000
1000
,
0000
0100
0000
1000
,
0000
0000
0000
0001
,
0000
0001
0000
0001
,
0000
0000
0000
0100
,
0000
0010
0000
0100
,
0000
0000
0000
0001
,
0000
1000
0000
1000
,
0000
0000
0000
0001
,
0000
0001
0000
1000
,
0000
0000
0000
1000
,
0000
0010
0000
0010
,
0000
0000
0000
0200
,
0000
0001
0000
0301
,
0000
0001
0000
2000
,
0000
0010
0000
3010
,
0000
0010
0000
0200
,
0000
0000
0000
0302
,
0000
0000
0000
1003
,
0000
0001
0000
1000
,
0000
0000
0000
0001
,
0000
0000
0000
0100
,
0000
0000
0000
0001
,
0000
1000
0000
0001
,
0000
1000
0000
0010
,
0000
0000
0000
1000
,
0000
0000
0000
0001
,
0000
0100
0000
0010
,
0000
0100
0000
0001
,
0000
0000
0000
0000
0000
2000
0000
0000
,
0000
0000
0000
3000
;

//---------------dance-single - ----------------
#NOTES:
     dance-single:
     :
     Medium:
     7:
     0.340470,0.407472,0.135889,0.271779,0.000000,228.000000,215.000000,13.000000,26.000000,0.000000,0.000000,0.340470,0.407472,0.135889,0.271779,0.000000,228.000000,215.000000,13.000000,26.000000,0.000000,0.000000:
0000
0000
0000
0200
,
0000
0000
0000
0000
,
0000
0000
0300
0020
,
0000
0000
0000
0000
,
0000
0000
0030
1000
,
1001
0000
0001
0000
0000
1000
0000
0000
,
0010
1000
0001
0100
,
0001
0000
0101
0000
0000
1000
0000
0000
,
0010
1000
0001
0110
,
1000
0000
0001
0000
0000
0001
0000
0000
,
1000
0000
0010
0100
0010
0000
0100
0000
,
0001
0000
1001
0000
0000
1000
0000
0000
,
0010
1000
0010
0200
,
0001
0301
0010
0100
,
1000
0100
0000
0010
,
0001
1000
1000
0001
,
0100
0010
0100
0020
,
1000
1000
0130
0002
,
0010
0010
1003
0200
,
0010
0010
0301
1000
,
0001
0000
1000
0001
1000
0000
0001
0000
,
0100
0000
0010
0000
0000
0010
0000
0000
,
1000
0001
0000
1000
,
0010
0000
0100
0000
0000
0001
0000
0000
,
1000
0010
0001
0010
,
1000
0000
0001
0000
0000
1000
0000
0000
,
0010
0100
0001
1000
,
0000
0100
0010
0000
0000
0000
0001
0000
,
0000
1000
0000
0000
0001
1000
0002
0000
,
0000
0000
0013
0200
,
0000
0000
1300
0010
,
0010
0000
0100
0000
0000
0001
0000
1000
,
0000
0001
0000
1000
0000
0000
0002
0000
,
0000
0100
0103
0020
,
0000
1000
1030
1002
,
0000
1003
0000
0010
,
0000
0000
0000
0110
,
0001
1000
0001
1000
,
0010
0100
0001
1000
,
1100
0010
0012
0000
,
1003
0000
0010
0100
0001
0000
1000
0000
,
0001
0001
0100
0010
,
0010
0100
0001
1000
,
0010
0100
0000
0001
,
1000
0100
0000
0001
,
0100
1000
0100
0010
,
0000
0001
0100
0010
,
0000
1010
0000
0101
,
0000
1000
0100
1000
,
0000
0001
0010
0001
,
0000
1000
0100
1000
,
0000
0001
0100
0001
,
0000
1000
0000
1020
,
0000
0200
0030
0000
0000
0302
0000
0000
,
0003
2000
0000
0000
3000
0000
0002
0000
,
0000
0200
0003
0000
0000
0320
0000
0000
,
0030
2000
0000
0000
3000
0000
0010
0000
,
0000
0100
0020
0000
0000
1030
0002
0000
,
0000
1003
0020
0000
0000
0030
0100
0000
,
0001
0100
1000
0100
,
0001
1001
0000
1010
,
0100
0001
1000
0010
,
1000
0100
0010
0001
,
1000
1000
0000
0001
,
0001
0100
0000
0010
,
0000
1000
0000
0001
,
0100
0010
0000
2000
,
0000
3001
0001
0001
,
0001
1000
0010
0100
,
0000
0001
0000
0000
0000
2000
0000
0000
,
0000
3020
0000
0000
0000
0000
0000
0030
;

//---------------dance-single - ----------------
#NOTES:
     dance-single:
     :
     Hard:
     11:
     0.533105,0.518601,0.146342,0.344950,0.000000,357.000000,343.000000,14.000000,33.000000,0.000000,0.000000,0.533105,0.518601,0.146342,0.344950,0.000000,357.000000,343.000000,14.000000,33.000000,0.000000,0.000000:
0000
0000
0000
0200
,
0000
0000
0000
0000
,
0000
0000
0300
0220
,
0000
0000
0000
0300
,
0000
0000
0030
1000
,
1001
0000
0001
1000
0010
1000
0000
0010
,
0100
0001
0000
1000
0001
0000
0100
0000
,
0010
0000
0110
0000
1000
0001
0000
0001
,
0100
0010
0000
0010
1000
0000
0110
0000
,
1001
0000
0001
0010
0000
0001
0000
0010
,
0001
0010
0000
0001
0010
0001
0100
0000
,
0010
1000
0001
1000
0000
1000
0000
0010
,
0100
0001
1000
0010
0100
0000
0200
0000
,
0301
0010
0001
0000
1000
0100
0000
0010
,
0000
0001
1000
0000
0001
1000
0001
0000
,
0001
0100
0010
0000
1000
0010
0000
0010
,
0000
0000
0100
0000
0010
0100
0010
1000
,
0002
0000
1000
0000
0103
0010
2000
0000
,
0010
0000
3010
0100
0001
0100
0000
0010
,
0200
0000
0310
0000
1000
0010
1000
0000
,
0001
0010
0001
1000
0100
0010
0000
0000
,
0010
0001
0010
0000
0010
0100
0000
1000
,
0100
0010
0001
0000
1000
0100
0000
0000
,
0010
0001
1000
0000
0001
0100
0000
1010
,
0000
0101
0000
0010
1000
0000
0020
0000
,
1030
0001
1000
0000
0010
0100
0000
0001
,
0000
0010
0100
0000
1000
0010
0000
1000
,
0002
0000
0100
0000
1003
0000
0001
0100
,
0010
1000
0002
0000
0103
0010
2000
0000
,
3010
0100
0000
0010
0000
1000
0000
0100
,
0000
0010
0000
0000
0001
2000
0000
0000
,
0010
3000
0010
0000
0000
0100
0000
0100
,
0000
0010
0000
0110
0000
0000
2000
0000
,
3001
0100
0000
0000
0010
0100
0000
0001
,
0000
0010
0000
0000
0100
1000
0002
0000
,
0000
1000
1003
0000
0000
0010
0000
0100
,
0000
0010
0100
0010
0100
0010
0100
0000
,
0001
1000
0100
0010
0000
0001
0000
1000
,
0010
1000
0000
0010
0001
0010
0000
1000
,
0200
0000
0010
0000
0310
0001
0000
0001
,
1000
0000
0010
0100
0010
1000
0000
0001
,
0100
0001
0100
0010
0000
0100
0000
0110
,
0000
1000
0000
0001
0000
2000
0000
0000
,
0010
3000
0010
0100
0001
0100
0000
0010
,
1000
0000
0001
0010
0001
0010
0000
0001
,
0100
0010
1000
0100
0000
0010
0000
0011
,
0000
0001
0000
1000
0100
1000
0000
0010
,
2000
0000
0000
0000
3001
0200
0000
0000
,
0310
0000
1000
0001
0100
0010
0000
0010
,
1000
0100
0010
0001
0000
0001
0000
0010
,
0000
0100
0000
1000
0100
0010
0002
0000
,
0100
0003
0010
0100
0010
0000
1010
0000
,
0001
1100
0010
2000
,
0000
3010
0000
0100
0001
0200
0000
0310
,
1000
0020
0000
0130
0000
0100
0002
0000
,
0000
0103
0000
0010
0100
0002
0000
0013
,
0100
0020
0000
0130
0000
0000
2000
0000
,
0000
3010
0100
0020
0000
1030
0001
0200
,
0000
0301
0010
0002
0000
0003
1000
0010
,
0100
0000
0100
0010
1000
0000
1000
0010
,
0100
0000
0100
0010
0010
1000
0001
0000
,
0100
0010
0100
0001
0000
1010
0000
0001
,
0000
1000
0000
0010
0010
0100
0000
0001
,
1000
0000
1000
0000
0010
0200
0000
0301
,
0001
0001
0000
1000
0000
0010
0000
0100
,
0001
0100
0100
0010
0000
1000
0000
0001
,
0100
0010
0000
1000
0000
0002
0000
0000
,
0100
1003
0001
0101
,
0001
0010
1000
0000
0010
0001
1000
0000
,
0001
0001
0000
0000
1000
2000
0000
3010
,
0100
0010
0000
0200
0000
0000
0000
0300
;

//---------------dance-single - ----------------
#NOTES:
     dance-single:
     :
     Challenge:
     15:
     0.718273,0.814945,0.282232,0.250873,0.182928,481.000000,454.000000,27.000000,24.000000,0.000000,0.000000,0.718273,0.814945,0.282232,0.250873,0.182928,481.000000,454.000000,27.000000,24.000000,0.000000,0.000000:
// measure 0
0000
0000
0000
0210
,  // measure 1
0001
1000
0001
0010
,  // measure 2
0010
0001
0300
0120
,  // measure 3
1000
0001
1000
0100
,  // measure 4
0100
0000
0000
0000
1000
0000
0000
0000
0030
0000
0100
0010
0100
0000
0000
0000
,  // measure 5
0001
1000
0010
0100
0000
0012
0000
0103
,  // measure 6
0010
0000
1000
0000
0001
0000
0100
0000
0001
0000
1000
0010
0200
0000
0000
0000
,  // measure 7
0310
0010
0100
0100
0000
0001
1000
0100
,  // measure 8
0010
0001
1100
0010
0011
0000
0002
0000
,  // measure 9
1003
0010
0100
0101
0000
0002
0000
0100
,  // measure 10
0103
0000
0010
0100
0010
0000
1000
0000
0001
0000
1000
0000
0020
0000
0000
0000
,  // measure 11
0130
0100
0001
1000
0000
0001
0000
0010
,  // measure 12
0100
1000
0010
0100
0010
0000
0100
0001
,  // measure 13
0100
0010
0100
0010
0100
0001
0100
0010
,  // measure 14
1000
0100
0010
0001
1000
0110
0000
0000
,  // measure 15
0001
0100
0001
0010
0001
0100
0001
0010
,  // measure 16
0001
1000
0001
0010
0100
1000
0110
0000
,  // measure 17
0001
1000
0010
0100
0001
1000
0020
0130
,  // measure 18
0001
0100
1000
0100
0001
0010
0100
1000
,  // measure 19
0001
0010
0100
1000
0001
0010
0100
0010
,  // measure 20
0001
0000
0000
0000
1000
0000
0010
0000
0100
0010
0100
0010
1000
0000
0000
0000
,  // measure 21
0001
0010
0100
0000
1000
0100
0000
0010
,  // measure 22
0100
1000
0100
0010
0100
0010
0001
0000
,  // measure 23
0001
1000
0010
0001
0010
0100
0000
0001
,  // measure 24
0010
0000
0100
0000
0010
0000
0001
0000
0010
0000
0001
1000
0100
0000
0000
0000
,  // measure 25
0010
0001
0011
0000
0001
0100
0000
1000
,  // measure 26
0100
0000
0000
0000
0001
0100
0001
0000
1000
0000
0000
0000
0010
0000
0110
0000
,  // measure 27
0000
0001
0011
0000
1000
1000
0000
0001
,  // measure 28
0001
0000
0000
0000
1000
0100
1000
0000
0001
0010
0001
0000
0002
0000
0000
0000
,  // measure 29
1003
0100
0000
0010
0000
0001
0000
1000
,  // measure 30
0000
0010
0000
0100
0000
0100
0002
0000
,  // measure 31
0000
1000
1000
0000
0003
0010
0000
0100
,  // measure 32
1000
0100
0000
0010
0001
0000
1000
0000
,  // measure 33
0010
0200
0000
0300
0001
0010
0000
0100
,  // measure 34
0000
0010
0000
0001
0000
1000
0002
0000
,  // measure 35
0000
0100
0100
0000
0003
1000
0000
0001
,  // measure 36
0000
0000
0100
0010
0100
0010
0110
0100
,  // measure 37
0010
1000
0001
0100
0010
0100
0000
0001
,  // measure 38
0010
0001
0000
1000
0100
1000
0000
0001
,  // measure 39
0020
0000
0130
1000
0100
0010
0000
0001
,  // measure 40
0100
0001
0100
0010
1000
0100
0000
0100
,  // measure 41
0010
0001
0001
1000
0000
0001
0000
0100
,  // measure 42
0010
0100
0000
0010
0100
0020
0000
1000
,  // measure 43
1030
0000
0001
0100
0001
1000
0000
0001
,  // measure 44
0010
0000
0100
0000
1000
0010
1000
0000
0001
0000
0101
0000
0000
0000
0001
0000
,  // measure 45
0100
0010
1000
0001
0000
1010
0000
0001
,  // measure 46
0001
0100
0000
0010
0010
1000
0000
0001
,  // measure 47
0200
0000
0010
0000
0310
1000
0000
0001
,  // measure 48
0100
0000
0000
0000
0010
0000
0100
0010
0100
0000
0110
0000
0000
0000
1000
0000
,  // measure 49
0001
0000
0001
0010
0000
1000
0000
0010
,  // measure 50
0001
0000
1000
0000
0000
0000
0001
0100
0010
1000
0001
0000
0200
0000
0000
0000
,  // measure 51
0310
0000
0010
0000
1000
0000
1000
0000
0001
0000
0001
0000
0101
0000
0000
0100
,  // measure 52
0000
0010
0000
0100
0001
0010
0100
1000
0001
0100
0010
0100
0001
0000
0000
0000
,  // measure 53
1000
0000
0010
0000
0000
0000
0100
0000
0010
0000
0100
0001
0100
0000
0000
0000
,  // measure 54
0001
1000
0010
0100
0000
0100
0010
1000
,  // measure 55
0001
0000
0100
0010
0100
0000
0001
0000
0001
0000
1000
0000
0000
0000
0100
0000
,  // measure 56
0010
0001
1100
0000
0101
0000
0011
0001
,  // measure 57
0001
1010
0100
0100
0001
1010
0000
0010
,  // measure 58
0010
0000
0200
0000
0000
0000
0310
0000
1000
0000
0010
0000
1000
0000
0001
0010
,  // measure 59
0001
0000
1000
0000
0001
0010
0001
0000
1000
0000
1001
0000
0000
0000
0001
0100
,  // measure 60
0010
0000
1000
0001
1000
0001
1000
0000
0000
0000
0000
0000
1100
0000
0000
0000
,  // measure 61
0010
0001
0010
0100
0000
1000
0000
0010
,  // measure 62
0100
0010
0000
0100
0001
0200
0000
0010
,  // measure 63
0310
1000
0001
0000
1000
0001
0000
0100
,  // measure 64
0010
0000
1000
0000
0000
0000
0001
0010
0001
0000
0011
0000
0000
0000
0001
0000
,  // measure 65
0010
0100
1000
0010
0000
0100
0000
0001
,  // measure 66
1000
0010
0000
2020
3030
0202
0300
0000
,  // measure 67
0103
0000
0010
0000
0100
0000
0001
0000
1000
0000
0000
0000
1001
0000
0001
0100
,  // measure 68
0001
0000
0000
0000
1000
0010
1000
0010
1000
0100
0010
0001
0010
0000
0000
0000
,  // measure 69
0010
0100
0010
0000
0000
0000
0001
0010
0100
0000
0020
0000
0000
0000
0031
0000
,  // measure 70
0010
0001
0000
0200
0000
0000
0000
0300
;
