#TITLE:Fire Battle;
#SUBTITLE:;
#ARTIST:Junkie XL;
#TITLETRANSLIT:;
#SUBTITLETRANSLIT:;
#ARTISTTRANSLIT:;
#GENRE:;
#CREDIT:;
#BANNER:;
#BACKGROUND:2710850.jpg;
#LYRICSPATH:;
#CDTITLE:;
#MUSIC:300 Rise of an Empire - Fire Battle.ogg;
#OFFSET:-0.164000;
#SAMPLESTART:29.421000;
#SAMPLELENGTH:11.900000;
#SELECTABLE:YES;
#BPMS:0.000000=160.000000
,1.000000=163.000000
,47.000000=162.500000
,55.000000=160.000000
,159.000000=80.000000
,162.000000=100.000000
,172.500000=160.000000
,312.500000=161.000000
;
#STOPS:
;
#BGCHANGES:;
#KEYSOUNDS:;
#ATTACKS:;

//---------------dance-single - ----------------
#NOTES:
     dance-single:
     :
     Beginner:
     4:
     0.142383,0.218669,0.177187,0.059062,0.000000,135.000000,111.000000,24.000000,8.000000,0.000000,0.000000,0.142383,0.218669,0.177187,0.059062,0.000000,135.000000,111.000000,24.000000,8.000000,0.000000,0.000000:
// measure 0
0000
0000
0000
0000
,  // measure 1
0000
0000
0000
0000
,  // measure 2
0000
0110
0000
0000
,  // measure 3
0000
0000
0000
0000
,  // measure 4
0000
0110
0000
0000
,  // measure 5
0000
0000
0000
0000
,  // measure 6
0000
1001
0000
0000
,  // measure 7
1001
0000
0000
0000
,  // measure 8
0000
1001
0000
0000
,  // measure 9
0000
0000
0000
0000
,  // measure 10
0000
0110
0000
0000
,  // measure 11
0000
0000
0000
0000
,  // measure 12
0000
0110
0000
0110
,  // measure 13
0000
0000
0000
1001
,  // measure 14
0000
0000
0001
0000
,  // measure 15
0000
0000
0000
1000
,  // measure 16
0000
0000
0001
0000
,  // measure 17
0000
0000
0000
0100
,  // measure 18
0000
0000
0010
0000
,  // measure 19
0000
0000
0000
1000
,  // measure 20
0000
0000
0010
0000
,  // measure 21
0000
0100
0000
0100
,  // measure 22
0000
0000
0001
0000
,  // measure 23
0000
1000
0000
1000
,  // measure 24
0000
0000
0001
0000
,  // measure 25
0000
0100
0000
1001
,  // measure 26
0000
0000
0010
0000
,  // measure 27
0000
1000
1000
0000
,  // measure 28
0000
0000
0001
0000
,  // measure 29
0000
0000
1000
0000
,  // measure 30
0000
0000
0001
0000
,  // measure 31
0000
0000
0100
0000
,  // measure 32
0000
0000
0010
0000
,  // measure 33
0000
0000
1000
0000
,  // measure 34
0000
0000
0001
0000
,  // measure 35
0000
0000
1001
0000
,  // measure 36
0000
0000
0001
0000
,  // measure 37
0000
0000
1000
0000
,  // measure 38
0000
0000
0010
0020
,  // measure 39
0000
0000
0000
0000
,  // measure 40
0030
0000
0000
0000
0000
0110
0000
0000
,  // measure 41
0000
0000
0000
0000
0000
0000
0000
0110
,  // measure 42
0000
0000
0100
0000
,  // measure 43
0000
0110
0000
0000
0000
0000
0000
0000
,  // measure 44
0000
0001
0000
0000
0000
0000
0000
0000
,  // measure 45
0000
1000
0000
0000
0000
0000
0000
0000
,  // measure 46
0000
0001
0000
0000
0000
1000
0000
0100
,  // measure 47
0000
1000
0000
0000
0000
0001
0000
0000
,  // measure 48
0000
1000
0000
0000
0000
0001
0000
0100
,  // measure 49
0000
0001
0000
0000
0000
1000
0000
0000
,  // measure 50
0000
0010
0000
0000
0000
0010
0000
0000
,  // measure 51
0000
0110
0000
0000
0000
0100
0000
0000
,  // measure 52
0000
1001
0000
0000
0000
0000
0000
0000
,  // measure 53
0000
1001
0000
0000
0000
0100
0000
0000
,  // measure 54
0000
0110
0000
0000
0000
0000
0000
0000
,  // measure 55
0000
0110
0000
0000
0000
0000
0000
1001
,  // measure 56
0000
0000
0000
0000
0000
0001
0000
0001
,  // measure 57
0000
0001
0000
0000
0000
0000
0000
1000
,  // measure 58
0000
0000
0000
0000
0000
1000
0000
1000
,  // measure 59
0000
1000
0000
0000
0000
0000
0000
0010
,  // measure 60
0000
0000
0000
0000
0000
0010
0000
0100
,  // measure 61
0000
0010
0000
0000
0000
0220
0000
0000
,  // measure 62
0000
0000
0000
0000
,  // measure 63
0330
0000
0000
0000
0000
2002
0000
0000
,  // measure 64
0000
0000
3003
0000
,  // measure 65
0000
0001
0000
1000
0000
0001
0000
0000
,  // measure 66
0000
1000
0000
0000
0000
0100
0000
0010
,  // measure 67
0000
0001
0000
0000
0000
1000
0000
0000
,  // measure 68
0000
0010
0000
0000
0000
0100
0000
0000
,  // measure 69
0000
0001
0000
0000
0000
0100
0000
0000
,  // measure 70
0000
0010
0000
0000
0000
0100
0000
0001
,  // measure 71
0000
1000
0000
0000
0000
0010
0000
0000
,  // measure 72
0000
0100
0000
0100
0000
0010
0000
0000
,  // measure 73
0000
0100
0000
0000
0000
0001
0000
0000
,  // measure 74
0000
1000
0000
0000
0000
0010
0000
0000
,  // measure 75
0000
0100
0000
0000
0000
0010
0000
0000
,  // measure 76
0000
0100
0000
0000
0000
0110
0000
0000
,  // measure 77
0000
0001
0000
0000
0000
0000
0000
0000
,  // measure 78
0000
2200
0000
0000
0000
0000
0000
0000
,  // measure 79
0000
0000
0000
0000
,  // measure 80
3300
0000
0000
0000
,  // measure 81
0000
0001
0000
0000
0000
0100
0000
0000
,  // measure 82
0000
0002
0000
0000
0000
0000
0000
0000
,  // measure 83
0000
0000
0000
0000
,  // measure 84
0000
0000
0000
0000
0000
0003
0000
0000
;

//---------------dance-single - ----------------
#NOTES:
     dance-single:
     :
     Easy:
     8:
     0.336445,0.437339,0.258398,0.206718,0.007383,319.000000,284.000000,35.000000,28.000000,0.000000,0.000000,0.336445,0.437339,0.258398,0.206718,0.007383,319.000000,284.000000,35.000000,28.000000,0.000000,0.000000:
0000
0110
1000
0001
,
1000
0000
0100
0010
0001
0000
1000
0100
,
1000
0000
1001
0000
0001
0100
0001
0000
,
1000
0000
0010
0000
1000
0010
1000
0000
,
0001
1001
0100
0010
,
1000
0001
1000
0000
0001
0100
0001
0000
,
1000
1100
0000
1000
,
1100
0000
0100
0010
,
0001
0000
1000
0010
0100
0000
0001
0100
,
0001
0000
1000
0000
0010
0000
1000
0001
,
0100
0110
0010
1000
,
0001
1001
0001
1001
,
1000
0110
0100
0020
,
0000
1030
0001
1001
,
1000
0001
0100
0000
,
0100
0000
0010
0000
1000
0001
1000
0000
,
0001
0001
1000
0000
,
1000
0100
0010
0001
,
0000
0001
0100
0020
,
0000
0130
0001
1001
,
1000
0100
0010
0000
,
0010
0000
0001
1000
0001
0000
1001
0000
,
0000
1000
0100
0010
,
0000
0010
0001
1010
,
0000
0100
0010
0000
,
0010
1000
0001
1001
,
0000
1000
0001
0100
,
0000
0100
0020
0030
,
2000
3000
0002
0003
,
1000
0001
1000
0000
,
0002
0003
2000
3000
,
0020
0030
0100
0010
,
0020
0030
2000
3000
,
0002
0003
2000
0000
,
3010
0100
0010
0000
,
0100
0001
0200
0000
,
0301
0010
0001
1000
,
0200
0000
0320
0000
,
0031
1000
0001
1000
,
0000
0000
0000
0000
,
0000
0000
0000
0000
0000
0000
0000
0000
0000
0000
0110
0000
0000
0000
0000
0100
,
0000
0000
0000
0000
0000
0000
0000
1001
,
0000
0000
0000
0001
0000
0000
0000
0000
0000
0000
0000
0000
0000
0000
0000
0000
,
0000
1000
0000
0001
0000
1000
0000
0001
,
0000
0100
0000
0010
0000
1000
0001
1000
,
0001
1000
0000
0010
0000
0100
0000
0001
,
0000
1000
0000
0100
0000
0010
0001
0010
,
0001
0010
0000
0001
0000
1000
0000
0001
,
0000
0100
0000
0010
0000
0100
0010
0100
,
0010
0100
0000
0001
0000
1000
0000
0001
,
0000
0010
0000
0001
0000
1000
0010
1000
,
0010
1000
0000
0001
0000
0100
0000
0000
,
0000
0010
0000
1000
0000
0001
0000
0000
,
0000
1001
0000
1000
0000
0002
0000
0003
,
0000
1000
0000
0010
0000
0100
0000
0000
,
0000
0011
0000
0001
0000
1000
0000
0000
,
0000
1000
0000
0000
0000
0010
0000
0000
,
0000
0220
0000
0030
0000
0000
0000
0302
,
0000
0003
0000
0000
0000
2000
0000
0000
,
3000
0002
0000
0000
0000
0003
0000
0200
,
0000
0000
0000
0300
0000
0010
0000
0100
,
0000
0110
0000
0110
0000
1001
0000
1000
,
0000
0001
0000
1000
0010
1000
0000
0001
,
0000
0100
0010
0100
0000
0110
0000
0010
,
0000
1000
0000
0001
0000
0010
0000
0100
,
0000
0010
0000
0001
0000
1000
0000
0100
,
0000
0100
0000
0010
0000
0010
0000
0001
,
0000
1001
0000
0000
0000
0100
0000
0010
,
0000
0100
0010
0100
0000
0010
0100
0010
,
0000
1000
0000
0001
1000
0010
0000
1000
,
0000
0001
0000
0100
0000
0110
0000
0110
,
0000
1001
0000
0001
0000
1000
0000
0010
,
0100
0010
0000
0100
0010
0100
0000
0110
,
0000
0001
0000
0100
0000
0101
0000
0001
,
0000
1010
0000
1010
0000
1001
0000
0000
,
0000
0001
0000
1000
0000
0010
0000
0100
,
0000
0110
0000
0110
0000
1001
0000
0001
,
0000
0010
0000
0001
0000
1000
0000
0100
,
0000
2000
0000
0000
0000
0002
0000
0000
,
0000
0000
0000
0000
,
0000
3003
0000
0000
0000
0000
0000
0000
,
0000
0002
0000
0000
0000
0203
0000
0000
,
0000
0320
0000
0000
0000
2030
0000
0000
,
0000
0000
0000
0000
,
0000
0000
0000
0000
0000
3000
0000
0000
;

//---------------dance-single - ----------------
#NOTES:
     dance-single:
     :
     Medium:
     12:
     0.515741,0.531054,0.280546,0.214101,0.000000,489.000000,451.000000,38.000000,29.000000,0.000000,0.000000,0.515741,0.531054,0.280546,0.214101,0.000000,489.000000,451.000000,38.000000,29.000000,0.000000,0.000000:
0000
0000
0110
0000
1000
0001
1000
0000
,
0001
0100
0001
0000
1000
0100
0010
0001
,
1000
0000
1001
0000
0001
0100
0001
0100
,
0010
0000
1000
0100
0010
0001
0100
0000
,
0100
0010
0110
0000
0100
0001
0010
0000
,
0100
1000
0001
0000
1000
0100
0001
0100
,
1000
0000
1100
0000
0100
0010
0001
0000
,
1100
0000
0100
0010
0001
0000
0011
0001
,
1000
0001
1001
0000
0100
0010
1000
0000
,
0100
0010
0001
0000
0010
0001
1000
0000
,
0001
0100
0101
0000
0010
0001
0001
0000
,
1000
1000
0100
0010
0001
0000
1001
0000
,
1000
0010
0100
0010
0100
0010
0200
0000
,
0001
0000
0301
1000
0001
1000
1001
0000
,
1000
0010
0100
0000
0100
0001
1000
0000
,
0100
0000
0001
0100
1000
0001
1000
0000
,
0001
0100
0001
0000
1000
0010
0100
0001
,
1000
0000
0100
0010
0001
0010
0001
0000
,
1000
0001
1000
0000
0010
0000
0020
0000
,
1000
0000
0130
0000
0001
1000
1001
0000
,
1000
0000
1100
0000
0010
0001
0010
0000
,
0001
0010
0001
1000
0001
0000
1001
0000
,
0010
0100
0010
0000
0100
0010
1000
0001
,
0100
0000
0010
0100
0010
0100
0110
0000
,
0010
1000
0100
0000
0100
0001
0100
1000
,
0001
0000
1000
0001
0100
0000
1010
0000
,
0010
0010
1000
0000
0110
0000
0100
0010
,
0001
1000
0100
0000
0020
0000
0031
1000
,
0002
0000
0103
0001
2000
0000
3100
0010
,
0001
0100
0001
0100
0020
0000
1030
0001
,
2000
0000
3100
0001
0200
0000
0310
0001
,
1000
0010
0001
0010
2000
0000
3001
0010
,
2000
0000
3001
0100
2000
0000
3001
0010
,
0100
1000
0001
0100
0010
0000
0100
0010
,
0100
0000
0010
0100
0010
0000
1000
0001
,
1000
0001
0100
0100
0110
0000
0010
0000
,
1000
0000
0010
0100
0001
0000
1000
0000
,
1001
0101
0020
0130
,
1000
0010
1000
0001
0100
0010
2000
0000
,
0000
0000
0000
0000
,
3000
0000
0000
0000
0000
0220
0000
0000
,
0330
0000
0000
0000
0000
0000
0000
2002
,
0000
3003
0000
0000
,
0000
1000
0000
0001
1000
0001
0000
0001
,
0100
0001
0000
0001
0010
0001
1000
0100
,
0001
1000
0010
0001
0100
0010
0000
0001
,
0010
1000
0000
0001
0010
1000
0001
0100
,
0001
1000
0000
0001
0100
1000
0000
0100
,
0010
0001
0000
0010
0100
1000
1000
0100
,
0100
0010
0010
0001
1000
0010
0000
0001
,
1000
0010
0000
1000
0100
0010
0001
0010
,
0001
2000
0000
3001
0000
0200
0000
0300
,
0000
0010
0100
0010
0100
0001
1000
0001
,
0000
2000
0000
3000
0000
0002
0000
0003
,
0000
1000
0010
0100
0000
0100
0010
1000
,
0001
0101
0000
0001
1000
0000
0001
1000
,
0000
1000
0010
0100
0000
0001
0000
0001
,
0000
1000
0000
0100
0010
0001
0000
0001
,
0010
0100
1000
0000
0000
0100
0010
0001
,
0000
0100
0010
0100
0010
0000
0010
0100
,
0010
1000
0001
0100
0000
0010
0000
1000
,
0000
0110
0000
1100
0000
1001
0000
1000
,
0001
0001
1000
0010
0000
1000
0100
0010
,
0000
0001
0010
0100
1000
1100
0000
0010
,
0100
0001
0000
0001
1000
0010
1000
0001
,
0000
0110
0000
1010
0000
0001
0000
0100
,
0010
1000
0010
0100
0000
0010
0100
0010
,
0000
1001
0000
0001
0000
1000
0000
0010
,
0100
0010
0000
0100
0010
0100
0001
0010
,
0100
1000
0000
0001
1000
0100
1000
0100
,
0000
0100
1000
0100
0010
0011
0000
0110
,
0000
1001
0000
0001
0100
0001
0010
0010
,
0001
1000
0100
0100
0000
1001
0000
0100
,
0001
0100
0000
0100
1000
0100
0000
0100
,
0001
1000
0010
0010
0100
0001
0010
0100
,
1000
0001
0000
1000
0010
0100
0001
0100
,
0000
0101
0000
0110
0000
1010
0000
0001
,
0010
0001
0000
1000
0100
0010
0100
1000
,
0000
2000
0000
0000
0000
0002
0000
0000
,
0000
0000
0000
0000
,
0000
3003
0000
0000
0000
0000
0000
0000
,
0000
2002
0000
3000
0000
0203
0000
0300
,
0000
0202
0000
0300
0000
2003
0000
0000
,
0000
0000
0000
0000
,
0000
0000
0000
0000
0000
3000
0000
0000
;

//---------------dance-single - ----------------
#NOTES:
     dance-single:
     :
     Hard:
     14:
     0.642303,0.718485,0.406054,0.088594,0.166113,609.000000,554.000000,55.000000,12.000000,0.000000,0.000000,0.642303,0.718485,0.406054,0.088594,0.166113,609.000000,554.000000,55.000000,12.000000,0.000000,0.000000:
0000
0000
0110
0000
0010
0100
0001
0010
,
0100
0010
0001
1000
0010
1000
0100
0010
,
0001
0000
1001
0000
1000
0100
0010
0001
,
1000
0100
0010
0100
1000
0100
0001
0100
,
1000
0010
0110
0000
1000
0100
1000
0010
,
0001
0010
1000
0100
1000
0010
0001
0010
,
1000
0100
0100
1000
0100
0010
0010
0001
,
0011
0000
0001
0010
0001
0010
0100
1000
,
0010
0000
0110
0000
0100
0010
1000
0100
,
0010
0100
1000
0010
0100
0010
1000
0000
,
0001
0010
0001
0000
0100
0010
0100
0000
,
0001
1000
0001
1000
0001
0000
1000
0010
,
1000
0000
0010
0000
1010
0000
0001
0000
0011
0000
0001
0000
0100
0010
0100
0000
,
0010
0000
0010
0000
0100
0000
0010
0100
0010
0000
0100
0000
0010
0000
0000
0000
,
0100
0010
1000
0000
0001
0010
0001
0000
,
0100
0010
1000
0000
1001
0000
0001
0100
,
0010
0100
0010
0000
1000
0100
1000
0010
,
0100
0000
0011
0001
0010
0001
1001
0000
,
0100
0010
1000
0000
0010
0100
0001
0010
,
0100
0000
1000
0000
0100
0000
0010
0001
0010
0000
0001
0000
0011
0000
0000
0000
,
1000
0100
0010
0000
0100
1000
0100
0010
,
0001
0000
1100
0100
1000
0010
0101
0000
,
0001
0010
0001
0000
1000
0100
0010
0001
,
1000
0000
0010
1000
0100
0010
1001
0000
,
0001
0100
0010
0000
1000
0001
0100
0001
,
0100
0000
0110
0010
1001
0000
1010
0000
,
0100
0001
0100
0000
0001
1000
0100
1000
,
1000
0000
0010
0000
0110
0000
0010
0000
0100
0000
0000
0000
0001
0000
1000
0001
,
0100
0000
0000
0000
1000
0000
0001
1000
0010
0000
0000
0000
0100
0000
0001
1000
,
0010
0000
0100
0000
0001
0000
1000
0001
0010
0000
0000
0000
0100
0000
0001
1000
,
0010
0000
0000
0000
0010
0000
1000
0001
0100
0000
0000
0000
0010
0000
1000
0001
,
0100
0000
0010
0000
1000
0000
0001
1000
0100
0000
0000
0000
0010
0000
0001
0100
,
0010
0000
0000
0000
0010
0000
1000
0010
0100
0000
0000
0000
0001
1000
0001
0000
,
1000
0001
1000
0000
0001
1000
0001
0000
1001
0000
0000
0000
0001
0000
0100
0000
,
0010
1000
0010
0100
0001
0010
0011
0000
,
1001
0100
1001
0010
0101
0000
0001
0010
,
0100
0010
0001
1000
0100
0010
0100
0010
,
0001
1100
0002
1003
,
0100
0000
0010
0100
0010
0010
0020
0000
,
0000
0000
0000
0000
,
0000
0000
0000
0000
0000
0000
0000
0000
0030
0000
0000
0000
0000
0000
0000
0000
0000
0000
0000
0000
0100
0000
0000
0000
0000
0010
0000
0000
0000
0000
0010
0000
,
0000
0000
0000
0000
0000
0000
0000
0000
0000
0000
0000
0000
0000
0000
0000
0000
0000
0000
1000
0000
0000
0000
0000
0000
0000
0000
0000
0000
0000
0000
0000
0000
0100
0000
0000
0000
0000
0000
0000
0000
0000
0000
0000
0000
0000
0000
0000
0000
0000
0000
0000
0000
0000
0000
0000
0000
0000
0000
0000
0000
0000
0000
0000
0000
0000
0000
0010
0000
0000
0000
0000
0000
0000
0000
0000
0000
0000
0000
0000
0000
0000
0000
0000
0000
0000
0000
0000
0000
0000
0000
0000
0000
0000
0000
0000
0000
0001
0000
0000
0000
0000
0000
0000
0000
0000
0000
0000
0000
0010
0000
0000
0000
0000
0000
0000
0000
0000
0000
0000
0000
0000
0000
0000
0000
0000
0000
0000
0000
0000
0000
0000
0000
0000
0000
0000
0000
0100
0000
0000
0000
0000
0000
0000
0000
0000
0000
0000
0000
0000
0000
0000
0000
0000
0000
0000
0000
0000
0000
0000
0000
0000
0000
0000
0000
0000
0000
0000
0000
1000
0000
0000
0000
0000
0000
0000
0000
0000
0000
0000
0000
0000
0000
0000
0000
0000
0000
0000
0000
0000
0000
0000
0000
,
0000
0000
0000
0000
0000
0000
0100
0000
0000
0000
0000
0000
0000
0000
0000
0000
0000
0000
0000
0000
0000
0000
0000
0000
0000
0000
0000
0000
0000
0000
0000
0000
0000
0000
0000
0000
0010
0000
0000
0000
0000
0000
0000
0000
0000
0000
0000
0000
0000
0000
0000
0000
0000
0000
0000
0000
0000
0000
0000
0000
0000
0000
0000
0000
0001
0000
0000
0000
0000
0000
0000
0000
0000
0000
0000
0000
0000
0000
0000
0000
0010
0000
0000
0000
0000
0000
0000
0000
0000
0000
0000
0000
0000
0000
0000
0000
0000
0000
0000
0000
0000
0000
0000
0000
0000
0000
0000
0000
0100
0000
0000
0000
0000
0000
0000
0000
0000
0000
0000
0000
0000
0000
0000
0000
0000
0000
0000
0000
0000
0000
0000
0000
0000
0000
0000
0000
0000
0000
0000
0000
0000
0000
0000
0000
1000
0000
0000
0000
0000
0000
0000
0000
0000
0000
0000
0000
0010
0000
0000
0000
0000
0000
0000
0000
0000
0000
0000
0000
0000
0000
0000
0000
0000
0000
0000
0000
0000
0000
0000
0000
0000
0000
0000
0000
0100
0000
0000
0000
0000
0000
0000
0000
,
0000
0020
0000
0100
0000
0100
0030
0100
,
0000
0001
0010
0100
1000
0010
0100
0010
,
0100
0000
0010
0000
0000
0000
1000
0001
1000
0001
1000
0000
0000
0000
0010
0100
,
0010
0100
0010
0000
0000
0000
1000
0000
0100
0000
0010
0000
0001
0000
1000
0000
,
1000
0002
0000
0103
0010
0100
0000
0010
,
0100
0010
0000
1000
0100
0010
0100
0010
,
0001
0000
0100
0000
0000
0000
0010
0100
0010
0100
0010
0000
0000
0000
1000
0010
,
1000
0010
1000
0000
0000
0000
0001
0000
0100
0000
0010
0000
1000
0000
0001
0000
,
0100
0101
0000
0010
1000
0010
0000
0100
,
0001
1000
0000
0100
0010
0001
0100
0010
,
0001
0000
0010
0000
0000
0000
1000
0100
1000
0100
1000
0000
0000
0000
0001
0010
,
0001
0010
0001
0000
0000
0000
1000
0000
0001
0000
1000
0000
0001
0000
0100
0000
,
0010
0110
0000
0010
0100
0000
0100
0001
,
0000
0010
0100
1000
0100
0010
0001
1000
,
0000
0110
0000
0001
1000
0000
1000
0100
,
0010
0001
0001
0000
0010
0100
1000
0010
,
0000
0110
0000
0010
0110
0000
1000
0001
,
0000
1000
0010
1000
0010
0100
0000
0101
,
0000
0001
0000
1000
0000
0010
0100
0010
,
0100
0001
1000
0010
0100
0100
0001
1000
,
0010
0110
0110
1100
1100
1001
0000
0001
,
0100
0010
0001
0010
0100
0001
0010
0011
,
0000
0011
0000
0110
0000
1010
1000
0100
,
1000
0000
0100
0000
0010
0000
0001
0000
0100
0010
0100
0000
0010
0000
0200
0000
,
0000
0310
0100
0001
0001
1000
1000
0010
,
0010
0100
0001
0001
1000
1010
1010
0101
,
0101
1001
0000
0001
1000
0010
0100
0001
,
1000
0100
0010
0000
0001
0000
1000
0000
0010
0000
0110
0000
0000
0000
0011
0000
,
0000
1000
0100
0010
0100
1000
0001
0010
,
0001
0010
0001
0000
0100
0000
0200
0000
0000
0000
0301
0000
0000
0000
1000
0000
,
0010
1000
0000
0001
0100
0001
0000
1000
,
0010
0110
0110
1001
1001
1001
0000
0001
,
0010
1000
0000
1000
0010
0001
0000
1000
,
0010
0101
0000
1001
0000
0011
0001
0010
,
0100
1000
0010
0001
0010
1000
0100
0010
,
0100
2000
0000
0000
0000
3002
0000
0000
,
0000
0000
0000
0000
0000
0003
0000
0000
,
0000
0100
0001
0100
0010
0100
0010
0000
,
0010
1000
0001
0100
0010
0200
0000
0000
,
0300
2002
0000
0000
3000
0203
0000
0000
,
0000
0000
0000
0000
,
0000
0000
0000
0000
0000
0300
0000
0000
;
