#VERSION:0.83;
#TITLE:Fine;
#SUBTITLE:;
#ARTIST:Sodex;
#TITLETRANSLIT:;
#SUBTITLETRANSLIT:;
#ARTISTTRANSLIT:;
#GENRE:Electro;
#ORIGIN:;
#CREDIT:;
#BANNER:;
#BACKGROUND:;
#PREVIEWVID:;
#JACKET:;
#CDIMAGE:;
#DISCIMAGE:;
#LYRICSPATH:;
#CDTITLE:;
#MUSIC:Sodex_-_Fine(louder).mp3.ogg;
#OFFSET:-0.500000;
#SAMPLESTART:39.243000;
#SAMPLELENGTH:17.100000;
#SELECTABLE:YES;
#BPMS:0.000=119.989;
#STOPS:;
#DELAYS:;
#WARPS:;
#TIMESIGNATURES:0.000=4=4;
#TICKCOUNTS:0.000=4;
#COMBOS:0.000=1;
#SPEEDS:0.000=1.000=0.000=0;
#SCROLLS:0.000=1.000;
#FAKES:;
#LABELS:0.000=Song Start;
#BGCHANGES:;
#KEYSOUNDS:;
#ATTACKS:
;

//---------------dance-single - ----------------
#NOTEDATA:;
#CHARTNAME:;
#STEPSTYPE:dance-single;
#DESCRIPTION:;
#CHARTSTYLE:;
#DIFFICULTY:Beginner;
#METER:1;
#RADARVALUES:0.065710,0.095653,0.020908,0.000000,0.000000,44.000000,42.000000,2.000000,0.000000,0.000000,0.000000,0.000000,0.000000,0.000000,0.065710,0.095653,0.020908,0.000000,0.000000,44.000000,42.000000,2.000000,0.000000,0.000000,0.000000,0.000000,0.000000,0.000000;
#CREDIT:;
#NOTES:
0000
0000
0000
0000
,
0000
0000
0000
0000
,
0000
0000
0000
0110
,
0000
0000
0000
1000
,
0000
0000
0000
0001
,
0000
0000
0000
0100
,
0000
0000
0000
0010
,
0000
0000
0000
1000
,
0000
0000
0000
0001
,
0000
0000
0000
0100
,
0000
0000
0000
0001
,
0000
0000
0000
1000
,
0000
0000
0000
0010
,
0000
0000
0000
0100
,
0000
0000
0000
1001
,
0000
0000
0000
0001
,
0000
0000
0000
0100
,
0000
0000
0000
0001
,
0000
0000
0000
1000
,
0000
0000
0000
0100
,
0000
0000
0000
1000
,
0000
0000
0000
0001
,
0000
0000
0000
0100
,
0000
0000
0000
0001
,
0000
0000
0000
0100
,
0000
0000
0000
0001
,
0000
0000
0000
1000
,
0000
0000
0000
0010
,
0000
0000
0000
0010
,
0000
0000
0000
1000
,
0000
0000
0000
0001
,
0000
0000
0000
1000
,
0000
0000
0000
0001
,
0000
0000
0000
0001
,
0000
0000
0000
1000
,
0000
0000
0000
0010
,
0000
0000
0000
0010
,
0000
0000
0000
0000
,
0000
0000
0000
0100
,
0000
0000
0000
0100
,
0000
0000
0000
0000
,
0000
0000
0000
0001
,
0000
0000
0000
0001
,
0000
0000
0000
1000
,
0000
0000
0000
0001
,
0000
0000
0000
1000
;

//---------------dance-single - ----------------
#NOTEDATA:;
#CHARTNAME:;
#STEPSTYPE:dance-single;
#DESCRIPTION:;
#CHARTSTYLE:;
#DIFFICULTY:Easy;
#METER:4;
#RADARVALUES:0.161289,0.218748,0.073177,0.062723,0.000000,108.000000,101.000000,7.000000,6.000000,0.000000,0.000000,0.000000,0.000000,0.000000,0.161289,0.218748,0.073177,0.062723,0.000000,108.000000,101.000000,7.000000,6.000000,0.000000,0.000000,0.000000,0.000000,0.000000;
#CREDIT:;
#NOTES:
0000
0000
0000
0000
,
0000
0000
0000
0110
,
0000
1000
0000
1001
,
0000
0001
0000
1000
,
0000
0100
0000
0001
,
0000
0100
0000
1000
,
0000
0001
0000
0100
,
0000
0010
0000
1000
,
0000
0001
0000
0001
,
0000
1000
0000
0100
,
0000
0100
0000
0010
,
0000
0010
0000
0001
,
0000
1000
0000
0010
,
0000
0100
0000
0100
,
0000
0001
0000
1001
,
0000
1000
0000
0001
,
0001
0001
0001
1000
,
1000
1000
1000
0001
,
0000
0100
0000
1000
,
0000
0100
0000
0001
,
0000
0001
0000
1000
,
0000
1000
0000
0010
,
0000
0010
0000
0100
,
0000
0100
0000
0010
,
0010
0010
0010
1000
,
1000
1000
1000
0020
,
0000
0000
0030
2000
,
0000
0000
3000
0001
,
0000
0100
0000
0001
,
0000
1000
0000
0002
,
0000
0000
0003
0200
,
0000
0000
0300
0010
,
0000
0010
0000
1000
,
0000
1000
0000
0001
,
0000
0100
0000
0010
,
0000
0100
0000
0001
,
0001
1000
1000
0010
,
0010
0100
0000
0110
,
0000
0100
0000
0100
,
0000
0010
0000
1001
,
0000
0001
0000
0100
,
0000
0001
0000
1010
,
0000
1000
0000
0101
,
0000
0001
0000
2000
,
0000
3002
0000
1003
,
1000
1000
1000
0001
,
0001
0001
0001
0000
;

//---------------dance-single - ----------------
#NOTEDATA:;
#CHARTNAME:;
#STEPSTYPE:dance-single;
#DESCRIPTION:;
#CHARTSTYLE:;
#DIFFICULTY:Medium;
#METER:7;
#RADARVALUES:0.324071,0.342104,0.313617,0.094085,0.000000,217.000000,187.000000,30.000000,9.000000,0.000000,0.000000,0.000000,0.000000,0.000000,0.324071,0.342104,0.313617,0.094085,0.000000,217.000000,187.000000,30.000000,9.000000,0.000000,0.000000,0.000000,0.000000,0.000000;
#CREDIT:;
#NOTES:
0000
0000
0000
0000
,
0000
0000
0000
0100
,
0110
0001
0001
1000
,
1001
0001
0110
1000
,
0110
0010
0001
0001
,
1100
0100
0110
0010
,
0011
1000
0101
0100
,
0001
0001
0001
1000
,
0100
0100
0100
0010
,
1001
0000
1000
0000
0001
0100
0001
0000
,
1001
0100
1001
0010
,
0110
0000
1000
0000
0001
0100
0001
0000
,
1000
0010
1000
0000
0001
0000
0001
0000
,
0011
1000
1000
1000
,
0101
0001
0001
1000
,
1100
1000
0100
0010
,
0011
0001
0010
0100
,
1100
0100
0010
0001
,
1001
0000
0001
0000
0100
0001
1000
0000
,
0110
0010
0010
1000
,
1000
0001
0001
1000
,
1001
1000
0001
0100
,
0001
0100
0001
0000
1000
0010
1000
0000
,
1001
0001
0001
1000
,
1000
0000
0010
0100
0010
0100
0001
0000
,
1000
1000
1000
0010
,
0100
0010
0100
0001
,
1000
0001
0100
0001
,
1000
0100
1000
0000
0001
0000
0101
0000
,
0001
1000
0010
0100
,
0001
0000
1000
0001
1000
0001
1000
0000
,
0001
0001
1000
0200
,
0000
1300
0001
0200
,
0000
0310
1001
0001
,
0100
0010
0100
0000
0010
0000
0010
0000
,
1001
0100
1001
1000
,
0001
0000
1000
0010
1000
0010
1000
0000
,
0010
0100
0001
0200
,
0010
0310
0010
0020
,
1000
1030
0001
2002
,
0000
3003
0000
0220
,
0000
0330
0000
1000
,
0010
1000
0001
0100
,
0001
1000
0110
0010
,
1000
0001
1000
0000
0001
0000
1001
0000
,
0100
0010
0001
1001
,
0010
0100
2000
3000
;

//---------------dance-single - ----------------
#NOTEDATA:;
#CHARTNAME:;
#STEPSTYPE:dance-single;
#DESCRIPTION:;
#CHARTSTYLE:;
#DIFFICULTY:Hard;
#METER:10;
#RADARVALUES:0.385301,0.389931,0.156809,0.135901,0.214305,258.000000,243.000000,15.000000,13.000000,0.000000,0.000000,0.000000,0.000000,0.000000,0.385301,0.389931,0.156809,0.135901,0.214305,258.000000,243.000000,15.000000,13.000000,0.000000,0.000000,0.000000,0.000000,0.000000;
#CREDIT:;
#NOTES:
// measure 0
0000
0000
0000
0000
,  // measure 1
0000
0000
0000
1001
,  // measure 2
0001
0000
0000
0100
0000
0000
0000
0000
0100
0010
0000
0000
1010
0000
0000
0000
,  // measure 3
0100
0000
0000
0001
0000
0000
0000
0000
1000
0000
0001
0000
0100
0000
0000
0000
,  // measure 4
0010
0000
0000
1000
0000
0000
0000
0000
0001
0100
0000
0001
0100
0000
0000
0000
,  // measure 5
0101
0000
0000
1000
0000
0000
0000
0000
0010
0000
0100
0000
0101
0000
0000
0000
,  // measure 6
0001
0000
0000
1000
0000
0000
0000
0000
0010
0100
0000
0100
0010
0000
0000
0000
,  // measure 7
2000
0000
0000
0001
0000
0000
0000
0000
3001
0000
0000
0000
0200
0000
0000
0000
,  // measure 8
0010
0000
0000
0010
0300
0000
0000
0000
0001
1000
0000
1000
0001
0000
0000
0000
,  // measure 9
0100
0000
0000
0010
0000
0000
0000
0000
1000
0000
0001
0000
1001
0000
0000
0000
,  // measure 10
0100
0000
0000
0010
0000
0000
0000
0000
0100
0010
0000
0010
0100
0000
0000
0000
,  // measure 11
0001
0000
0000
1000
0000
0000
0000
0000
1001
0000
0001
0000
2000
0000
0000
0000
,  // measure 12
0100
0000
0000
3100
0000
0000
0000
0000
0001
0000
0000
0000
0012
0000
0000
0000
,  // measure 13
0010
0000
0000
0013
0000
0000
0000
0000
0001
0000
1000
0000
0010
0000
0000
0000
,  // measure 14
0100
0000
0000
0001
0000
0000
1000
0000
0010
0000
0200
0000
0000
0000
0000
0000
,  // measure 15
0301
0000
0000
0100
0000
0000
0000
0000
0101
0000
0000
0000
0010
0000
0000
0000
,  // measure 16
1000
0001
0000
0100
0000
0001
1000
0000
,  // measure 17
0110
0000
0000
0010
0000
0000
0000
0000
0100
0000
0000
0000
0001
0000
1000
0000
,  // measure 18
0000
1000
0100
0010
0001
0100
0010
0000
,  // measure 19
0110
0000
0000
1000
0001
0200
0000
0000
,  // measure 20
0310
0000
0000
1000
0000
0000
0001
0000
0010
0000
0200
0000
0000
0000
0000
0000
,  // measure 21
1300
0000
0000
0001
0000
0000
0000
0000
0101
0000
0000
0000
0001
0000
0000
0000
,  // measure 22
1000
0010
0000
0100
0000
0001
0100
0000
,  // measure 23
0010
0000
0000
1000
0000
0000
0000
0000
0001
0000
0000
0000
1000
0000
0001
0000
,  // measure 24
0000
1000
0010
0100
0001
1000
0100
0000
,  // measure 25
1010
0000
0001
0100
0010
1000
0001
0000
,  // measure 26
0100
0000
0000
0010
0000
0000
0100
0000
0010
0000
0100
0000
0002
0000
0000
0000
,  // measure 27
1003
0000
0000
0001
0000
0000
0000
0000
1000
0000
0000
0000
0001
0000
0000
0000
,  // measure 28
0100
0001
0000
1000
0000
0010
0100
0000
,  // measure 29
0001
0000
0000
0100
0000
0000
0001
0000
1000
0000
0000
0000
0010
0000
0100
0000
,  // measure 30
0000
0001
0010
0100
1000
0001
0200
0000
,  // measure 31
0310
0000
0000
0100
0001
0200
0000
0000
,  // measure 32
0301
0000
1000
0010
0100
0010
0100
0000
,  // measure 33
0101
0001
1010
0100
,  // measure 34
0010
1000
0000
0010
0000
1000
0001
0000
,  // measure 35
0101
0000
0001
0010
0001
0100
0010
1000
,  // measure 36
0000
1000
0001
0100
0010
0100
0001
0000
,  // measure 37
0100
0001
0100
0001
0100
0001
1000
0010
,  // measure 38
0100
0010
0000
0010
1000
0001
0100
0010
,  // measure 39
0100
0001
0010
0001
1000
0100
0020
0000
,  // measure 40
0031
0000
0000
0001
0000
0000
0000
0000
0001
1000
0000
0001
1000
0000
0000
0000
,  // measure 41
0010
0000
0000
0100
0000
0000
0100
0000
0001
0000
1000
0000
0002
0000
0000
0000
,  // measure 42
1003
0000
0000
1000
0000
0000
0000
0000
0001
0100
0000
0100
0001
0000
0000
0000
,  // measure 43
1000
0000
0000
0010
0000
0000
0010
0000
0100
0000
0001
0000
2000
0000
0000
0000
,  // measure 44
3001
0000
0000
0100
0000
0000
0000
0000
0010
1000
0000
0010
1000
0000
0000
0000
,  // measure 45
0001
0000
0100
0000
0010
0000
1000
0001
,  // measure 46
0100
0000
0001
0000
0010
0100
0000
0000
;
