#VERSION:0.83;
#TITLE:Far Away;
#SUBTITLE:;
#ARTIST:Simon Le Grec;
#TITLETRANSLIT:;
#SUBTITLETRANSLIT:;
#ARTISTTRANSLIT:;
#GENRE:;
#ORIGIN:;
#CREDIT:;
#BANNER:;
#BACKGROUND:;
#PREVIEWVID:;
#JACKET:;
#CDIMAGE:;
#DISCIMAGE:;
#LYRICSPATH:;
#CDTITLE:;
#MUSIC:Simon Le Grec - Far-Away.ogg;
#OFFSET:-0.021000;
#SAMPLESTART:60.775002;
#SAMPLELENGTH:17.799999;
#SELECTABLE:YES;
#BPMS:0.000=156.014;
#STOPS:;
#DELAYS:;
#WARPS:;
#TIMESIGNATURES:0.000=4=4;
#TICKCOUNTS:0.000=4;
#COMBOS:0.000=1;
#SPEEDS:0.000=1.000=0.000=0;
#SCROLLS:0.000=1.000;
#FAKES:;
#LABELS:0.000=Song Start;
#BGCHANGES:;
#KEYSOUNDS:;
#ATTACKS:
;

//---------------dance-single - ----------------
#NOTEDATA:;
#CHARTNAME:;
#STEPSTYPE:dance-single;
#DESCRIPTION:;
#CHARTSTYLE:;
#DIFFICULTY:Beginner;
#METER:2;
#RADARVALUES:0.056212,0.092383,0.000000,0.042770,0.000000,46.000000,46.000000,0.000000,5.000000,0.000000,0.000000,0.000000,0.000000,0.000000,0.056212,0.092383,0.000000,0.042770,0.000000,46.000000,46.000000,0.000000,5.000000,0.000000,0.000000,0.000000,0.000000,0.000000;
#CREDIT:;
#NOTES:
0000
0000
0000
0000
,
0000
0000
0000
0000
,
0000
0000
0000
0000
,
0000
0000
0000
0000
,
0000
0000
0000
0000
,
0000
0000
0000
0000
,
0000
0000
0000
0000
,
0000
0000
0000
0000
,
0100
0000
0000
0000
,
0001
0000
0000
0000
,
1000
0000
0000
0000
,
0000
0000
0000
0000
,
1000
0000
0000
0000
,
0001
0000
0000
0000
,
0100
0000
0000
0000
,
0000
0000
0000
0000
,
0200
0000
0300
0000
,
0010
0000
0000
0000
,
1000
0000
0000
0000
,
0000
0000
0000
0000
,
1000
0000
0000
0000
,
0001
0000
0000
0000
,
0100
0000
0000
0000
,
0000
0000
0000
0000
,
0001
0000
0000
0000
,
1000
0000
0000
0000
,
0001
0000
0000
0000
,
0000
0000
0000
0000
,
0010
0000
0000
0000
,
0100
0000
0000
0000
,
0010
0000
0000
0000
,
0000
0000
0000
0000
,
1000
0000
0000
0000
,
0100
0000
0000
0000
,
0020
0000
0030
0000
,
0000
0000
0000
0000
,
0010
0000
0000
0000
,
0001
0000
0000
0000
,
2000
0000
3000
0000
,
0000
0000
0000
0000
,
0100
0000
0000
0000
,
0010
0000
0000
0000
,
0100
0000
0000
0000
,
0000
0000
0000
0000
,
0001
0000
0000
0000
,
0000
0000
0000
0000
,
1000
0000
0000
0000
,
0000
0000
0000
0000
,
0001
0000
0000
0000
,
0100
0000
0000
0000
,
0001
0000
0000
0000
,
0000
0000
0000
0000
,
1000
0000
0000
0000
,
0010
0000
0000
0000
,
1000
0000
0000
0000
,
0000
0000
0000
0000
,
0001
0000
0000
0000
,
0100
0000
0000
0000
,
0002
0000
0003
0000
,
0000
0000
0000
0000
,
1000
0000
0000
0000
,
0010
0000
0000
0000
,
2000
0000
3000
0000
,
0000
0000
0000
0000
,
0010
0000
0000
0000
,
0000
0000
0000
0000
,
0100
0000
0000
0000
,
0000
0000
0000
0000
,
0010
0000
0000
0000
,
0000
0000
0000
0000
,
0100
0000
0000
0000
,
0000
0000
0000
0000
,
0001
0000
0000
0000
;

//---------------dance-single - ----------------
#NOTEDATA:;
#CHARTNAME:;
#STEPSTYPE:dance-single;
#DESCRIPTION:;
#CHARTSTYLE:;
#DIFFICULTY:Easy;
#METER:4;
#RADARVALUES:0.128309,0.187332,0.076986,0.119755,0.000000,105.000000,96.000000,9.000000,14.000000,0.000000,0.000000,0.000000,0.000000,0.000000,0.128309,0.187332,0.076986,0.119755,0.000000,105.000000,96.000000,9.000000,14.000000,0.000000,0.000000,0.000000,0.000000,0.000000;
#CREDIT:;
#NOTES:
0000
0000
0000
0000
,
0000
0000
0000
0000
,
0000
0000
0000
0000
,
0000
0000
0000
0000
,
0200
0000
0300
0000
,
0001
0000
0000
0000
,
2000
0000
3000
0000
,
0000
0000
0000
0000
,
1001
0000
0001
0000
,
1000
0000
0010
0000
,
0200
0000
0300
0000
,
0000
0000
0000
0000
,
1001
0000
1000
0000
,
0100
0000
1000
0000
,
0002
0000
0003
0000
,
0000
0000
0000
0000
,
0110
0000
0100
0000
,
0010
0000
1000
0000
,
0002
0000
0003
0000
,
0000
0000
0000
0000
,
1001
0000
1000
0000
,
0001
0000
0100
0000
,
0002
0000
0003
0000
,
0000
0000
0000
0000
,
1001
0000
1000
0000
,
0010
0000
0100
0000
,
0020
0000
0030
0000
,
0000
0000
0000
0000
,
0101
0000
0001
0000
,
0100
0000
0010
0000
,
0020
0000
0030
0000
,
0000
0000
0000
0000
,
1000
0000
0001
0000
,
0100
0000
0100
0000
,
0001
0000
1000
0000
,
0001
0000
1000
0000
,
0001
0000
0100
0000
,
0100
0000
0010
0000
,
1000
0000
0001
0000
,
1000
0000
0000
0000
,
0110
0000
0010
0000
,
0100
0000
0001
0000
,
1000
0000
0000
0000
,
0000
0000
1000
0000
,
0001
0000
0100
0000
,
0010
0000
0100
0000
,
0101
0000
0000
0000
,
0000
0000
0001
0000
,
1000
0000
0100
0000
,
1000
0000
0001
0000
,
0010
0000
0100
0000
,
1000
0000
0100
0000
,
0002
0000
0000
0000
,
1003
0000
0000
0000
,
2000
0000
0000
0000
,
3010
0000
0000
0000
,
0110
0000
0001
0000
,
1000
0000
0001
0000
,
1000
0000
0001
0000
,
0000
0000
0001
0000
,
1000
0000
0001
0000
,
1000
0000
1000
0000
,
0010
0000
0100
0000
,
0000
0000
0100
0000
,
0002
0000
0003
0000
,
0100
0000
0010
0000
,
2000
0000
0000
0000
,
3000
0000
0000
0000
,
0001
0000
0100
0000
,
0001
0000
1000
0000
,
0002
0000
0000
0000
,
0003
0000
0000
0000
,
2000
0000
0000
0000
,
3000
0000
0000
0000
;

//---------------dance-single - ----------------
#NOTEDATA:;
#CHARTNAME:;
#STEPSTYPE:dance-single;
#DESCRIPTION:;
#CHARTSTYLE:;
#DIFFICULTY:Medium;
#METER:7;
#RADARVALUES:0.229735,0.343441,0.136863,0.239511,0.000000,188.000000,172.000000,16.000000,28.000000,0.000000,0.000000,0.000000,0.000000,0.000000,0.229735,0.343441,0.136863,0.239511,0.000000,188.000000,172.000000,16.000000,28.000000,0.000000,0.000000,0.000000,0.000000,0.000000;
#CREDIT:;
#NOTES:
0000
0000
0000
0000
,
0000
0000
0000
0000
,
0000
0000
0000
0000
,
0000
0000
0000
0000
,
0210
0000
0000
0300
,
0020
0000
0000
1030
,
2002
0000
0000
0000
,
3003
0000
0000
0000
,
1001
0000
0100
0010
,
1000
0010
0110
0000
,
0020
0100
0130
0000
,
0001
0000
1000
0000
,
0200
0010
0310
0000
,
0001
1000
0010
0100
,
0002
1000
1003
0000
,
0010
0100
0010
0000
,
2000
0000
3001
0100
,
0010
1000
0001
0100
,
0010
0100
0010
0000
1000
0000
0000
0000
,
0001
0000
1000
0000
,
0120
0000
1030
0001
,
1000
0010
0100
0010
,
1000
0001
1000
0000
0001
0000
0000
0000
,
0100
0000
0010
0000
,
2010
0000
3001
0100
,
0001
0010
1000
0000
,
0100
0010
0100
0000
0010
0000
0000
0000
,
0001
0000
1000
0000
,
2010
0000
3100
0010
,
0001
0010
0100
1000
,
0002
0000
0003
0000
,
0000
0000
0000
0000
,
1001
0001
0100
0000
,
0100
0010
1000
0000
,
1002
0000
0103
0000
,
0000
0000
0100
0000
,
0001
1000
0001
0000
,
1000
0010
1000
0000
,
0010
0100
0001
0000
,
0000
0000
0100
0010
,
0200
0300
0010
1000
,
0100
0010
0001
0000
,
0011
0000
0100
0000
,
1000
0000
0100
0000
,
0010
0000
0001
1000
,
0001
0100
0020
0030
,
1010
0000
0100
0000
,
0001
0000
1000
0000
,
1100
0000
0100
1000
,
0001
0010
0100
0000
,
2000
3000
0001
0000
,
0100
0000
0110
0000
,
0002
0000
1000
1003
,
0100
0100
0000
0000
,
0200
0000
0010
0300
,
0020
0000
0001
0030
,
1001
0000
0000
0010
0100
0000
0000
0001
,
1000
0000
0000
1000
0001
0000
0100
0000
,
0120
0000
0000
0000
0130
0000
0000
1000
,
0000
0000
0001
1000
0001
0000
1000
0000
,
0002
0000
0103
0010
,
0100
0000
0001
1000
0001
0000
1000
0000
,
0020
0000
0000
0000
0130
0000
0000
0010
,
0000
0000
0000
1000
0001
0000
0100
0000
,
0020
0000
0000
1030
,
0001
0000
0000
0001
,
2000
0000
0000
0000
,
3000
0000
0000
0000
,
0020
0000
0000
0000
,
0130
0000
0000
0001
,
2000
0000
0000
0000
,
3000
0000
0000
0000
,
0202
0000
0000
0000
,
0303
0000
0000
0000
;

//---------------dance-single - ----------------
#NOTEDATA:;
#CHARTNAME:;
#STEPSTYPE:dance-single;
#DESCRIPTION:;
#CHARTSTYLE:;
#DIFFICULTY:Hard;
#METER:9;
#RADARVALUES:0.369042,0.437107,0.128309,0.188187,0.000000,302.000000,287.000000,15.000000,22.000000,0.000000,0.000000,0.000000,0.000000,0.000000,0.369042,0.437107,0.128309,0.188187,0.000000,302.000000,287.000000,15.000000,22.000000,0.000000,0.000000,0.000000,0.000000,0.000000;
#CREDIT:;
#NOTES:
// measure 0
0000
0000
0000
0000
,  // measure 1
0000
0000
0000
0000
,  // measure 2
0000
0000
0000
0000
,  // measure 3
0000
0000
0000
0000
,  // measure 4
1000
0001
1000
0002
0000
0000
0000
0000
,  // measure 5
0103
0000
0000
0010
,  // measure 6
1000
0001
1000
0020
0000
0000
0000
0000
,  // measure 7
0000
0000
0030
0000
,  // measure 8
1001
0000
0100
0010
0100
0010
1000
0000
,  // measure 9
0001
0000
0010
0000
0100
0000
0000
0100
,  // measure 10
1000
0001
0100
0010
0100
0000
0010
0100
,  // measure 11
0000
0000
0100
0000
0010
0000
0000
1000
,  // measure 12
0002
0000
0103
0010
1000
0010
0100
0001
,  // measure 13
1000
0000
0001
0000
0100
0000
0000
0010
,  // measure 14
0100
0000
0001
1000
0001
0010
0001
0100
,  // measure 15
0000
0010
0200
0300
,  // measure 16
0110
0000
0000
0000
0010
0000
1000
0001
,  // measure 17
0100
0010
1000
0000
,  // measure 18
2002
0000
3003
0000
0100
0000
0010
0100
,  // measure 19
0000
0001
1000
0000
,  // measure 20
0202
0000
0303
0000
0001
0010
0001
0100
,  // measure 21
0001
1000
0010
0000
,  // measure 22
0220
0000
0330
0000
0100
0000
0001
1000
,  // measure 23
0000
0100
0101
0000
,  // measure 24
0002
0000
1003
0000
0010
0100
0010
1000
,  // measure 25
0100
0010
0001
0000
,  // measure 26
2001
0000
3001
1000
0001
0000
0001
0100
,  // measure 27
0000
0010
1010
0000
,  // measure 28
0002
0000
0103
0000
0001
0100
0001
0010
,  // measure 29
0100
1000
0010
0000
,  // measure 30
0200
0000
0310
0100
0000
0000
0010
0100
,  // measure 31
0000
0000
0000
0000
,  // measure 32
1001
0000
0001
0100
0001
0100
0010
0000
,  // measure 33
1000
0000
0100
0000
0101
0000
0000
0001
,  // measure 34
0010
0001
0010
0100
1000
0000
0100
1000
,  // measure 35
0000
0000
0001
0000
0101
0000
0000
1000
,  // measure 36
0001
0000
0100
0010
0100
0000
0001
0100
,  // measure 37
0010
0000
1000
0000
1001
0000
0000
0001
,  // measure 38
1000
0001
1000
0100
0010
0000
0001
0100
,  // measure 39
0000
0000
0010
0000
1010
0000
0100
0020
,  // measure 40
0000
0030
0100
0010
,  // measure 41
1000
0000
0001
1000
0001
0000
1000
0010
,  // measure 42
1000
0000
0010
0100
0010
0000
1000
0010
,  // measure 43
0000
0010
1000
0000
,  // measure 44
0202
0000
0303
0000
0001
1000
0010
0100
,  // measure 45
0010
0000
1000
0010
1000
0000
0001
0100
,  // measure 46
0001
0000
1000
0010
1000
0000
0001
0100
,  // measure 47
0000
0000
0100
0000
0001
0000
1000
0001
,  // measure 48
0000
0000
0000
0000
0010
0100
0010
0100
,  // measure 49
1000
0000
0001
0100
0001
0000
1000
0001
,  // measure 50
0100
0000
0001
0100
0001
0000
1000
0001
,  // measure 51
0000
0100
1010
0000
,  // measure 52
0020
0000
0000
0000
1030
0100
1000
0100
,  // measure 53
1000
0000
0001
0010
0001
0000
1000
0100
,  // measure 54
0010
0000
0001
0010
0001
0000
0000
0000
,  // measure 55
0100
0000
0000
0000
0010
0000
0100
0010
,  // measure 56
0100
0000
0010
0100
0010
0100
0001
0000
,  // measure 57
1000
0000
0000
0100
0010
0000
0010
0001
,  // measure 58
0000
0000
1000
0001
1000
0000
0001
0100
,  // measure 59
0000
0000
0000
0001
1000
0000
0010
0100
,  // measure 60
0010
0000
0100
0001
0100
0001
1000
0000
,  // measure 61
0010
0000
0000
0100
0001
0000
0100
0001
,  // measure 62
0000
0000
1000
0100
0010
0000
0100
0010
,  // measure 63
0000
0000
0010
0001
1000
0000
0001
0100
,  // measure 64
0010
0000
0100
0000
0001
0000
1000
0001
,  // measure 65
1000
0000
0001
1000
0001
0000
1000
0010
,  // measure 66
0200
0000
0000
0000
,  // measure 67
0300
0000
0000
0000
,  // measure 68
0001
0010
0001
2000
0000
0000
0000
0000
,  // measure 69
3001
0000
0000
0100
,  // measure 70
0010
0100
0010
0200
0000
0000
0000
0000
,  // measure 71
0300
0000
0000
0000
,  // measure 72
0002
0000
0000
0000
,  // measure 73
0003
0000
0000
0000
;
