#TITLE:FRAGMENTS ~ふたつの記憶~;
#SUBTITLE:;
#ARTIST:佐野 宏晃×PON feat. Megumi Tatsumi;
#TITLETRANSLIT:FRAGMENTS ~futatsu no kioku~;
#SUBTITLETRANSLIT:;
#ARTISTTRANSLIT:Sano Hiroaki×PON feat. Megumi Tatsumi;
#GENRE:;
#CREDIT:;
#BANNER:20160605210228!LT_FRAGMENTS_~futatsu_no_kioku~.png;
#BACKGROUND:;
#LYRICSPATH:;
#CDTITLE:;
#MUSIC:FRAGMENTS_~futatsu_no_kioku~.ogg;
#OFFSET:-0.117000;
#SAMPLESTART:72.535004;
#SAMPLELENGTH:17.400000;
#SELECTABLE:YES;
#BPMS:0.000000=152.000000
;
#STOPS:
;
#BGCHANGES:;
#KEYSOUNDS:;
#ATTACKS:;

//---------------dance-single - ----------------
#NOTES:
     dance-single:
     :
     Beginner:
     3:
     0.142252,0.180744,0.083678,0.150620,0.000000,119.000000,109.000000,10.000000,18.000000,0.000000,0.000000,0.142252,0.180744,0.083678,0.150620,0.000000,119.000000,109.000000,10.000000,18.000000,0.000000,0.000000:
0000
0000
0000
0000
,
0000
0001
0000
0000
,
1000
1000
0000
0000
,
0010
0010
0000
0000
,
0000
0200
0300
0000
,
0000
0001
0000
1000
,
0000
0010
0000
1000
,
0000
0100
0000
0010
,
0000
0001
0000
1000
,
0000
0001
0000
0000
,
0000
1001
0000
0000
,
2002
0000
3003
0000
,
1000
0002
0000
0003
,
0100
0020
0000
0030
,
0000
1001
0000
0000
,
0220
0000
0330
0000
,
0010
1000
0000
1000
,
0000
0001
0000
0010
,
0000
0001
0000
1000
,
0000
0001
0000
0100
,
0000
0002
0000
0003
,
0000
1000
0000
0010
,
0000
0100
0000
0010
,
0000
1000
0000
0001
,
0000
2000
0000
3000
,
0000
0002
0000
0003
,
0000
0100
0000
0010
,
0000
0100
0000
0001
,
0000
2000
0000
3000
,
0000
0001
0000
0001
,
0000
0100
0000
0000
,
0000
0100
0000
0010
,
0000
0010
0000
0000
,
0000
1000
0000
0001
,
0000
1001
0000
0000
,
0000
1000
0000
0010
,
0000
1000
0000
0000
,
0000
0001
0000
0010
,
0000
0001
0000
0000
,
0000
1000
1000
1000
,
0000
0002
0000
0003
,
0000
0001
0000
1000
,
0000
0010
0000
0000
,
0100
0000
0000
0000
,
0000
0110
0000
0000
,
0000
1001
0000
0000
,
0000
1000
0000
0010
,
0000
0100
0000
0001
,
0000
1000
0000
0001
,
0000
1000
0000
0000
,
0000
0011
0000
0000
,
0000
1001
0000
0000
,
0000
1100
0000
0000
,
0000
1000
0000
0100
,
0000
1000
0000
0001
,
0000
0100
0000
0001
,
0000
1000
0000
0010
,
0000
2000
0000
3000
,
0000
0001
0000
0100
,
0000
0001
0000
0100
,
0000
0002
0000
0003
,
0000
1000
0000
0000
,
0000
1000
0000
0001
,
0000
1000
0000
0000
,
0000
2000
0000
3000
,
0000
0000
0000
0001
,
0000
0001
0000
1000
,
0000
0001
0000
0000
,
0000
0200
0000
0300
,
0000
0010
0000
0100
,
0000
0002
0000
0000
,
0003
2000
0000
0000
,
3000
0000
0000
0000
;

//---------------dance-single - ----------------
#NOTES:
     dance-single:
     :
     Easy:
     7:
     0.310803,0.362116,0.150620,0.225930,0.000000,260.000000,242.000000,18.000000,27.000000,0.000000,0.000000,0.310803,0.362116,0.150620,0.225930,0.000000,260.000000,242.000000,18.000000,27.000000,0.000000,0.000000:
0000
0000
0000
0000
,
0000
0001
0100
0010
,
1000
0100
0010
0001
,
0010
1000
0010
0001
,
0100
0020
0030
1000
,
0000
0001
0000
1000
,
0010
0100
0001
0001
,
0010
0200
0000
1300
,
0100
0020
0001
0031
,
0010
0200
1000
1300
,
0000
0000
1001
0000
0001
0010
0000
0010
,
0002
0000
0003
1000
,
1000
0000
2010
0000
0000
0010
3000
0000
,
0020
0000
0000
1000
0030
0000
0001
0000
,
0000
0000
1000
0000
0001
0100
0000
0010
,
2000
0000
3000
0001
,
0010
0000
0002
0000
0000
1000
0003
0000
,
0200
0000
0310
0001
,
1000
0001
1000
0100
,
0010
0001
1000
0100
,
0001
0000
0020
0000
0000
0030
0100
0000
,
1000
0200
0000
0300
0000
0000
0010
0000
,
0001
0000
0100
0000
0010
0100
0000
0000
,
0100
0010
0000
0000
1000
0000
0001
0000
,
1000
0100
2000
0000
0000
0000
3001
0000
,
0010
0100
1000
0100
,
0010
0000
0001
0000
1000
0010
0000
0000
,
0010
0100
0000
0000
0001
0000
1000
0000
,
0001
2000
0000
3100
,
0000
0001
0100
0000
0001
0100
0000
0000
,
0100
0120
0030
1000
,
0000
0000
0001
0000
0100
0010
0100
0000
,
0010
2000
0000
3001
,
0001
0100
0010
1000
,
0001
2002
3003
0100
,
0010
1000
0000
0001
0000
0001
0000
1000
,
0000
1100
0000
1001
,
0000
0101
0000
0010
,
0001
0100
0000
0010
,
1000
0001
0000
1100
,
1000
0001
0000
0100
,
0010
0001
0000
1000
,
0001
0100
0010
1000
,
0200
0300
0010
0000
,
0001
0101
0000
0100
,
0010
2020
0000
3030
,
1000
1000
0001
0010
,
0100
1000
0000
0000
1000
0000
0001
0000
,
0100
1001
0010
0001
,
1000
0010
1000
0000
0001
0000
0100
0000
,
0010
0110
0000
1000
,
0010
1010
0000
0100
,
0001
0000
0101
0000
0000
0010
0000
0000
,
0100
1000
0000
0000
1000
0100
0000
0000
,
0010
0001
0010
0000
0000
1000
0001
0000
,
0100
0200
0010
0310
,
1000
0000
1001
0000
0010
0001
0010
0000
,
0001
2000
3100
0100
,
0010
0011
1000
0100
,
0001
0010
0100
1000
,
0001
0001
1000
1000
,
0010
1010
0000
0100
,
0001
0000
1001
0000
0000
0001
0000
0000
,
2000
0000
0000
0000
3001
0000
0100
0010
,
0100
0000
0020
0000
0000
1000
0030
0000
,
0001
0000
0000
1000
0000
0000
0001
0000
,
0100
0000
0001
0000
1000
0100
0000
0100
,
2000
0000
0000
0000
3001
0000
0100
0010
,
0100
0000
0001
0000
0000
1000
0000
0000
,
0010
0000
0000
1000
0000
0000
0100
0010
,
0000
0002
0000
0000
,
0000
0000
0000
0000
,
0000
0003
0000
0000
0000
0000
0000
0000
;

//---------------dance-single - ----------------
#NOTES:
     dance-single:
     :
     Medium:
     9:
     0.392090,0.422468,0.100413,0.317976,0.046023,328.000000,316.000000,12.000000,38.000000,0.000000,0.000000,0.392090,0.422468,0.100413,0.317976,0.046023,328.000000,316.000000,12.000000,38.000000,0.000000,0.000000:
0000
0000
0000
0000
,
1000
0001
1000
0000
0100
0000
0010
0000
,
0001
2000
0000
0000
3000
0000
0010
0000
,
0100
0000
0010
0000
0100
0010
0000
1000
,
0001
0000
2000
0000
0000
0000
0000
0000
3001
0000
0000
0000
0100
0000
0000
0010
,
0000
0000
0100
0000
0020
0000
0000
0000
0030
0000
0000
0000
1000
0000
0000
0001
,
0000
0000
1000
0000
0002
0000
0000
0000
0003
0000
0000
0000
1000
0000
0000
0100
,
0000
1000
0200
0000
0300
0000
0010
0000
,
0001
0000
0000
0000
0012
0000
0000
0000
0003
0000
0000
0000
1000
0000
0000
0010
,
0000
0100
0001
0000
0000
2000
0000
0000
,
3000
0000
1000
0100
0010
0001
0000
0100
,
0020
0000
1030
0100
,
1000
0001
0020
0000
0000
0230
0000
0300
,
2000
0000
3000
0010
0000
0010
0100
0000
,
0010
0000
1001
0000
1000
0010
0000
0010
,
0200
0000
0000
0300
0010
0000
1000
0001
,
0010
0001
0200
0000
0000
0320
0000
0030
,
2000
0000
3000
0001
0000
0000
1000
1000
,
0000
0001
0100
0000
0010
1000
0010
0000
,
0100
0001
0100
0000
0010
0000
1010
0000
,
0011
0002
1000
0103
,
0010
1000
0000
0000
0010
0000
0010
0000
,
0100
0010
0100
0000
0010
1000
0010
0000
,
0010
0100
0001
0000
1000
0000
0001
0000
,
1000
0100
2000
0000
0010
0000
3001
0000
,
0010
0002
0100
1003
,
0010
0000
0100
0000
0010
0100
0010
0000
,
0100
1000
0100
0000
0001
0000
1001
0000
,
1000
2010
0001
3001
,
0100
0010
0010
0000
1000
0100
0010
0000
,
0010
0001
0010
0000
0001
1000
0001
0100
,
0000
0010
0100
0000
0010
2000
0000
3000
,
0001
0100
0010
0000
0101
0000
1010
0000
,
1000
0100
1000
0000
0001
0010
0001
0000
,
0010
0100
2000
0000
3000
0000
0001
0100
,
0001
0010
0000
0001
0000
1000
0000
0010
,
0000
0000
1000
0000
0010
0100
0001
0000
,
1000
0010
0100
0000
0010
0000
0100
0010
,
0100
0000
0010
0000
0100
0000
0000
0000
0000
0000
0000
0000
0010
0000
0000
0100
,
0000
0000
0010
0000
2000
0000
0000
0000
3001
0000
0000
0000
1000
0000
0000
0100
,
0000
0010
0002
0000
0000
0003
0100
0000
,
0010
0000
0100
0000
0010
0000
0000
0000
1000
0000
0000
0000
1000
0000
0000
0001
,
0000
1000
0002
0000
0003
0200
0000
0300
,
0020
0000
0000
1000
0000
0000
1030
0001
,
0100
0010
0100
0000
0010
0010
0000
1000
,
0001
1000
0020
0000
0000
0030
0000
0100
,
0010
1000
0001
0000
0001
0010
0100
0000
,
1000
0100
0020
0000
0030
0000
0001
0000
,
1000
0000
1010
0000
0010
1000
0000
0010
,
1000
0000
0002
0000
0000
0000
0003
0000
1000
0000
0000
0000
0001
0000
0000
0010
,
0000
0000
0100
0000
0020
0000
0000
0000
0030
0000
0000
0000
0001
0000
0000
1000
,
0000
0000
0001
0000
2000
0000
0000
0000
3000
0000
0000
0000
0001
0000
0000
0100
,
0000
0010
1000
0000
0001
1000
0000
0001
,
0000
0100
0000
0010
0100
0000
0010
1000
,
0000
0000
1100
0000
0001
0010
0000
0001
,
0100
0020
0000
0030
1000
0000
0001
0000
,
0100
0000
1001
0000
0010
0100
0010
0000
,
0100
2000
0000
3000
0001
0100
0010
0000
,
0100
0000
0002
0000
0003
0100
0000
0000
,
0010
0100
0010
0000
1000
0100
0100
0000
,
0010
0001
0002
0000
0000
0000
1003
0000
,
0010
0000
1000
0000
0010
0000
0000
0000
0000
0000
0000
0000
1000
0000
0000
0100
,
0000
0010
0001
0000
0000
2000
0000
0000
,
0001
0000
0000
0001
3000
0000
0001
0000
,
1000
0100
1000
0000
0010
1000
0000
1000
,
0001
0000
0000
0100
0000
0000
0001
0010
,
0001
0000
1000
0100
0010
0100
0000
1000
,
0200
0000
0300
0000
0010
0000
0001
0010
,
0001
0010
0100
0000
1000
0100
0000
1000
,
0010
0000
0000
1000
0000
0000
0010
0010
,
0000
0201
0000
0000
,
0000
0000
0000
0000
,
0000
0300
0000
0000
0000
0000
0000
0000
;

//---------------dance-single - ----------------
#NOTES:
     dance-single:
     :
     Hard:
     13:
     0.546297,0.633702,0.217562,0.292872,0.188275,457.000000,431.000000,26.000000,35.000000,0.000000,0.000000,0.546297,0.633702,0.217562,0.292872,0.188275,457.000000,431.000000,26.000000,35.000000,0.000000,0.000000:
// measure 0
0000
0000
0000
0000
,  // measure 1
1000
0001
1000
0000
0100
0010
0001
0001
,  // measure 2
1000
1000
0020
0000
0030
0100
0010
0000
,  // measure 3
0100
0001
0011
0000
0100
0010
0000
1000
,  // measure 4
0001
0000
0200
0000
0000
0000
0000
0000
0301
0000
0000
0000
0100
0000
0000
0010
,  // measure 5
0000
0000
0100
0000
0020
0000
0000
0000
0030
0000
0000
0000
1000
0000
0000
1000
,  // measure 6
0000
0000
0001
0000
0002
0000
0000
0000
0003
0000
0000
0000
1000
0000
0000
0100
,  // measure 7
0000
0010
0200
0000
0310
0001
0000
0001
,  // measure 8
0010
0000
1000
0000
0020
0000
0000
0000
0030
0000
0000
0000
0001
0000
0000
0010
,  // measure 9
0000
0000
0100
0000
1000
0000
0000
0000
0000
0000
0000
2100
0000
0000
0000
0000
,  // measure 10
3000
0000
1000
0100
0010
0100
0010
0100
,  // measure 11
0002
0000
0000
0000
0000
0000
0003
0000
0100
0000
0000
0000
1000
0100
1000
0100
,  // measure 12
1000
0001
0010
0001
0020
0000
0000
0000
0030
0000
0002
0000
0000
0000
1003
0000
,  // measure 13
0200
0000
0300
0002
0000
0003
0100
1000
,  // measure 14
0010
0100
1001
1000
0100
0011
0001
0010
,  // measure 15
0200
0000
0000
0000
0300
0000
1000
0000
1000
0000
0010
0000
1000
0001
1000
0001
,  // measure 16
0100
0001
0100
0001
0200
0000
0000
0000
0300
0000
0020
0000
0000
0000
1030
0000
,  // measure 17
0200
0000
0310
0001
0001
0000
1000
1000
,  // measure 18
0000
0010
0100
0000
0010
1000
0001
1000
,  // measure 19
0100
0001
0100
1000
0010
0000
0110
0000
,  // measure 20
0011
0000
0002
0000
1003
0010
0100
0001
,  // measure 21
0010
1000
0010
0001
0010
0100
0010
0000
,  // measure 22
1000
0010
0110
0000
0010
1000
0100
0000
,  // measure 23
0100
1000
0001
0000
0010
1000
0001
0000
,  // measure 24
0100
1000
0001
0000
0010
0002
0003
0100
,  // measure 25
0010
0200
0300
0010
1000
0010
1000
0000
,  // measure 26
0010
0100
0010
0000
0100
0000
0000
0000
0010
0000
1000
0000
0001
0000
0100
0000
,  // measure 27
0010
1000
0001
0000
1010
0000
1010
0000
,  // measure 28
0100
0000
2000
0000
3001
0010
0001
1000
,  // measure 29
0010
0001
0010
0000
1000
0100
0010
0001
,  // measure 30
0010
0100
0010
0000
0001
1000
0001
0010
,  // measure 31
0100
0100
1000
0000
0010
1000
0010
0000
,  // measure 32
0110
0100
0100
0000
0100
0001
1000
0010
,  // measure 33
1000
0100
1000
0010
0100
0010
0010
0100
,  // measure 34
0001
1000
0002
0000
0003
0000
0100
0010
,  // measure 35
0100
0010
0000
1001
0000
1000
0010
1000
,  // measure 36
0010
0000
1100
0000
0010
0001
0000
1000
,  // measure 37
1000
1000
0000
0001
0010
0000
0100
0000
,  // measure 38
1000
0000
0010
0000
0200
0000
0000
0000
0300
0000
0000
0000
0010
0000
0000
0100
,  // measure 39
0000
0000
0010
0000
1000
0000
0001
0000
1000
0000
0000
0000
0100
0000
0000
0010
,  // measure 40
0000
0010
0002
0000
1003
0100
0010
0000
,  // measure 41
0010
0001
0010
0100
1000
0100
0010
0100
,  // measure 42
0010
0000
0001
0010
0001
0000
0000
0000
1000
0000
0100
0000
0100
0000
0010
0000
,  // measure 43
0020
0000
0030
0011
0000
0000
1000
0001
,  // measure 44
0100
0100
0100
0000
0001
0010
0000
0100
,  // measure 45
0010
0000
0001
0000
1000
0010
0000
1000
0010
0000
1000
0010
0000
0000
1000
0000
,  // measure 46
0010
1000
1001
0000
0001
0010
0100
0010
,  // measure 47
0001
0100
0020
0000
1030
0000
0001
0100
,  // measure 48
0010
1000
1010
0000
0100
1000
0000
0010
,  // measure 49
1000
0000
0001
0000
0010
0000
0000
0000
0010
0000
0001
0000
0001
0000
0000
0010
,  // measure 50
0000
0000
0001
0010
0001
0000
0000
0000
1000
0000
0000
0000
0010
0000
0000
0010
,  // measure 51
0000
0000
1000
0100
2000
0000
0000
0000
3001
0000
0000
0000
0010
0000
0000
0100
,  // measure 52
0000
0010
0001
0000
0001
1001
0000
0010
,  // measure 53
0100
0000
0010
0000
0000
0000
0100
0000
0010
0000
0100
0000
0010
0000
1000
0100
,  // measure 54
1000
0000
0000
0000
1001
0000
0000
0000
0001
0000
0100
0001
0000
0000
0100
0000
,  // measure 55
0010
0200
0000
0300
0010
0100
0001
0000
,  // measure 56
0100
0000
1001
0000
0001
1000
0001
0000
,  // measure 57
1000
0000
0001
0000
2000
0000
0000
0000
3001
0000
0100
0000
0010
0000
0000
0100
,  // measure 58
0000
0010
0220
0000
0330
0100
0000
0010
,  // measure 59
0010
0000
1000
0000
0001
0000
0000
0000
1000
0000
0010
0100
0010
0000
0000
0000
,  // measure 60
0010
0100
0002
0000
1000
0000
0103
0000
,  // measure 61
0010
0000
1000
0000
0001
0000
0100
0010
0100
0000
0000
0000
0010
0000
0100
0010
,  // measure 62
0100
0010
0100
0010
0100
0000
0000
0000
0010
0000
1000
0000
0001
0000
1000
0000
,  // measure 63
0002
0000
0000
0000
0103
0000
0000
0000
0100
0000
0010
0100
0010
0100
0010
0100
,  // measure 64
0010
0100
0010
0100
0010
0000
0000
0000
0100
0000
0101
0000
0000
0000
1000
0000
,  // measure 65
1010
0000
0100
0110
0000
0001
0011
0000
,  // measure 66
0001
0010
0001
0010
0001
0000
0000
0000
0010
0000
0100
0000
1000
0000
0100
0000
,  // measure 67
0020
0000
0000
0000
0030
0000
0000
0000
0010
0000
0001
0010
0001
0010
0001
1000
,  // measure 68
0100
1000
0100
1000
0100
0000
0000
0000
0100
0000
1100
0000
0000
0000
1000
0000
,  // measure 69
2010
0000
0000
0000
3010
0000
0100
0110
,  // measure 70
0000
0020
0000
0000
,  // measure 71
0000
0000
0000
0000
,  // measure 72
0000
0030
0000
0000
0000
0000
0000
0000
;
