#VERSION:0.83;
#TITLE:Every Where You Go;
#SUBTITLE:;
#ARTIST:Stacy Barthe;
#TITLETRANSLIT:;
#SUBTITLETRANSLIT:;
#ARTISTTRANSLIT:;
#GENRE:;
#ORIGIN:;
#CREDIT:;
#BANNER:;
#BACKGROUND:;
#PREVIEWVID:;
#JACKET:;
#CDIMAGE:;
#DISCIMAGE:;
#LYRICSPATH:;
#CDTITLE:;
#MUSIC:Stacy-Barthe-Every-Where-You-Go-RnB.ogg;
#OFFSET:-0.040000;
#SAMPLESTART:42.659000;
#SAMPLELENGTH:17.200001;
#SELECTABLE:YES;
#BPMS:0.000=189.977;
#STOPS:;
#DELAYS:;
#WARPS:;
#TIMESIGNATURES:0.000=4=4;
#TICKCOUNTS:0.000=4;
#COMBOS:0.000=1;
#SPEEDS:0.000=1.000=0.000=0;
#SCROLLS:0.000=1.000;
#FAKES:;
#LABELS:0.000=Song Start;
#BGCHANGES:;
#KEYSOUNDS:;
#ATTACKS:
;

//---------------dance-single - ----------------
#NOTEDATA:;
#CHARTNAME:;
#STEPSTYPE:dance-single;
#DESCRIPTION:;
#CHARTSTYLE:;
#DIFFICULTY:Beginner;
#METER:2;
#RADARVALUES:0.102202,0.151271,0.086194,0.060336,0.000000,83.000000,73.000000,10.000000,7.000000,0.000000,0.000000,0.000000,0.000000,0.000000,0.102202,0.151271,0.086194,0.060336,0.000000,83.000000,73.000000,10.000000,7.000000,0.000000,0.000000,0.000000,0.000000,0.000000;
#CREDIT:;
#NOTES:
0000
0000
0000
0000
,
0000
0000
0000
0000
,
0000
0000
0000
0000
,
0000
0000
0000
0000
,
0000
0000
0000
0000
,
0000
0000
0000
1000
,
0000
0000
0000
0001
,
0000
0000
0000
0100
,
0000
0000
0000
0100
,
0000
0000
0000
1001
,
0000
0000
0000
1000
,
0000
0000
0000
0001
,
0000
0000
0000
1000
,
0000
0000
0000
0010
,
0000
0000
0000
0100
,
0000
0000
0000
0001
,
0000
0000
0000
0100
,
0000
0000
0000
0101
,
0000
0000
0000
0001
,
0000
0000
0000
1000
,
0000
0000
0000
0100
,
0000
0000
0000
0100
,
0000
0000
0000
0010
,
0000
0000
0000
0001
,
0000
0000
0000
1000
,
0000
0000
0000
1001
,
0000
0000
0000
0100
,
0000
0000
0000
0001
,
0000
0000
0000
0010
,
0000
0000
0000
0100
,
0000
0000
0000
2000
,
0000
0000
0000
3000
,
0000
0000
0000
0001
,
0000
0000
0000
2002
,
0000
0000
0000
3003
,
0000
0000
0000
0100
,
0000
0000
0000
0100
,
0000
0000
0000
0001
,
0000
0000
0000
0001
,
0000
0000
0000
1000
,
0000
0000
0000
1000
,
0000
0000
0000
0002
,
0000
0000
0000
0003
,
0000
0000
0000
0001
,
0000
0000
0000
0000
,
0000
0000
0000
1000
,
0000
0000
0000
0100
,
0000
0000
0000
0100
,
0000
0000
0000
0010
,
0000
0000
0000
0001
,
0000
0000
0000
1000
,
0000
0000
0000
0001
,
0000
0000
0000
1000
,
0000
0000
0000
0010
,
0000
0000
0000
0100
,
0000
0000
0000
0100
,
0000
0000
0001
0000
,
0000
0000
0000
2000
,
0000
0000
0000
3000
,
0000
0000
0000
1001
,
0000
0000
0000
1000
,
0000
0000
0000
0100
,
0000
0000
0000
0100
,
0000
0000
0000
0010
,
0000
0000
0000
0001
,
0000
0000
0000
1000
,
0000
0000
0000
0001
,
0000
0000
0000
2002
,
0000
0000
0000
3003
,
0000
0000
0000
1000
,
0000
0000
0000
0000
,
0000
0000
0000
0001
,
0000
0000
0000
0100
,
0000
0000
0000
0001
,
0000
0000
0000
1000
,
0000
0000
0000
1001
,
0000
0000
0000
0000
,
0000
0000
0000
0110
,
0000
0000
0000
0000
,
0000
0000
0000
1001
,
0000
0000
0000
0000
,
0000
0000
0000
0001
,
0000
0000
0000
0001
,
0000
0000
0000
1001
,
0000
0000
0000
1000
,
0000
0000
0000
0001
,
0000
0000
0000
1000
,
0000
0000
0000
0001
;

//---------------dance-single - ----------------
#NOTEDATA:;
#CHARTNAME:;
#STEPSTYPE:dance-single;
#DESCRIPTION:;
#CHARTSTYLE:;
#DIFFICULTY:Easy;
#METER:6;
#RADARVALUES:0.238881,0.302542,0.155150,0.043097,0.000000,194.000000,176.000000,18.000000,5.000000,0.000000,0.000000,0.000000,0.000000,0.000000,0.238881,0.302542,0.155150,0.043097,0.000000,194.000000,176.000000,18.000000,5.000000,0.000000,0.000000,0.000000,0.000000,0.000000;
#CREDIT:;
#NOTES:
0000
0000
0000
0000
,
0000
0000
0000
0000
,
0000
0000
0000
0000
,
0000
0000
0000
0000
,
0000
0000
0000
0000
,
0000
0000
0000
0100
,
0000
0001
0000
0100
,
0000
1000
0000
0002
,
0000
0000
0000
0003
,
0000
0000
0000
1000
,
0000
1001
0000
0001
,
0000
1000
0000
0110
,
0000
0010
0000
0001
,
0000
1000
0001
1000
,
0000
0010
0000
0100
,
0000
1000
0000
0001
,
0000
0010
0000
1000
,
0000
0001
1000
1001
,
0000
1000
0000
0010
,
0000
0100
0000
0101
,
0000
0001
0000
1000
,
0000
0001
0100
0001
,
0000
1000
0000
0010
,
0000
0100
0000
1001
,
0000
0001
0000
1000
,
0000
0010
1000
0001
,
0000
1000
0000
0100
,
0100
0100
0000
0010
,
0000
0001
0000
0010
,
0010
0010
0000
0100
,
0000
1000
0000
0001
,
0100
0000
0100
0000
,
0001
0000
0000
1000
,
0000
0001
0000
1002
,
0000
1003
0000
0001
,
0000
0100
0010
1000
,
0000
0001
0000
1000
,
0000
0001
0001
1001
,
0000
1000
0000
0100
,
0100
1000
0000
0001
,
0000
0100
0001
0100
,
0000
0001
0000
2001
,
0000
3001
0000
0100
,
0000
0010
1000
0010
,
0000
0100
0000
0001
,
0000
1000
1000
1001
,
0000
0001
0000
1000
,
0100
1000
0000
1001
,
0000
0100
0000
0001
,
0000
1000
1000
1100
,
0000
0000
0000
0001
,
0000
1000
0000
0010
,
0000
0010
0000
0000
,
0000
1000
0000
1001
,
0000
0001
0000
0000
,
0000
1000
0100
1000
,
0000
0001
0000
0000
,
0000
0100
0001
0100
,
0000
0000
0000
0001
,
0000
1000
0000
2001
,
0000
3001
0000
0100
,
0000
0010
0000
1000
,
0000
0001
0000
0100
,
0000
0100
0100
0101
,
0000
0001
0000
1000
,
0001
1000
0001
1000
,
0000
0001
0000
0001
,
0000
0100
0000
1002
,
0000
0103
0000
0001
,
0000
1000
0100
1000
,
0000
0001
0000
1000
,
0000
0010
0010
0110
,
0000
0001
0000
1000
,
0010
1000
0010
0100
,
0000
0001
0000
1000
,
0000
0001
0000
0101
,
0000
1000
0000
0000
,
0000
1000
0000
0001
,
0000
0100
0000
0000
,
0000
0100
0000
0001
,
0000
1000
0000
0000
,
0000
0001
0000
0100
,
0000
1000
0000
0000
,
0000
0100
0001
1001
,
0000
0001
0000
0000
,
0000
1000
0100
1000
,
0000
0001
0000
0000
,
0000
0100
0000
0100
;

//---------------dance-single - ----------------
#NOTEDATA:;
#CHARTNAME:;
#STEPSTYPE:dance-single;
#DESCRIPTION:;
#CHARTSTYLE:;
#DIFFICULTY:Medium;
#METER:9;
#RADARVALUES:0.362016,0.453813,0.103433,0.163769,0.000000,294.000000,282.000000,12.000000,19.000000,0.000000,0.000000,0.000000,0.000000,0.000000,0.362016,0.453813,0.103433,0.163769,0.000000,294.000000,282.000000,12.000000,19.000000,0.000000,0.000000,0.000000,0.000000,0.000000;
#CREDIT:;
#NOTES:
0000
0000
0000
0000
,
0000
0000
0000
0000
,
0000
0000
0000
0000
,
0000
0000
0000
0000
,
0000
0000
0000
0000
,
0000
0000
0000
0101
,
0000
0000
0000
1000
,
0001
0100
0010
2000
,
0000
0000
0000
3001
,
0000
0100
0010
1010
,
0000
0100
0001
1000
,
0000
1000
0001
0100
,
0001
0100
0000
0001
1000
0000
0000
0000
,
0010
0100
0001
1001
,
1000
0100
0010
0001
,
0100
0001
0010
0100
,
1000
0100
0000
0100
2000
0000
3000
0000
,
0001
0100
0001
1001
,
0000
0010
0100
0010
1000
0002
0000
0000
,
1003
0010
0100
1001
,
0000
0001
0010
0100
1000
0002
0000
0000
,
1003
0010
0100
0101
,
0001
1000
1000
0001
,
0100
0010
0010
0100
,
0001
0100
0010
0000
1000
0000
0002
0000
,
0003
1000
0010
0110
,
0100
0001
0000
0100
0001
0000
1000
0000
,
0010
0100
0100
0001
,
1000
0001
0000
0001
0100
0000
0001
0000
,
0000
1000
0000
0010
,
0000
0100
0000
0001
,
0001
0001
0001
0000
,
0002
0000
1003
0010
,
1000
0010
1000
0010
1000
0001
0200
0000
,
0000
0310
2000
0000
,
3001
0100
0010
1000
,
0002
0000
0003
1000
,
0000
0010
0100
0000
,
0100
0001
1000
0000
,
1000
0010
0100
0000
,
0200
0000
0301
1000
,
0000
0000
0001
0100
0001
0010
0002
0000
,
0000
1003
0020
0000
,
1030
0001
0100
0001
,
2000
0000
3010
0000
,
0010
0100
0100
0000
,
0002
0000
1003
0010
,
1000
0001
0100
0000
,
0100
0000
0010
0010
,
1000
0001
0000
1000
0010
0000
0100
0000
,
0000
0001
0000
1000
,
0000
1000
0010
0010
,
0100
0010
0100
0010
1000
0000
0000
0000
,
0001
0100
0000
1001
,
0000
0100
0000
0010
,
0100
0010
0000
1000
,
0000
1001
0000
0001
,
0000
1000
0100
2000
,
0000
3001
0100
0001
,
0000
0000
1000
0100
0010
0001
2000
0000
,
0000
3010
0200
0000
,
0301
1000
0001
0100
,
0010
0010
1000
0001
,
0001
1000
0010
0000
,
0100
0001
1000
0010
,
0010
1000
0100
0010
,
0001
0001
0010
0000
,
0010
0000
0100
1000
0100
1000
0200
0000
,
0000
1300
0002
0000
,
0103
0010
0010
1000
,
1000
0001
0100
0000
,
0100
0001
0010
0100
,
1000
1000
0100
0010
,
0001
0100
0001
0100
,
0010
0001
0010
0100
,
0001
1000
0000
0010
0100
0000
0001
0000
,
0000
1000
0100
0000
,
0100
1000
0000
0001
,
0100
0001
1000
0000
,
1000
0100
0010
0001
,
0000
0001
0100
0010
,
1000
1000
0001
0101
,
0000
0100
0000
0010
,
1000
0001
0100
1001
,
0000
0001
1000
0100
,
0000
0100
1000
0010
,
0100
0001
0100
0000
,
0010
1000
0000
1001
;

//---------------dance-single - ----------------
#NOTEDATA:;
#CHARTNAME:;
#STEPSTYPE:dance-single;
#DESCRIPTION:;
#CHARTSTYLE:;
#DIFFICULTY:Hard;
#METER:12;
#RADARVALUES:0.518397,0.605084,0.336158,0.112053,0.000000,421.000000,382.000000,39.000000,13.000000,0.000000,0.000000,0.000000,0.000000,0.000000,0.518397,0.605084,0.336158,0.112053,0.000000,421.000000,382.000000,39.000000,13.000000,0.000000,0.000000,0.000000,0.000000,0.000000;
#CREDIT:;
#NOTES:
// measure 0
0000
0000
0000
0000
,  // measure 1
0000
0000
0000
0000
,  // measure 2
0000
0000
0000
0000
,  // measure 3
0000
0000
0000
0000
,  // measure 4
0000
0000
0000
0000
,  // measure 5
0000
0000
0000
1001
,  // measure 6
0000
0000
0100
0000
0010
0100
0010
0000
,  // measure 7
1000
0000
0001
0000
1000
0100
2200
0000
,  // measure 8
0000
0000
0300
0000
3000
0001
0000
0000
,  // measure 9
0001
0000
1000
0000
0010
0100
0101
0000
,  // measure 10
0000
0001
1000
0010
,  // measure 11
0010
1000
0001
0101
,  // measure 12
0100
0001
0000
1000
0010
0000
0000
0000
,  // measure 13
0100
0000
0010
0100
0010
0000
1001
0000
,  // measure 14
1000
0110
0010
0001
,  // measure 15
1000
1100
0000
1000
,  // measure 16
0010
0100
0000
0001
0100
0000
0100
0010
,  // measure 17
0000
0001
0010
0000
1000
0000
1001
0000
,  // measure 18
0000
0100
0010
0100
0001
1000
0000
0000
,  // measure 19
1001
0100
0001
1000
,  // measure 20
0000
0010
1000
0100
0010
0002
0000
0000
,  // measure 21
1003
0000
0010
0100
0010
0000
1010
0000
,  // measure 22
0100
0000
0001
0000
0100
1000
0100
0000
,  // measure 23
0001
0010
0001
0000
1000
0000
0001
0000
,  // measure 24
0100
0010
0100
0000
0001
1000
0001
0000
,  // measure 25
1000
0000
0010
0100
0010
0000
1001
0000
,  // measure 26
1000
0100
0000
0010
0001
0000
1000
0000
,  // measure 27
0011
0010
0100
1100
,  // measure 28
1000
0100
0000
0010
0001
0000
2000
0000
,  // measure 29
3000
0002
0103
1001
,  // measure 30
0000
0010
1001
0001
,  // measure 31
0001
1000
1000
0000
,  // measure 32
0010
0000
0100
0001
,  // measure 33
0100
0001
0100
0001
1000
0010
2010
0000
,  // measure 34
0000
0000
3001
0000
0100
0010
1000
0000
,  // measure 35
0001
0000
0100
0010
1000
0000
0011
0000
,  // measure 36
0001
0000
1000
0000
0100
0010
0001
0000
,  // measure 37
0010
0000
0100
0000
1000
0100
0010
0000
,  // measure 38
0001
0000
1000
0000
0010
0100
0001
0000
,  // measure 39
1100
0100
0010
0011
,  // measure 40
1000
0000
0100
0010
0100
0010
0001
0000
,  // measure 41
1000
0000
0001
0010
0100
1000
0002
0000
,  // measure 42
0103
0000
0010
0000
1000
0100
1000
0000
,  // measure 43
0001
0100
0010
1010
,  // measure 44
0100
0000
0001
0000
0100
0010
1000
0000
,  // measure 45
0001
0000
0100
0001
0100
0000
0101
0000
,  // measure 46
0001
0010
0001
0000
1000
0010
1000
0000
,  // measure 47
0100
1000
0100
0000
1000
0000
1001
0000
,  // measure 48
0010
0100
0010
1000
0001
0100
0010
0000
,  // measure 49
0010
0100
0000
0100
0001
0000
1001
0000
,  // measure 50
0001
1000
0000
0010
0100
0000
0002
0000
,  // measure 51
1000
0000
1003
0010
0100
0000
0001
0000
,  // measure 52
1000
0010
0010
0200
,  // measure 53
0000
0310
0100
1001
,  // measure 54
0010
0100
0000
0001
1000
0000
0002
0000
,  // measure 55
0100
0000
0103
0010
1000
0000
0101
0000
,  // measure 56
0001
0100
0001
1000
0100
1000
0001
0010
,  // measure 57
0100
1000
0001
0100
0001
0000
2000
0000
,  // measure 58
0000
0000
3010
0100
0010
0001
0010
0000
,  // measure 59
0000
0000
1000
0100
1000
0100
0012
0000
,  // measure 60
0000
0103
0001
0100
,  // measure 61
0110
0000
1000
0000
0001
0100
0001
0000
,  // measure 62
1000
0100
1100
0010
,  // measure 63
0001
0000
0100
0010
0100
0000
0101
0000
,  // measure 64
0001
1000
0001
1000
0100
1000
0001
0000
,  // measure 65
0100
0010
0010
1001
,  // measure 66
0000
0100
0010
0100
,  // measure 67
0010
0000
0100
0001
0100
0001
0200
0000
,  // measure 68
0301
0000
1000
0000
0010
0010
1000
0000
,  // measure 69
0001
0100
0010
1000
,  // measure 70
0001
0010
0001
0000
1000
0100
0010
0000
,  // measure 71
0001
1000
0100
0110
,  // measure 72
0000
0000
0010
0001
1000
0100
1000
0000
,  // measure 73
0101
0001
1000
0010
,  // measure 74
0110
0100
0001
1000
,  // measure 75
0001
0100
0000
0001
1000
0000
1010
0000
,  // measure 76
0100
0010
1000
0001
0100
0001
0010
0000
,  // measure 77
0001
0010
0100
1100
,  // measure 78
0001
0100
1000
0100
,  // measure 79
0001
0000
1000
0000
0100
0010
0011
0000
,  // measure 80
1000
0000
0001
0000
0010
0100
0010
0000
,  // measure 81
0100
1000
0001
0011
,  // measure 82
0000
0000
1000
0100
0010
0100
1000
0100
,  // measure 83
0010
0000
0001
0100
0010
0000
0110
0000
,  // measure 84
0000
1000
0001
0010
,  // measure 85
0010
0001
1000
1100
,  // measure 86
0000
0100
0010
0001
,  // measure 87
0000
0001
0010
0100
;
