#VERSION:0.83;
#TITLE:Engagement;
#SUBTITLE:;
#ARTIST:Polycious;
#TITLETRANSLIT:;
#SUBTITLETRANSLIT:;
#ARTISTTRANSLIT:Polycious;
#GENRE:;
#ORIGIN:;
#CREDIT:;
#BANNER:Ec_Engagement.png;
#BACKGROUND:;
#PREVIEWVID:;
#JACKET:;
#CDIMAGE:;
#DISCIMAGE:;
#LYRICSPATH:;
#CDTITLE:;
#MUSIC:Engagement.ogg;
#OFFSET:-0.067000;
#SAMPLESTART:60.938999;
#SAMPLELENGTH:17.000000;
#SELECTABLE:YES;
#BPMS:0.000=135.000;
#STOPS:;
#DELAYS:;
#WARPS:;
#TIMESIGNATURES:0.000=4=4;
#TICKCOUNTS:0.000=4;
#COMBOS:0.000=1;
#SPEEDS:0.000=1.000=0.000=0;
#SCROLLS:0.000=1.000;
#FAKES:;
#LABELS:0.000=Song Start;
#BGCHANGES:;
#KEYSOUNDS:;
#ATTACKS:
;

//---------------dance-single - ----------------
#NOTEDATA:;
#CHARTNAME:;
#STEPSTYPE:dance-single;
#DESCRIPTION:;
#CHARTSTYLE:;
#DIFFICULTY:Beginner;
#METER:2;
#RADARVALUES:0.080968,0.128963,0.053135,0.026567,0.000000,64.000000,58.000000,6.000000,3.000000,0.000000,0.000000,0.000000,0.000000,0.000000,0.080968,0.128963,0.053135,0.026567,0.000000,64.000000,58.000000,6.000000,3.000000,0.000000,0.000000,0.000000,0.000000,0.000000;
#CREDIT:;
#NOTES:
0000
0000
0000
0000
,
0000
0100
0000
0000
,
0000
0010
0000
0000
,
0000
1000
0000
0000
,
0000
0001
0000
0000
,
0000
0100
0000
0000
,
0000
0010
0000
0000
,
0000
1000
0000
0000
,
0000
0001
0000
0000
,
0000
2002
0000
0000
,
3003
0000
0000
0000
,
0000
1001
0000
0000
,
0000
0010
0000
0000
,
0000
0100
0000
0000
,
0000
0010
0000
0000
,
0000
1001
0000
0000
,
0000
0001
0000
0000
,
0000
1000
0000
0000
,
0000
0001
0000
0000
,
0000
0100
0000
0000
,
0000
0100
0000
0000
,
0000
0010
0000
0000
,
0000
0010
0000
0000
,
0000
1000
0000
0000
,
0000
0001
0000
0000
,
0000
0001
0000
0000
,
0000
1000
0000
0000
,
0000
0002
0000
0000
,
0003
0000
0000
1000
,
0000
0000
1000
0000
,
0000
1000
0000
0000
,
0000
0000
0000
0001
,
0000
0000
0001
0000
,
0000
0000
0000
0000
,
0000
0110
0000
0000
,
0000
0100
0000
0000
,
0000
0010
0000
0010
,
0000
0010
0000
0000
,
0000
1000
0000
0000
,
0000
0001
0000
0000
,
0000
1000
0000
1000
,
0000
1000
0000
0000
,
0000
1001
0000
0000
,
0000
0001
0000
0000
,
0000
0001
0000
0000
,
0000
0100
0000
0000
,
0000
0001
0000
0000
,
0000
1000
0000
0000
,
0000
0001
0000
0000
,
0000
0010
0000
0000
,
0000
0010
0000
0000
,
0000
0100
0000
0000
,
0000
1000
0000
0000
,
0000
0000
0000
0000
,
0000
1001
0000
0000
,
0000
0001
0000
0000
,
0000
1000
0000
0000
,
0000
0001
0000
0001
,
0000
0001
0000
0000
;

//---------------dance-single - ----------------
#NOTEDATA:;
#CHARTNAME:;
#STEPSTYPE:dance-single;
#DESCRIPTION:;
#CHARTSTYLE:;
#DIFFICULTY:Easy;
#METER:4;
#RADARVALUES:0.168261,0.213425,0.079702,0.088558,0.000000,133.000000,124.000000,9.000000,10.000000,0.000000,0.000000,0.000000,0.000000,0.000000,0.168261,0.213425,0.079702,0.088558,0.000000,133.000000,124.000000,9.000000,10.000000,0.000000,0.000000,0.000000,0.000000,0.000000;
#CREDIT:;
#NOTES:
0000
0000
0000
0000
,
0000
0100
0000
0010
,
0000
0100
0000
0001
,
0000
1000
0000
0001
,
0000
1000
0001
1000
,
0000
0001
0000
0000
,
1000
1000
0000
0000
,
0010
0010
0000
0000
,
0100
0100
0000
0000
,
0000
2002
0000
0000
,
0000
0000
0000
3003
,
0000
1001
0000
0001
,
0000
1000
0000
0100
,
0000
0110
0000
0010
,
0000
0001
0000
1000
,
0000
1001
0000
0001
,
0000
0100
0000
0010
,
0000
1000
0000
0001
,
0000
2000
0000
3002
,
0000
0103
0000
0010
,
0000
1000
0000
0001
,
0000
0100
0000
0010
,
0100
0010
0000
0100
,
0010
0100
0000
0001
,
1000
0001
0000
1000
,
0001
1000
0000
0010
,
0000
0010
0010
0010
,
0000
0200
0300
0000
,
0020
0030
0000
2000
,
3000
0000
0002
0003
,
0000
1000
0000
0100
,
0100
0000
0010
0010
,
0000
0001
0001
0000
,
0000
0000
0000
0000
,
0000
1010
0000
1000
,
0000
0100
0000
0010
,
0000
0001
0000
1000
,
0010
1000
0000
0001
,
0000
1001
0000
1000
,
0000
0010
0000
0100
,
0000
0001
0000
1000
,
0000
0001
1000
0001
,
0000
1001
0000
1000
,
0000
0010
0000
1000
,
0000
0001
0000
0100
,
0000
0010
0000
1000
,
0000
0001
0000
1000
,
0010
1000
0000
0001
,
0100
0001
0000
1000
,
0010
1000
0000
0001
,
0100
0002
0000
0000
,
0003
0100
0000
0100
,
0000
0110
0000
0010
,
0000
1001
0000
0001
,
0000
1000
0100
1000
,
0000
0001
0010
0001
,
0000
0100
0001
0100
,
0001
0100
0000
0001
,
1000
0002
0000
0000
,
0000
0000
0000
0000
,
0000
0003
0000
0000
;

//---------------dance-single - ----------------
#NOTEDATA:;
#CHARTNAME:;
#STEPSTYPE:dance-single;
#DESCRIPTION:;
#CHARTSTYLE:;
#DIFFICULTY:Medium;
#METER:7;
#RADARVALUES:0.297303,0.346816,0.203684,0.097414,0.039851,235.000000,212.000000,23.000000,11.000000,0.000000,0.000000,0.000000,0.000000,0.000000,0.297303,0.346816,0.203684,0.097414,0.039851,235.000000,212.000000,23.000000,11.000000,0.000000,0.000000,0.000000,0.000000,0.000000;
#CREDIT:;
#NOTES:
0000
0000
0000
0000
,
0000
0000
0000
0000
0100
0000
0000
0010
0000
0000
0000
0000
0010
0000
0000
1000
,
0000
0000
0000
0000
0001
0000
0000
0100
0000
0000
0000
0000
0001
0000
0000
0000
,
0000
0000
0000
0000
1000
0000
0000
0010
0000
0000
0000
0000
1000
0000
0000
0001
,
0000
0000
0000
0000
1000
0000
0000
0100
0000
0000
0000
0000
1000
0000
0000
0000
,
0000
0001
0100
0000
,
1000
0010
0100
0000
,
0001
1000
0000
0010
,
0100
0110
0000
0001
,
0000
2002
0000
0000
,
0000
0000
0000
3003
,
1000
1001
0001
0001
,
1000
0100
1000
0000
0010
0000
1000
0000
,
0001
0100
0010
0000
1000
0000
0010
0100
,
0001
1000
1000
0001
,
0001
1001
0000
0100
,
0010
0100
0000
0010
,
0100
0010
0000
1000
,
0001
1000
0001
0000
1000
0000
0002
0000
,
0100
0103
0000
0010
,
1000
0001
0100
0001
,
1000
0010
1000
0000
0000
0000
0001
0000
,
0100
0110
0010
1000
,
0010
0000
1001
0000
0001
0000
0100
0010
,
1000
0001
1010
1000
,
0101
1000
0110
0010
,
0100
0001
0100
0000
0010
1000
0010
0000
,
0200
0000
0310
0000
0000
0010
0000
0000
,
0100
0000
0000
0100
0000
0000
0001
0000
,
0000
0001
0000
0000
1000
0000
0000
1000
,
0000
0000
0001
0000
0000
0100
0000
0000
,
0100
0000
0000
0001
0000
0000
1000
0000
,
0000
0010
0000
0000
1010
0000
0000
2000
,
0000
0000
3001
0100
,
0000
1001
1000
0001
,
0100
0000
0010
0100
0010
0000
0100
0000
,
0110
0000
0001
0000
1000
0000
0001
0100
,
0001
1000
1010
0100
,
0001
0000
1000
0000
0010
0100
0010
0000
,
1000
0000
0001
0000
0100
0010
0100
0000
,
0001
1001
1000
0001
,
0100
0120
0000
0130
,
0000
0010
1001
1000
,
0001
0000
1000
0000
0010
1000
0010
0000
,
1000
0001
0100
0010
,
1001
0100
1010
0100
,
0001
0000
0101
0000
0100
0000
0010
0100
,
0010
0000
0100
0000
0110
0000
0100
0010
,
0100
0001
1000
0001
,
1000
0000
0010
0000
0000
0100
0000
0000
,
0010
0000
0000
0000
0200
0000
0000
0001
0000
0000
0000
0000
0300
0000
0000
0000
,
0001
0000
0000
0000
2000
0000
0000
0100
0000
0000
0000
0000
3000
0000
0000
0000
,
0001
0000
0000
0000
0200
0000
0000
0010
0000
0000
0000
0000
0300
0000
0000
0000
,
0010
0110
0010
1001
,
0000
0000
0001
0000
1000
0010
1000
0000
,
0001
0000
0100
0000
0001
0100
0010
0000
,
1000
0000
0100
0000
0010
0001
1000
0000
,
0001
1000
1000
0100
,
0100
0220
0000
0000
,
0000
0000
0000
0000
,
0000
0330
0000
0000
;

//---------------dance-single - ----------------
#NOTEDATA:;
#CHARTNAME:;
#STEPSTYPE:dance-single;
#DESCRIPTION:;
#CHARTSTYLE:;
#DIFFICULTY:Hard;
#METER:11;
#RADARVALUES:0.401042,0.400173,0.115126,0.123982,0.336521,317.000000,304.000000,13.000000,14.000000,0.000000,0.000000,0.000000,0.000000,0.000000,0.401042,0.400173,0.115126,0.123982,0.336521,317.000000,304.000000,13.000000,14.000000,0.000000,0.000000,0.000000,0.000000,0.000000;
#CREDIT:;
#NOTES:
// measure 0
0000
0000
0000
0000
,  // measure 1
0000
0000
0000
0000
1000
0000
0000
0001
0000
0000
1000
0000
0001
0000
0000
0100
,  // measure 2
0000
0000
0010
0000
1000
0000
0000
0001
0000
0000
0100
0000
0010
0000
0000
0000
,  // measure 3
0000
0000
1000
0001
1000
0000
0000
0001
0000
0000
0100
0000
0010
0000
0000
1000
,  // measure 4
0000
0000
0001
0000
1000
0000
0000
0010
0000
0000
0100
0000
0010
0000
0000
0000
,  // measure 5
0000
0000
0000
0000
1000
0000
0001
0100
0000
0001
0100
0000
0000
0000
0000
0000
,  // measure 6
0010
0000
0100
0000
0001
0000
1000
0001
0000
0001
1000
0000
0000
0000
0000
0000
,  // measure 7
0001
0000
0100
0000
0010
0000
0000
1000
0000
0000
0010
0000
0100
0000
0000
0000
,  // measure 8
0001
0000
1000
0000
0010
0000
0000
1000
0000
0000
0200
0000
0000
0000
0000
0000
,  // measure 9
0310
0002
0000
0000
,  // measure 10
0000
1003
0000
0100
,  // measure 11
0010
0000
0000
0000
0110
0000
0000
0100
0000
0000
0010
0000
0000
0000
1000
0000
,  // measure 12
0001
0000
1000
0000
0010
0000
0000
1000
0000
0000
0002
0000
0000
0000
1003
0000
,  // measure 13
0010
0000
1000
0000
0001
0000
0000
0100
0000
0000
0020
0000
0000
0000
1030
0000
,  // measure 14
0100
0000
0010
0000
0001
0000
0000
1000
0000
0000
0001
0000
1000
0000
0000
0001
,  // measure 15
0000
1000
0000
0000
1001
0000
0000
0001
0000
0000
1000
0000
0000
0000
0010
0000
,  // measure 16
0100
0000
0001
0000
1000
0000
0000
0010
0000
0000
0200
0000
0000
0000
0301
0000
,  // measure 17
1000
0000
0001
0000
0100
0000
0000
0010
0000
0000
0020
0000
0000
0000
1030
0000
,  // measure 18
0001
0000
1000
0000
0010
0000
0000
0100
0000
0000
0010
0000
0200
0000
0310
0000
,  // measure 19
0100
0000
0001
1000
0000
0000
0000
0000
0001
0000
0000
0000
1000
0000
0001
0000
,  // measure 20
1000
0000
0001
1000
0000
0000
0000
0000
0010
0000
0000
0000
0100
0000
0010
0000
,  // measure 21
0010
0000
1000
0001
0000
0000
0000
0000
0000
0000
1000
0001
1000
0000
0000
0001
,  // measure 22
0000
0000
1000
0000
0010
0000
0000
0010
0000
0000
0000
0000
0100
0000
0010
0000
,  // measure 23
0100
0000
0010
0100
0000
0000
0000
0000
0010
0000
0000
0000
0000
0000
1000
0000
,  // measure 24
0001
0000
1000
0001
0000
0000
0000
0000
0100
0000
0000
0000
0000
0000
0010
0000
,  // measure 25
1000
0000
0001
0100
0000
0000
0000
0000
0000
0000
0001
0100
0001
0000
0000
0100
,  // measure 26
0000
0000
0001
0000
1000
0000
0000
0001
0000
0000
0000
0000
1000
0000
0000
0000
,  // measure 27
0100
0000
0010
0000
0001
0000
0000
1000
0000
0000
1001
0000
0000
0000
0001
0000
,  // measure 28
0100
0000
0000
0010
0000
0000
0100
0000
0000
0000
0001
0000
1000
0000
0000
0001
,  // measure 29
0000
0000
1000
0000
0000
0000
0010
0000
0100
0000
0000
0101
0000
0000
0101
0000
,  // measure 30
0000
0000
0000
0000
1000
0000
0000
0100
0000
0000
0010
0000
0000
0000
0010
0000
,  // measure 31
0001
0000
0000
1000
0000
0000
0001
0000
0000
0000
1000
0000
0010
0000
0000
0000
,  // measure 32
0000
0000
1000
0000
0010
0000
0100
0000
0010
0000
0000
0100
0000
0000
0020
0000
,  // measure 33
0000
0030
0100
0010
,  // measure 34
1001
0000
0000
0000
0001
0000
0000
1000
0000
0000
0001
0000
1000
0000
0000
0001
,  // measure 35
0000
0000
0100
0000
0001
0000
0000
1000
0000
0000
0010
0000
0100
0000
0000
0000
,  // measure 36
0000
0000
0010
0100
0010
0000
0000
0100
0000
0000
0001
0000
1000
0000
0000
0001
,  // measure 37
0000
0000
0100
0000
0010
0000
0000
1000
0000
0000
0010
0000
0010
0000
0000
0000
,  // measure 38
0100
0000
0000
0000
0110
0000
0000
0100
0000
0000
0010
0000
0000
0000
0000
0000
,  // measure 39
1000
0000
0001
0000
1000
0000
0001
0100
0000
0001
0100
0000
0000
0000
0000
0000
,  // measure 40
0001
0000
1000
0000
0010
0000
0000
0100
0000
0000
0010
0000
0000
0000
0000
0000
,  // measure 41
1001
0000
0000
0000
1000
0000
0000
1000
0000
0000
1000
0000
0000
0000
0001
0000
,  // measure 42
0100
0000
0000
0000
0101
0000
0000
0001
0000
0000
1000
0000
0001
0000
0000
1000
,  // measure 43
0000
0000
0100
0000
0010
0000
0000
0001
0000
0000
0001
0000
1000
0000
0000
0000
,  // measure 44
0000
0000
0001
0100
0001
0000
0000
0100
0000
0000
0001
0000
1000
0000
0000
0001
,  // measure 45
0000
0000
1000
0000
0001
0000
0000
1000
0000
0000
0010
0000
0100
0000
0000
0000
,  // measure 46
0010
0000
0000
0000
0100
0000
0010
0100
0000
0010
0100
0000
0000
0000
0000
0000
,  // measure 47
0001
0000
1000
0000
0001
0000
1000
0010
0000
1000
0010
0000
0000
0000
0000
0000
,  // measure 48
1000
0000
0100
0000
0010
0000
0000
0001
0000
0000
1000
0000
0001
0000
0000
0000
,  // measure 49
0001
0000
0100
0000
0010
0000
0000
0100
0000
0000
0020
0000
0000
0000
0030
0000
,  // measure 50
0100
0220
0000
0000
,  // measure 51
0330
2002
0000
0000
,  // measure 52
3003
0000
0000
0000
0100
0000
0000
0010
0000
0000
0100
0000
0000
0000
0000
0000
,  // measure 53
0001
0000
0000
0000
1001
0000
0000
0000
0000
0000
1000
0000
1001
0000
0000
0001
,  // measure 54
0000
1000
0000
0000
0001
0000
0000
1000
0000
0000
0001
0000
0000
0000
1000
0000
,  // measure 55
0100
0000
0010
0000
0001
0000
0000
1000
0000
0000
0001
0000
0000
0000
0001
0000
,  // measure 56
0010
0000
0100
0000
1000
0000
0000
0001
0000
0000
1000
0000
0000
0000
1000
0000
,  // measure 57
0010
0000
0100
0000
0001
0000
0000
1000
0000
0000
0001
0000
1000
0000
0000
0001
,  // measure 58
0000
1000
0000
0000
0002
0000
0000
0000
0000
0000
0000
0000
0000
0000
0000
0000
,  // measure 59
0000
0000
0000
0000
,  // measure 60
0000
0003
0000
0000
;
