#TITLE:Endless Moon -LUNA-;
#SUBTITLE:;
#ARTIST:Mizune feat Yurano Azusa;
#TITLETRANSLIT:;
#SUBTITLETRANSLIT:;
#ARTISTTRANSLIT:;
#GENRE:;
#CREDIT:from pop n music eclale;
#BANNER:Ec_Endless_Moon_-LUNA-.png;
#BACKGROUND:;
#LYRICSPATH:;
#CDTITLE:;
#MUSIC:Endless Moon -LUNA-.ogg;
#OFFSET:-0.299000;
#SAMPLESTART:44.721001;
#SAMPLELENGTH:17.200001;
#SELECTABLE:YES;
#BPMS:0.000000=212.028000
;
#STOPS:
;
#BGCHANGES:;
#KEYSOUNDS:;
#ATTACKS:;

//---------------dance-single - ----------------
#NOTES:
     dance-single:
     :
     Beginner:
     3:
     0.137314,0.209313,0.040471,0.080943,0.000000,95.000000,91.000000,4.000000,8.000000,0.000000,0.000000,0.137314,0.209313,0.040471,0.080943,0.000000,95.000000,91.000000,4.000000,8.000000,0.000000,0.000000:
0000
0000
0000
0000
,
0000
0000
0000
0000
,
0000
0000
0000
0000
,
0000
0000
0000
0000
,
0000
0000
0000
0000
,
0000
0000
0000
0110
,
0000
0000
0000
0000
,
0000
0010
0000
0000
,
0000
0000
0000
0110
,
0000
0000
0000
0000
,
0000
0100
0000
0000
,
0000
0000
0000
0001
,
0000
0000
0000
0000
,
0000
1000
0000
0000
,
0000
0000
0000
0100
,
0000
0000
0010
0000
,
0000
0001
0000
0000
,
0000
0000
0000
1001
,
0000
0000
0000
0000
,
0000
1000
0000
0000
,
0000
0000
0000
0010
,
0000
0000
0100
0000
,
0000
0010
0000
0000
,
0000
0000
0000
1000
,
0000
0001
0000
0000
,
0000
0001
0000
1000
,
0000
0010
0000
0000
,
0000
0010
0000
0100
,
0000
0001
0000
0000
,
0000
0001
0000
2000
,
0000
3000
0000
0001
,
0000
0000
0000
0110
,
0000
0000
0000
0000
,
0000
0000
0000
1000
,
0000
0001
0000
1000
,
0000
0000
0000
0001
,
0000
0000
0000
0001
,
0000
0001
0000
0002
,
0000
0000
0000
0003
,
0000
0000
0000
1000
,
0000
0010
0000
0000
,
0000
0010
0000
1000
,
0000
0001
0000
0000
,
0000
0001
0000
0010
,
0000
0100
0000
0000
,
0000
0100
0000
1000
,
0000
0001
0000
0000
,
0000
1000
0000
0001
,
0000
0001
0000
1000
,
0000
1000
0000
0010
,
0000
0010
0000
0100
,
0000
0000
0000
0002
,
0000
0003
0000
1000
,
0000
0000
0000
0001
,
0000
0100
0000
0001
,
0000
0000
0000
0100
,
0000
0010
0000
0100
,
0000
0000
0000
0010
,
0000
1000
0000
1000
,
0000
0000
0000
1000
,
0000
0001
0000
0001
,
0000
0000
0000
0100
,
0000
0010
0000
0100
,
0000
0000
0000
0002
,
0000
0000
0000
0000
,
0003
0000
0000
2000
,
0000
3000
0000
0001
,
0000
0000
0000
0100
,
0000
0000
0100
0000
,
0000
0001
0000
0000
,
0001
0000
0000
1000
,
0000
0000
1000
0000
,
0000
0001
0000
0000
,
0001
0000
0000
0200
,
0000
0000
0310
0000
,
0000
0020
0000
0000
,
1030
0000
0000
2000
,
0000
0000
3001
0000
,
0000
0001
0000
0000
,
0100
0000
0000
0001
,
0000
0000
0000
0000
,
0000
1000
0000
0000
,
0000
0000
0000
0001
;

//---------------dance-single - ----------------
#NOTES:
     dance-single:
     :
     Easy:
     8:
     0.302091,0.376764,0.121414,0.232711,0.000000,209.000000,197.000000,12.000000,23.000000,0.000000,0.000000,0.302091,0.376764,0.121414,0.232711,0.000000,209.000000,197.000000,12.000000,23.000000,0.000000,0.000000:
0000
0000
0000
0000
,
0000
0000
0000
0000
,
0000
0000
0000
0000
,
0000
0000
0000
0000
,
0000
0000
0000
0000
,
0000
0000
0000
2000
,
0000
0001
3001
0000
,
1000
0002
0000
1000
,
1003
0000
0100
0020
,
0000
0100
0130
0000
,
0010
0200
0000
0000
,
0301
0000
0000
1001
,
0000
0100
0010
0000
,
1000
0000
0002
0000
0000
0000
0003
1000
,
0001
0000
0100
0110
,
0000
0010
1001
0000
,
0100
0000
0010
0000
0000
1000
0000
0000
,
0001
0000
0000
2100
,
0000
3010
0100
0000
,
0100
0000
0002
0000
0000
0000
0003
1000
,
0001
0000
0100
0001
,
0000
0001
0000
0000
1000
0000
0000
1000
,
0000
0020
0000
0000
,
0130
0000
1000
1001
,
0000
0000
0001
0000
0000
0100
0000
0000
,
0010
0000
0000
1000
,
0000
0000
0001
0000
0000
1000
0000
0000
,
0001
0000
0000
1000
,
0000
0000
0010
0000
0000
0100
0000
0000
,
0001
0000
1000
2002
,
0000
3003
0000
0100
,
0000
0010
0000
1000
,
0001
0100
0000
0100
,
0001
1000
0100
0010
,
0000
0000
0001
0000
0000
1000
0000
0000
,
0001
0000
1000
2100
,
0000
3100
0000
0001
,
0100
0001
0100
0002
,
0000
0000
0003
2000
,
0000
3000
0000
0010
,
0100
0000
0001
0000
0000
1000
0000
0001
,
0000
0001
0000
0000
0000
0000
1000
0000
,
0010
0100
0001
0100
,
0000
0001
1000
1001
,
0000
0000
0001
0000
0000
1000
0000
0001
,
0000
0100
0000
0000
0000
0000
0100
0000
,
0010
0100
0000
0010
,
0100
0010
0000
1000
,
0001
0000
0100
0000
0000
0100
0000
0010
,
0000
0100
0000
0000
0000
0000
0001
0000
,
0001
0000
1000
0000
0000
0002
0000
0000
,
0000
0003
0000
0200
,
0010
0000
0010
0000
0300
0010
0000
0000
,
0000
0000
0000
0100
,
0001
1000
1000
0000
,
0010
1000
0001
0100
,
0001
0000
0100
0000
0010
0100
0000
0000
,
0000
0010
1000
1001
,
0000
0001
0100
0001
,
1000
0000
1000
0100
,
0010
0000
0010
0000
0010
0001
0000
0000
,
0000
1000
0001
0101
,
0000
0001
1000
0010
,
0100
0000
0010
1000
,
0000
0000
0100
0000
0000
0020
0000
0000
,
0030
0000
0100
0200
,
0000
0000
0301
0002
,
0000
0003
0000
2000
,
0000
3010
0010
0000
,
0100
0002
0000
0103
,
1001
0000
1000
0200
,
0000
0310
0010
0000
,
0100
0010
0001
1000
,
0001
0001
0100
0002
,
0000
1003
1000
0000
,
0010
0200
0000
0310
,
1001
0000
0001
0100
,
0001
1000
0001
0000
,
1000
0010
1000
0010
,
0100
0000
0000
0001
,
0000
0000
0000
0001
,
0000
0000
0000
0100
,
0000
0000
0000
0100
;

//---------------dance-single - ----------------
#NOTES:
     dance-single:
     :
     Medium:
     10:
     0.393152,0.461881,0.232711,0.364243,0.000000,272.000000,249.000000,23.000000,36.000000,0.000000,0.000000,0.393152,0.461881,0.232711,0.364243,0.000000,272.000000,249.000000,23.000000,36.000000,0.000000,0.000000:
0000
0000
0000
0000
,
0000
0000
0000
0000
,
0000
0000
0000
0000
,
0000
0000
0000
0000
,
0000
0000
0000
0000
,
0000
0000
0000
0210
,
0000
0310
0110
0000
,
1000
1002
0000
1003
,
1001
0000
0100
0210
,
0000
0301
0101
0000
,
0010
1020
0000
1030
,
0100
0010
0001
0010
0001
0000
2000
0000
,
0000
3010
0200
0000
,
0301
0000
0020
0000
0000
0000
0030
0100
,
1000
0000
0000
0000
0001
0100
0010
0000
,
0100
0010
0000
0010
1000
0000
0001
0000
,
1000
0000
0001
0000
0000
0100
0000
0000
,
0001
0000
0000
2100
,
0000
3001
0200
0000
,
0310
0000
2000
0000
0000
0000
3000
0010
,
0100
0000
0000
0000
0001
0100
0001
0000
,
0100
0001
0000
1000
0010
0000
0100
0001
,
0000
0100
0020
0000
0000
0000
0030
0000
,
0200
0300
0110
2002
,
3003
0000
0100
0000
0010
0100
0000
0001
,
1000
0000
0000
0000
0001
0010
0002
0000
,
0003
0000
1000
0000
0010
0100
0000
0010
,
0100
0000
0001
2000
,
0000
0000
3010
0000
0100
0001
0000
1000
,
0001
0000
0100
1001
,
0000
0110
0000
0000
1000
0000
0000
0001
,
0000
0000
0000
0000
1000
0100
0010
0000
,
0000
0000
0010
0000
0001
0010
0000
0100
,
1000
0000
1000
0020
,
0000
0000
0130
0000
0100
0001
0000
0000
,
1000
0000
0010
0000
0100
0010
0200
0000
,
0300
0010
1000
0001
,
0100
0101
0001
2002
,
0000
0000
3003
0002
,
0000
0103
0010
1010
,
0000
0000
0100
0000
0000
0010
0000
1000
,
0000
0001
0000
0100
0000
0000
0010
0000
,
0100
0010
0000
0100
0000
0002
0000
0000
,
0003
1000
0010
0100
,
0000
0000
0100
0000
0001
0100
0000
0001
,
0000
0100
0000
0010
0000
0000
1000
0000
,
0000
0001
0000
0100
0000
0020
0000
0000
,
0030
0100
0100
0001
,
0000
0000
1000
0000
0001
1000
0000
0001
,
0000
0100
0000
0001
0000
0000
1000
0000
,
0000
0010
0000
0100
0000
0002
0000
0000
,
0003
0000
0000
1000
0100
2000
0000
0000
,
0000
0000
0000
0001
3000
0001
0000
0000
,
0000
0100
0100
0010
,
0000
0000
1000
0000
0001
1000
0000
0001
,
0000
0001
0000
0100
0000
0000
0010
0000
,
0100
0010
0000
1000
0000
0002
0000
0000
,
0003
1000
0010
0110
,
0000
0000
0001
0000
0010
0001
0000
0010
,
0000
1000
0000
0010
0000
0000
0001
0000
,
1000
0001
0000
1000
0000
0002
0000
0000
,
0003
0010
0100
1001
,
0000
0000
0100
0000
1000
0010
0000
0100
,
0000
0001
0000
0010
0000
0000
0100
0000
,
1000
0100
0000
0100
0000
2200
0000
0000
,
0000
3300
0000
0002
,
0000
0000
0103
0010
,
0000
0000
0000
2001
,
0000
0000
0001
0000
,
3000
0100
0000
0010
,
0011
0000
0001
1001
,
1000
0100
0010
0000
,
0010
2002
0000
3003
,
0001
0100
0010
2000
,
0000
3000
0010
0100
,
0010
0201
0000
0300
,
0001
0000
1000
0010
,
0100
0001
1000
1000
,
0001
0002
0000
0003
,
0100
0000
0010
0100
0010
0000
0100
0000
,
0010
0000
1000
0001
1000
0000
0001
0000
,
0010
0000
0100
1000
0100
0000
1000
0000
,
0001
0000
0010
0001
0100
0000
0001
0000
,
1000
0000
0000
0000
;

//---------------dance-single - ----------------
#NOTES:
     dance-single:
     :
     Hard:
     13:
     0.609963,0.671827,0.384479,0.172004,0.000000,422.000000,384.000000,38.000000,17.000000,0.000000,0.000000,0.609963,0.671827,0.384479,0.172004,0.000000,422.000000,384.000000,38.000000,17.000000,0.000000,0.000000:
0000
0000
0000
0000
,
0000
0000
0000
0000
,
0000
0000
0000
0000
,
0000
0000
0000
0000
,
0000
0000
0000
0000
,
0000
0000
0000
1001
,
1000
0001
0100
0000
0110
0000
0100
0001
,
0100
0000
1001
0000
0001
0100
0001
0000
,
1010
0000
0100
0010
0001
0000
0011
0000
,
1000
0010
1000
0000
0002
0000
0103
0010
,
0100
0000
0001
0000
1000
0100
0010
0000
,
0010
0001
1000
0001
0100
0001
0100
0000
,
0000
0000
0010
0100
0002
0000
0003
0000
,
1000
0000
0200
0000
0300
0010
0000
0010
,
0001
0000
0000
0000
1000
0100
0010
0000
,
0010
0001
0000
1000
0001
1000
0010
0000
,
0100
0000
0010
0000
0000
0100
0000
0000
,
0101
0000
0001
0100
0001
0000
2000
0000
,
3000
0000
0010
0100
0002
0000
0003
0000
,
1000
0000
0020
0000
0030
0100
0000
0010
,
0100
0000
0000
0000
0001
0100
0010
0000
,
1000
0001
0000
1000
0001
0000
0100
0010
,
0000
0010
1000
0000
0001
0100
0000
0100
,
0010
0000
1000
0000
1001
0000
0001
0100
,
0001
0000
1000
0000
0010
0100
0000
0001
,
1000
0000
0001
0100
0010
0100
0010
0000
,
1000
0100
1000
0000
0100
1000
0010
1000
,
0001
0100
0010
2000
,
0001
0000
3001
0000
0100
0001
0000
0100
,
0010
1000
0001
1001
,
0100
0010
0000
1000
0010
0010
1000
0000
,
0000
0000
0101
0000
0001
0010
0001
0000
,
1000
0100
0010
0000
0010
0001
0000
0001
,
1000
0100
0010
0000
0100
0010
0001
0000
,
1000
0000
1000
0010
0100
0001
0000
0001
,
0100
0010
1000
0000
0010
0100
0100
0000
,
0001
0101
0000
0100
0110
0000
1000
0000
,
0001
0100
0001
0000
1000
0000
0010
0100
,
0010
1000
0010
0001
0010
1000
0002
0000
,
0000
0003
0100
0000
0010
0000
1001
0000
,
0000
0100
0000
0110
0000
0011
0000
0001
,
0000
1000
0000
0001
0000
0100
0000
0100
,
0001
0100
0010
1000
0000
1001
0000
0011
,
0000
0011
0000
1000
0000
0100
0000
1100
,
0000
0110
0000
1001
0000
0011
0000
0001
,
0000
1000
0000
0001
0000
0100
0000
0010
,
0100
0010
0000
0100
0010
1000
0000
1001
,
0000
0001
0000
1000
0000
1100
0000
0110
,
0000
0011
0000
1001
0000
0110
0000
1010
,
0000
1010
0000
0001
0000
0001
0000
1000
,
0000
0001
0000
0100
0010
0100
0000
0010
,
0000
1000
0000
0001
0100
0002
0000
0000
,
0000
0000
0003
1000
0010
1000
0000
0000
,
0101
0001
1000
0110
,
0001
0000
1000
0100
0010
0100
0000
0010
,
0001
0010
0000
0001
1000
0001
0100
0000
,
0010
0100
0000
0001
1000
0002
0000
1003
,
1000
0010
0100
0001
,
1000
0100
1000
0100
0010
0001
0000
1000
,
0000
0001
0000
0100
0010
0000
0100
0000
,
0001
1000
0001
0100
0001
0200
0000
0000
,
0300
0010
1000
0001
,
1000
0000
1000
0001
0010
0100
0000
0100
,
0010
0100
1000
0000
0001
0000
0100
0010
,
0100
0010
0000
0110
0000
0220
0000
0000
,
0000
0000
0330
0001
1000
0002
0000
0000
,
0000
0000
0003
1000
0001
1000
0000
0001
,
0000
0100
0000
0010
0000
0000
1000
0100
,
1000
0000
1000
0000
0011
0000
0001
0010
,
0001
0000
0100
0000
0010
0100
0001
0000
,
1010
0000
0100
0001
0100
0000
0001
0000
,
0001
1000
0010
0000
1010
0000
0010
0100
,
0010
0000
0100
0010
0100
0001
0001
1000
,
0001
1000
0001
0200
,
0001
0310
1000
0100
,
0010
0002
0100
1003
,
0101
0000
0000
0100
0001
0000
1000
0000
,
0100
0010
0001
0000
1010
0000
0001
0010
,
0100
0000
1000
0100
0010
0100
1000
0100
,
0010
0100
0010
0001
1000
0000
0002
0000
,
0103
0000
0100
0010
1000
0010
0100
0000
,
0001
0000
0100
0001
0100
0001
0100
0000
,
0010
0000
1000
0001
1000
0010
1000
0000
,
0001
0000
0000
0000
;

//---------------dance-single - ----------------
#NOTES:
     dance-single:
     :
     Challenge:
     17:
     0.900491,1.049729,0.465422,0.161886,0.399656,623.000000,577.000000,46.000000,16.000000,0.000000,0.000000,0.900491,1.049729,0.465422,0.161886,0.399656,623.000000,577.000000,46.000000,16.000000,0.000000,0.000000:
// measure 0
0000
0000
0000
0000
,  // measure 1
0000
0000
0000
0000
,  // measure 2
0000
0000
0000
0000
,  // measure 3
0000
0000
0000
0000
,  // measure 4
0000
0000
0000
0000
,  // measure 5
0000
0000
0000
0000
0000
0000
0110
1000
,  // measure 6
0010
0100
0010
0000
0101
0000
0001
0010
,  // measure 7
0100
0000
1100
0100
0010
0001
1000
0001
,  // measure 8
0101
0000
0010
1000
0001
0000
0110
0010
,  // measure 9
1000
0001
0010
0010
0100
0000
0100
1000
,  // measure 10
0010
0000
0100
0000
0010
0100
0001
0010
,  // measure 11
0100
0010
0001
1001
1001
0000
0100
0000
,  // measure 12
0010
0100
0000
0010
1000
0000
0000
0000
,  // measure 13
0001
0000
0200
0000
0300
0010
0000
0100
,  // measure 14
0001
0000
0000
0000
1000
0001
1000
0000
,  // measure 15
0100
0010
0000
0100
0010
0001
1000
0000
,  // measure 16
0001
0000
0100
0000
0000
0010
0000
0000
,  // measure 17
2000
0000
3001
0100
0010
0000
1002
0000
,  // measure 18
0000
0103
0020
0030
,  // measure 19
1000
0000
0200
0000
0300
0010
0000
0010
,  // measure 20
0001
0000
0000
0000
0001
0010
0100
0000
,  // measure 21
0100
2000
3000
0100
0020
0030
0001
0200
,  // measure 22
0300
0010
0110
1001
0000
0101
0000
0010
,  // measure 23
0100
0000
0010
1000
0010
0000
0100
0000
0001
0000
0000
0000
1000
0000
0100
0000
,  // measure 24
1000
0100
0010
0001
0100
0110
0010
1000
,  // measure 25
0010
0100
0000
0100
0001
1000
0001
0000
,  // measure 26
0100
0001
1000
0110
0010
1000
1000
0001
,  // measure 27
0001
0000
1001
0000
0000
0000
0100
0000
0010
0000
1000
0100
0010
0000
0000
0000
,  // measure 28
0001
1000
0010
0101
0001
0100
0010
1000
,  // measure 29
0001
0000
1010
0000
0000
0000
0010
0000
0100
0000
0001
0100
0001
0000
0000
0000
,  // measure 30
1000
0000
0010
0000
0100
0010
0100
0000
0001
0000
1000
0000
0000
0000
0001
0100
,  // measure 31
0001
0000
1000
0000
0010
0100
0010
0000
0100
0000
0001
0000
1001
0000
0000
0000
,  // measure 32
0100
0010
1000
0000
0001
0010
0100
0010
,  // measure 33
0001
0000
0001
0000
0000
0000
1000
0000
0001
0000
1000
0100
1000
0000
0010
0000
,  // measure 34
0100
0001
1000
0010
0100
0110
0000
0000
,  // measure 35
1000
0100
0010
0001
0010
0000
0022
0000
,  // measure 36
0033
0000
1100
0000
0000
0000
0100
0000
0010
0000
0001
0010
0001
0000
1000
0000
,  // measure 37
0001
0010
0001
0000
1000
0000
0001
0000
1000
0000
0000
0000
0100
1000
0100
0000
,  // measure 38
1000
0100
1000
0000
0001
0010
0001
0010
0001
0000
1000
0000
0100
0010
0001
1000
,  // measure 39
0001
0000
0100
0010
0100
0000
0000
0000
0001
0000
0000
0000
1100
0000
0100
0000
,  // measure 40
0010
0000
0011
0000
0000
0000
0001
0000
1000
0000
0001
0010
0100
0000
1000
0000
,  // measure 41
0010
0000
0100
0000
0001
0000
1000
0000
0001
0000
0100
0010
0100
0000
0001
0010
,  // measure 42
0001
0000
1000
0100
1000
0000
0001
0000
0010
0000
0010
0000
0000
0000
0001
0010
,  // measure 43
0001
0010
0100
1000
0100
0000
0000
0000
1000
0000
0000
0000
0010
0000
0110
0000
,  // measure 44
0001
0000
1000
0001
1000
0000
0001
0100
0001
0000
1000
0010
1000
0000
0100
0010
,  // measure 45
0100
0000
1000
0001
1000
0000
0100
0010
0100
0000
1000
0100
0010
0000
0001
0100
,  // measure 46
0010
1000
0001
1000
0001
0101
0000
0110
,  // measure 47
0010
0100
0010
0000
1000
0000
0001
0000
0100
0001
1000
0000
0001
0000
0110
0000
,  // measure 48
0000
0000
0010
1000
0010
0000
0100
0001
0100
0000
0010
1000
0010
0000
0010
1000
,  // measure 49
0010
0000
0100
0001
1000
0000
0100
0000
0000
0000
1001
0000
0001
0000
1000
0100
,  // measure 50
0010
0000
0001
0000
1000
0000
0001
0010
0100
0000
1000
0000
0100
0000
1000
0100
,  // measure 51
0010
0000
0001
0000
0010
0000
0001
0010
0100
0000
0000
0000
1000
0010
0100
0010
,  // measure 52
1000
0001
0100
0001
0010
0100
0010
0100
1000
0000
0002
0000
0000
0000
0003
0000
,  // measure 53
0101
0000
0000
0000
0100
0010
0100
0000
0010
0000
0000
0000
1000
0000
0000
0000
,  // measure 54
0001
0100
0010
1000
0001
0110
0000
0001
,  // measure 55
0100
0010
0010
0100
0001
0000
1000
0000
,  // measure 56
1000
0010
0010
0100
0001
0101
0000
0001
,  // measure 57
0100
0000
0000
0000
0010
1000
0100
1000
0010
0000
0000
0000
0100
0000
0000
0000
,  // measure 58
0001
0000
1000
0100
0010
0000
0001
0000
0010
0000
0110
0000
0000
0000
1000
0000
,  // measure 59
0100
0000
0010
0000
0100
0000
1000
0100
0010
0000
0000
0000
0001
0000
0000
0000
,  // measure 60
0100
0000
0010
0000
0010
0000
1000
0000
0001
0000
0201
0000
0000
0000
0301
0100
,  // measure 61
0001
0000
0100
0000
0010
0000
0100
0001
0100
0000
0001
0000
1001
0000
0000
0000
,  // measure 62
1000
0000
0010
0100
0001
0000
1000
0000
0100
0000
0011
0000
0000
0000
0001
0000
,  // measure 63
0010
0000
0001
0000
0010
0000
0100
0000
0010
0000
0000
0000
0001
0100
0001
0000
,  // measure 64
0100
0101
0000
1010
0000
0202
0000
0303
,  // measure 65
1000
0000
0000
0000
0010
0000
0100
0010
1000
0000
0000
0000
0001
0100
0010
1000
,  // measure 66
0001
0100
0010
1000
0001
0100
0010
0100
0001
1000
0010
1000
0010
0000
0000
0000
,  // measure 67
0000
0100
0000
0010
0000
0000
0110
0110
,  // measure 68
0100
0010
1000
0010
0200
0000
0301
0010
,  // measure 69
0001
0000
0000
0000
1100
0000
1100
0000
0100
0000
0010
0000
0001
0000
0010
0100
,  // measure 70
0010
0000
1000
0010
0101
0000
0200
0000
,  // measure 71
0301
0000
1000
0001
1000
0000
0001
0000
0100
0000
0010
0100
0010
0000
1000
0000
,  // measure 72
0001
0000
0010
0100
1000
0000
0000
0000
0001
0000
0100
0000
0010
0000
1000
0000
,  // measure 73
0001
0100
0001
0100
0001
0000
1000
0010
1000
0000
0001
0000
0100
0000
0110
0000
,  // measure 74
0000
0000
0010
0000
1000
0000
0001
0100
0001
0000
0000
0000
1000
0000
0010
0000
,  // measure 75
0100
0000
0101
0010
0100
1000
0010
0001
,  // measure 76
0101
0000
1000
0010
1010
0000
0100
0001
,  // measure 77
1000
0000
0001
0010
0001
0000
1000
0000
0001
0000
0010
0001
0010
0000
0100
0000
,  // measure 78
0001
0000
0000
0000
0100
0000
1000
0000
0010
0100
0001
0000
1000
0000
0010
0000
,  // measure 79
0100
0001
1000
0000
0010
0000
0100
0000
0010
1000
0001
0000
0100
0000
0001
0000
,  // measure 80
0100
1000
0100
0100
0001
0010
0001
0010
,  // measure 81
0100
1000
0100
0010
0100
1000
0100
0010
,  // measure 82
0001
1000
0001
1000
0100
0010
0001
1000
,  // measure 83
0100
0000
0000
0000
;
