#VERSION:0.83;
#TITLE:EGOIST;
#SUBTITLE:;
#ARTIST:GUzzle;
#TITLETRANSLIT:;
#SUBTITLETRANSLIT:;
#ARTISTTRANSLIT:;
#GENRE:Hiphop;
#ORIGIN:;
#CREDIT:from pop n music 12 / 10 CS;
#BANNER:CS10_J-HIPHOP.png;
#BACKGROUND:;
#PREVIEWVID:;
#JACKET:;
#CDIMAGE:;
#DISCIMAGE:;
#LYRICSPATH:;
#CDTITLE:;
#MUSIC:GUzzle - EGOIST.mp3;
#OFFSET:-0.507000;
#SAMPLESTART:5.897000;
#SAMPLELENGTH:16.000000;
#SELECTABLE:YES;
#BPMS:0.000=100.000;
#STOPS:;
#DELAYS:;
#WARPS:;
#TIMESIGNATURES:0.000=4=4;
#TICKCOUNTS:0.000=4;
#COMBOS:0.000=1;
#SPEEDS:0.000=1.000=0.000=0;
#SCROLLS:0.000=1.000;
#FAKES:;
#LABELS:0.000=Song Start;
#BGCHANGES:;
#KEYSOUNDS:;
#ATTACKS:
;

//---------------dance-single - ----------------
#NOTEDATA:;
#CHARTNAME:;
#STEPSTYPE:dance-single;
#DESCRIPTION:;
#CHARTSTYLE:;
#DIFFICULTY:Beginner;
#METER:2;
#RADARVALUES:0.099219,0.139135,0.045693,0.054832,0.000000,76.000000,71.000000,5.000000,6.000000,0.000000,0.000000,0.000000,0.000000,0.000000,0.099219,0.139135,0.045693,0.054832,0.000000,76.000000,71.000000,5.000000,6.000000,0.000000,0.000000,0.000000,0.000000,0.000000;
#CREDIT:;
#NOTES:
0000
0000
0000
0000
,
0000
0000
0000
0000
,
0000
0001
0000
1000
,
0000
0001
0000
1000
,
0000
0010
0000
0100
,
0000
0010
0000
0100
,
0000
0001
0000
1000
,
0000
0001
0000
1000
,
0000
0001
0000
0100
,
0000
0001
0000
0001
,
0000
1000
0000
0001
,
0000
2000
3000
0001
,
0000
0002
0003
1000
,
0000
0010
0000
0100
,
0000
0001
0000
0001
,
0000
1000
0000
0001
,
0000
0100
0000
0010
,
0000
0010
0000
0000
,
0000
0101
0000
0000
,
0000
0001
0000
1000
,
0000
0001
0000
0000
,
0000
1000
0000
1000
,
0000
0001
0000
0000
,
0000
1001
0000
0000
,
0000
1100
0000
0000
,
0000
0011
0000
0011
,
0000
0001
0000
0000
,
0000
1000
0000
0001
,
0000
1000
0000
0001
,
0000
0100
0000
0001
,
0000
0100
0000
0010
,
0000
0100
0000
0001
,
0000
0100
0000
0001
,
0000
1000
0000
1000
,
0000
0001
0000
0000
,
0000
0200
0300
0000
,
0000
0002
0003
0000
,
0000
2000
3000
0000
,
0000
0001
0000
0000
,
1000
1000
0000
0000
,
0001
0001
0000
0000
,
0100
0100
0000
0000
,
0000
0002
0003
0000
,
1000
0000
0001
0000
;

//---------------dance-single - ----------------
#NOTEDATA:;
#CHARTNAME:;
#STEPSTYPE:dance-single;
#DESCRIPTION:;
#CHARTSTYLE:;
#DIFFICULTY:Easy;
#METER:4;
#RADARVALUES:0.164495,0.217384,0.137079,0.127940,0.000000,126.000000,111.000000,15.000000,14.000000,0.000000,0.000000,0.000000,0.000000,0.000000,0.164495,0.217384,0.137079,0.127940,0.000000,126.000000,111.000000,15.000000,14.000000,0.000000,0.000000,0.000000,0.000000,0.000000;
#CREDIT:;
#NOTES:
0000
0000
0000
0000
,
0000
0002
1003
0000
,
0000
1001
1000
0010
,
0100
0001
1000
0100
,
0010
0001
1000
0001
,
1000
0001
0000
0110
,
0000
1001
1000
0001
,
0000
1000
0001
0100
,
0001
0100
0001
0001
,
0001
1000
0000
1100
,
1100
1100
0000
1000
,
0000
0001
0100
0001
,
0000
1000
0001
1000
,
0000
0001
0100
0010
,
0000
0010
0100
0001
,
0000
1000
0100
0010
,
0000
0011
0000
0001
,
0000
0011
0000
0001
,
0000
1000
0000
0001
,
0000
1000
0000
0001
,
0000
1000
0000
0001
,
0000
1000
0100
0010
,
0000
0010
0000
0001
,
1000
0001
0000
0001
,
1000
0100
0000
0001
,
1000
0001
0000
1000
,
0100
1000
0000
1000
,
0000
1001
0000
0002
,
0003
2000
3000
0002
,
0003
0101
0001
0001
,
0000
1001
1000
0001
,
0000
2000
3000
0200
,
0300
2000
3000
0200
,
0300
1100
0100
0100
,
0000
0010
0000
0001
,
0000
2000
3000
0000
,
0000
0002
0003
0000
,
1000
2000
3000
0020
,
0000
0130
0000
0100
,
0010
0200
0300
0001
,
0001
0002
0003
0100
,
0010
0100
0000
0000
,
0000
1001
0000
1100
,
0000
0011
0000
0000
;

//---------------dance-single - ----------------
#NOTEDATA:;
#CHARTNAME:;
#STEPSTYPE:dance-single;
#DESCRIPTION:;
#CHARTSTYLE:;
#DIFFICULTY:Medium;
#METER:7;
#RADARVALUES:0.304185,0.296433,0.182772,0.274158,0.000000,233.000000,213.000000,20.000000,30.000000,0.000000,0.000000,0.000000,0.000000,0.000000,0.304185,0.296433,0.182772,0.274158,0.000000,233.000000,213.000000,20.000000,30.000000,0.000000,0.000000,0.000000,0.000000,0.000000;
#CREDIT:;
#NOTES:
// measure 0
0000
0000
0000
0000
,  // measure 1
0000
0000
0002
0000
1003
0000
0000
1000
,  // measure 2
0002
0000
1003
0100
1000
0000
0010
0100
,  // measure 3
0010
0000
0101
0000
1000
0100
0010
0000
,  // measure 4
0010
0001
0001
0000
2000
3000
0002
0003
,  // measure 5
0200
0300
0020
0030
0100
0000
0100
0010
,  // measure 6
0100
0000
1001
0000
0001
0010
0001
0000
,  // measure 7
0010
0100
1000
0000
0001
0000
0100
0010
,  // measure 8
0100
0000
0002
0003
0220
0330
2000
3000
,  // measure 9
0200
0300
0011
0000
0011
0000
1000
0100
,  // measure 10
1000
0000
0001
0000
1000
0000
0001
0100
,  // measure 11
0001
0100
0001
0000
0100
0010
0010
0000
,  // measure 12
0110
0000
1100
0000
0001
0000
1000
0100
,  // measure 13
0010
0001
1000
0000
0100
0010
0100
0000
,  // measure 14
0001
0000
1001
0000
0100
0001
0010
0100
,  // measure 15
1000
0000
1000
0000
1000
0100
0010
0010
,  // measure 16
0001
0000
1000
0001
1000
0000
0001
0100
,  // measure 17
0001
0000
0200
0300
0010
0000
0100
0010
,  // measure 18
0100
0010
0200
0300
0001
0000
0010
0100
,  // measure 19
0001
0000
1000
0000
0010
0000
1000
0010
,  // measure 20
0100
0000
1000
0000
0100
0000
0010
1000
,  // measure 21
0010
0000
0001
0000
0110
0000
0010
0100
,  // measure 22
0010
0000
0200
0300
0001
0000
1000
0001
,  // measure 23
1000
0001
0001
0000
1000
0100
0010
0100
,  // measure 24
1000
0000
0020
0030
0100
0000
0001
1000
,  // measure 25
0001
0100
0001
0000
0101
0000
1010
0000
,  // measure 26
0101
0000
2000
0000
3001
0000
0100
0001
,  // measure 27
0100
0000
0002
0003
0100
0001
0100
0000
,  // measure 28
0010
0100
0001
0000
2000
3000
0002
0003
,  // measure 29
2000
3000
1001
0000
0101
0000
0001
1000
,  // measure 30
0001
0000
1001
0000
1000
0001
0100
0000
,  // measure 31
0010
0100
0010
0000
1000
0100
0010
0010
,  // measure 32
0001
0000
2000
3000
0002
0003
0020
0030
,  // measure 33
0200
0300
1100
0000
0110
0000
1100
0000
,  // measure 34
0001
0100
0002
0003
0000
0100
0001
0100
,  // measure 35
0000
0010
1000
0010
0000
0100
0001
0100
,  // measure 36
0000
0002
1003
0100
,  // measure 37
0010
0001
0012
0203
,  // measure 38
0000
0000
0301
0000
1000
0000
0100
0010
,  // measure 39
0100
0020
0030
0001
,  // measure 40
1000
1000
1000
0000
0001
0000
0100
0010
,  // measure 41
0100
2000
3000
0000
,  // measure 42
0000
0000
1001
0000
0001
1000
0001
0000
,  // measure 43
0001
1000
0010
0000
0000
0000
0000
0000
;

//---------------dance-single - ----------------
#NOTEDATA:;
#CHARTNAME:;
#STEPSTYPE:dance-single;
#DESCRIPTION:;
#CHARTSTYLE:;
#DIFFICULTY:Hard;
#METER:14;
#RADARVALUES:0.633174,0.596293,0.319851,0.292435,0.804196,485.000000,450.000000,35.000000,32.000000,0.000000,0.000000,0.000000,0.000000,0.000000,0.633174,0.596293,0.319851,0.292435,0.804196,485.000000,450.000000,35.000000,32.000000,0.000000,0.000000,0.000000,0.000000,0.000000;
#CREDIT:;
#NOTES:
0000
0000
0000
0000
,
0000
0000
0002
0000
1003
0000
0000
1000
,
0001
1000
0001
1000
0001
1000
0001
0000
0000
0100
0000
0010
1000
0000
0010
1000
0000
0001
0010
0000
0001
0010
0000
0001
,
0200
0000
0300
0001
0000
0100
0002
0000
0003
1000
0000
0000
0001
0000
1000
0100
0000
0000
0010
0000
0001
0010
0000
0001
,
0100
0000
0000
0001
0000
0000
1001
0000
0000
1000
0000
0000
1001
0000
0000
0001
0000
1000
0001
0000
1000
0000
0000
0000
,
0001
0000
0000
0000
0000
0000
0101
0000
0000
0000
0000
0000
0002
0000
0000
0000
0000
0000
1003
0000
0000
0001
0000
0000
0000
0000
0000
0000
0000
0000
0001
0000
0000
1000
0000
0000
0000
0000
0000
0000
0100
0000
0010
0000
0000
0000
0000
0000
,
0100
0000
0010
0100
0000
0000
0110
0000
0000
0001
0000
1000
0001
0000
1000
0001
0000
0100
0001
0000
1000
0001
0000
0000
,
0020
0000
0030
0100
0000
2000
0000
3000
0000
0001
0000
0000
0100
0000
0001
0100
0000
0000
0100
0000
0010
1000
0000
0100
,
0010
0000
0001
1000
0000
0000
0002
0000
0000
0103
0000
0000
0210
0000
0000
0301
0000
0000
1000
0000
0001
0000
0000
1000
,
0001
0000
0000
0000
1000
0000
0001
0000
0000
0000
0000
0000
0110
0000
0000
0000
0000
0000
0100
0000
0000
0010
0000
0000
0000
0000
0000
0100
0000
0000
0000
0000
0000
0010
0000
0000
1000
0000
0000
0001
0000
0000
0100
0000
0000
0001
0000
0000
,
1000
0000
0000
0000
0001
0000
1000
0000
0000
0000
0000
0000
0001
0000
0000
0000
0000
0000
0000
0000
0000
1100
0000
0000
0000
0000
0000
0000
0000
0000
1010
0000
0000
0000
0000
0000
0010
0000
0000
0000
0000
0000
0100
0000
0000
0000
0001
0000
,
0100
0000
0001
0100
0000
0001
1000
0000
0100
0000
0000
0010
0000
0000
0001
0000
0000
1000
0001
0000
0000
0001
0000
0000
,
1000
0000
0000
0000
0000
0000
0000
0000
0000
0000
0000
0000
0011
0000
0000
0000
0000
0000
0000
0000
0000
0011
0000
0000
0000
0000
0000
0000
0000
0000
0002
0000
0000
0000
0000
0000
1003
0000
0000
0000
0100
0000
0010
0000
0000
0000
0010
0000
,
0001
0000
0010
0001
0000
0000
1000
0000
0000
0001
0000
0000
0100
0010
0100
0010
0000
0100
0010
0000
0100
0010
0100
0010
,
0100
0000
0000
0000
0001
0000
1000
0000
0000
0000
0000
0000
1001
0000
0000
0000
0000
0000
0000
0000
0000
0101
0000
0000
0000
0000
0000
0000
0000
0000
0001
0000
0010
0000
0000
0000
0001
0000
0000
0000
1000
0000
0001
0000
0000
0000
1000
0000
,
0100
0000
0000
0000
0000
0000
0020
0000
0000
0000
0030
0000
0200
0000
0000
0000
0000
0000
0300
0000
0000
1000
0000
0000
0000
0000
0000
0000
0000
0000
0100
0000
0000
0000
0000
0000
0010
0000
0000
0100
0000
0000
0010
0000
0000
0002
0000
0000
,
0003
0000
0000
0000
0000
0001
1000
0000
0010
1000
0000
0001
1000
0000
0000
0001
0000
0000
0100
0000
0001
0100
0000
0000
,
1000
0000
0000
0100
0000
0000
0001
0000
0100
0010
0000
0100
0010
0000
0000
1000
0000
0100
0010
0000
0001
1000
0000
0010
,
0000
0000
0110
0000
0202
0000
0303
0001
0000
0000
1000
0000
0100
0000
0010
0000
,
0010
0100
0000
0000
1100
0000
0000
0110
0000
0000
0001
0000
1000
0000
0010
0000
,
0110
0000
0000
0000
0000
0000
0000
0000
0000
0000
0000
0000
0001
0000
0000
0000
0000
0000
0100
0000
0000
0000
0000
0000
0101
0000
0000
0000
0000
0000
1000
0000
0000
0010
0000
0000
0010
0000
0000
0000
0000
0000
1000
0000
0001
0000
0000
0000
,
0100
0000
0001
0100
0000
0000
0001
0000
0000
1001
0000
0000
0100
0000
0010
0000
0010
0000
0100
0010
0100
0010
0100
0000
,
0200
0000
0300
0001
0000
1000
0002
0000
0000
1003
0000
0001
0100
0000
0001
1000
0000
0000
0001
0000
0100
0001
0000
0000
,
1001
0000
0011
0000
0002
0000
2003
0000
3001
0100
0001
0000
0010
0100
0010
0000
,
1000
0000
0000
0100
0000
0000
1000
0000
0000
0000
0000
0000
0010
0000
0000
0000
0000
0000
0000
0000
0000
0000
0000
0000
0001
0000
0000
0000
0100
0000
0001
0000
0000
0000
0100
0000
0001
0000
0000
0000
1000
0000
0001
0000
0000
0000
0000
0000
,
0100
0000
0000
0010
0000
0000
0100
0000
0010
0100
0000
0001
0100
0000
0001
0100
0000
0000
1010
0000
0000
0101
0000
0000
,
0101
0000
0000
2000
0000
0000
3002
0000
0000
0000
0000
0000
0103
0000
0010
0100
0000
0001
0100
0000
0010
0100
0000
0000
,
0010
0000
0000
0100
0000
0001
1000
0000
0000
0001
0000
0000
1000
0000
0100
1000
0000
0000
0100
0000
0010
0001
0000
0100
,
0001
0000
0000
0100
0000
0000
0101
0000
0000
1000
0000
0000
1010
0000
0000
0100
0000
0001
0100
0000
0001
0000
0000
0000
,
1000
0000
0000
0000
0001
0000
0100
0000
0000
0000
0000
0000
0002
0000
0000
0000
0000
0000
0103
0000
0000
0010
0000
0000
0000
0000
0000
0000
0000
0000
0010
0000
0000
1000
0000
0000
0000
0000
0000
0000
0001
0000
0100
0000
0000
0000
0000
0000
,
0010
0000
0100
0010
0000
0000
0101
0000
0000
0001
0000
1000
0100
0000
1000
0001
0000
1000
0100
0000
1000
0001
0000
0000
,
0200
0000
0300
0010
0000
0002
0000
0003
0000
1000
0000
0000
0001
0000
1000
0100
0000
0000
0001
0000
0100
1000
0000
0100
,
0010
0000
0100
1000
0000
0000
0002
0000
0000
1003
0000
0000
1002
0000
0000
0103
0000
0000
0010
0000
0100
0000
0000
0001
,
1000
0000
0000
0000
0001
0000
0100
0000
0000
0000
0000
0000
0110
0000
0000
0000
0000
0000
0100
0000
0000
0010
0000
0000
0000
0000
0000
0010
0000
0000
0000
0000
0000
1000
0000
0000
0001
0000
0000
1000
0000
0000
0100
0000
0000
0010
0000
0000
,
0001
0000
0000
0000
1000
0000
0001
0000
0000
0000
0000
0000
2002
0000
0000
0000
0000
0000
3003
0000
0000
0000
0000
0000
0100
0000
0000
0001
0000
0000
0100
0000
0000
0001
0000
0000
0100
0000
0000
0000
0000
0000
0010
0000
0000
1000
0000
0000
,
0000
1000
0010
0100
0010
0100
0001
0000
1000
0100
0010
0001
0100
0010
0100
0000
,
0001
0000
0000
0000
0000
0000
1000
0000
0000
0001
0000
0000
2000
0000
0000
0000
0000
0000
3000
0000
0000
0000
0001
0000
1000
0000
0000
0000
1000
0000
0001
0000
0000
0000
0000
0000
0100
0000
0000
0001
0000
0000
0000
0000
0000
0010
0000
0000
,
0000
0000
0000
0000
0001
0000
1000
0000
0000
0000
0001
0000
1000
0000
0000
0001
0000
0000
0000
0000
0000
0001
0000
0000
1000
0000
0100
0000
1000
0000
0200
0000
0000
0000
0300
0000
0010
0000
0001
0000
0010
0000
0002
0000
0000
0000
0003
0000
,
1000
0000
0100
0000
1000
0000
0100
0000
0000
0000
0000
0000
1100
0000
0000
0000
0000
0000
0000
0000
0000
0100
0000
0000
0000
0000
0000
0010
0000
0000
0000
0000
0000
0001
0000
0000
0100
0000
0000
0000
0000
0000
0001
0000
0000
0001
0000
0000
,
0100
0000
0000
0000
0000
0000
0010
0000
0000
0200
0000
0000
0000
0000
0000
0000
0000
0000
0300
0000
0000
0000
0010
0000
0100
0000
0000
0000
0000
0000
0011
0000
0000
0000
0000
0000
0001
0000
1000
0000
0001
0000
1000
0000
0001
0000
1000
0000
,
0001
0000
0000
1001
0000
0000
1000
0000
0000
0000
0000
0001
0100
0000
0001
1000
0000
0001
0100
0000
0001
0000
0000
1000
,
0001
0000
1000
0000
0000
0001
0000
0010
0000
0001
0000
0010
0000
0001
0000
0000
0000
0000
0000
0000
0000
0000
0000
0000
,
0000
0000
0000
0000
0000
0000
0101
0000
0000
0000
0000
0000
0011
0000
0001
0010
0000
0001
0010
0000
0000
0001
0000
1000
,
0100
0000
0000
1000
0000
0010
0200
0000
0000
0000
0000
0000
0300
0000
0000
0000
0000
0000
0000
0000
0000
0000
0000
0000
;
