#VERSION:0.83;
#TITLE:Disappear;
#SUBTITLE:;
#ARTIST:Jackie Boyz;
#TITLETRANSLIT:;
#SUBTITLETRANSLIT:;
#ARTISTTRANSLIT:;
#GENRE:;
#ORIGIN:;
#CREDIT:;
#BANNER:;
#BACKGROUND:;
#PREVIEWVID:;
#JACKET:;
#CDIMAGE:;
#DISCIMAGE:;
#LYRICSPATH:;
#CDTITLE:;
#MUSIC:Jackie-Boyz-Disappear-Prod.-By-DJ-Frank-E-RnB.ogg;
#OFFSET:-0.036000;
#SAMPLESTART:51.353001;
#SAMPLELENGTH:17.200001;
#SELECTABLE:YES;
#BPMS:0.000=128.000,
82.000=128.100,
96.000=128.000,
144.000=128.200,
154.000=128.000;
#STOPS:;
#DELAYS:;
#WARPS:;
#TIMESIGNATURES:0.000=4=4;
#TICKCOUNTS:0.000=4;
#COMBOS:0.000=1;
#SPEEDS:0.000=1.000=0.000=0;
#SCROLLS:0.000=1.000;
#FAKES:;
#LABELS:0.000=Song Start;
#BGCHANGES:;
#KEYSOUNDS:;
#ATTACKS:
;

//---------------dance-single - ----------------
#NOTEDATA:;
#CHARTNAME:;
#STEPSTYPE:dance-single;
#DESCRIPTION:;
#CHARTSTYLE:;
#DIFFICULTY:Beginner;
#METER:4;
#RADARVALUES:0.144033,0.174822,0.027750,0.064749,0.000000,109.000000,106.000000,3.000000,7.000000,0.000000,0.000000,0.000000,0.000000,0.000000,0.144033,0.174822,0.027750,0.064749,0.000000,109.000000,106.000000,3.000000,7.000000,0.000000,0.000000,0.000000,0.000000,0.000000;
#CREDIT:;
#NOTES:
0000
0000
0000
0000
,
0000
0000
0000
0000
,
0100
0001
0100
0000
,
1000
0010
1000
0000
,
0100
0000
0001
0000
,
1000
0000
0010
0000
,
1000
0000
0001
0000
,
0100
0000
0010
0000
,
1000
1000
0001
0000
,
0001
0000
1000
0000
,
0001
0001
0100
0000
,
1001
0000
0000
0000
,
0001
0100
0001
0000
,
1000
0000
0001
0000
,
1000
0100
1000
0000
,
0001
0000
0001
0000
,
2000
0000
0000
0000
,
3002
0000
0000
0000
,
0203
0000
0000
0000
,
0320
0000
0000
0000
,
1030
0000
0000
0000
,
0001
0000
0000
0000
,
2000
0000
0001
0000
,
3001
0000
0000
0000
,
0001
0000
0100
0000
,
0001
0000
1000
0000
,
0002
0000
1000
0000
,
0203
0000
0010
0000
,
0310
0000
0100
0000
,
0001
0000
1000
0000
,
0001
0000
0100
0000
,
0010
0000
0000
0000
,
0010
0000
1000
0000
,
0001
0000
1000
0000
,
0001
0100
0001
0000
,
0100
0001
0100
0000
,
0001
0001
0001
0000
,
1000
1000
1000
0000
,
1000
0000
1000
0000
,
0010
0000
0000
0000
,
0100
0000
0000
0000
,
0110
0000
0000
0000
,
0001
0000
1000
0000
,
0001
0000
0000
0000
,
1001
0000
1000
0000
,
0010
0000
0010
0000
,
1000
0000
0001
0000
,
0001
0000
0100
0000
,
0001
1000
0001
0000
,
1000
0100
1000
0000
,
0001
0100
0001
0000
,
0100
0010
0100
0000
,
0001
0000
0100
0000
,
1000
0000
0100
0000
,
0001
0000
0000
0000
;

//---------------dance-single - ----------------
#NOTEDATA:;
#CHARTNAME:;
#STEPSTYPE:dance-single;
#DESCRIPTION:;
#CHARTSTYLE:;
#DIFFICULTY:Easy;
#METER:6;
#RADARVALUES:0.255031,0.299695,0.147997,0.184997,0.000000,193.000000,177.000000,16.000000,20.000000,0.000000,0.000000,0.000000,0.000000,0.000000,0.255031,0.299695,0.147997,0.184997,0.000000,193.000000,177.000000,16.000000,20.000000,0.000000,0.000000,0.000000,0.000000,0.000000;
#CREDIT:;
#NOTES:
0000
0000
0000
0000
,
0000
0000
0000
0000
,
0200
0000
0320
0000
,
2030
0000
3002
0000
,
0103
0010
1000
1000
,
0001
0001
0010
0100
,
0000
1000
0100
0010
,
0001
0100
0100
0010
,
0000
0010
1000
1000
,
0001
0010
0100
0010
,
0000
0001
0001
1000
,
1000
0010
0010
0100
,
0110
0110
1000
0001
,
1001
0001
0001
1000
,
0010
0000
0100
0000
0001
0000
1000
0001
,
1000
0000
0001
0000
,
0200
0000
0302
0000
,
2003
0000
3002
0000
,
0103
0000
0010
0000
,
1000
0000
0001
0000
,
2000
0000
3001
0001
,
0002
0000
0103
0100
,
0020
0000
1030
0000
,
1000
0000
0001
0000
,
0100
0000
0010
0000
1000
0000
0001
0100
,
0001
1000
0001
1000
,
0020
0000
1030
0100
,
0002
0000
0103
0000
,
1001
1000
0001
0100
,
0101
0001
0010
0100
,
1100
0100
0010
0001
,
1000
0010
1000
0100
,
0010
0100
1000
0001
,
0101
0001
1000
0010
,
0100
0000
0010
0100
0010
0000
1000
0000
,
1001
0000
0001
0000
0100
0001
0100
0000
,
0001
0001
0001
0001
,
1000
1000
1000
1000
,
0010
0010
0100
0100
,
0001
1000
0001
1000
,
0002
0100
0003
1000
,
0020
0100
0030
0001
,
1001
1000
1001
0001
,
1000
0100
0020
0030
,
0011
0001
1000
0010
,
0200
0000
0310
0010
,
2000
0000
3001
0100
,
0002
0000
0103
0000
,
0110
0010
0110
1000
,
0001
0010
0100
0010
,
0001
1001
0000
1001
,
0002
0000
1003
0000
,
1100
1000
0100
0001
,
0100
1000
0010
0001
,
0010
0000
0000
0000
;

//---------------dance-single - ----------------
#NOTEDATA:;
#CHARTNAME:;
#STEPSTYPE:dance-single;
#DESCRIPTION:;
#CHARTSTYLE:;
#DIFFICULTY:Medium;
#METER:8;
#RADARVALUES:0.355458,0.373751,0.101748,0.268245,0.018500,269.000000,258.000000,11.000000,29.000000,0.000000,0.000000,0.000000,0.000000,0.000000,0.355458,0.373751,0.101748,0.268245,0.018500,269.000000,258.000000,11.000000,29.000000,0.000000,0.000000,0.000000,0.000000,0.000000;
#CREDIT:;
#NOTES:
0000
0000
0000
0000
,
0000
0000
0000
0000
,
0100
0000
0000
0001
0000
0000
0100
0000
0001
0000
0000
1000
0000
0000
0010
0000
,
1000
0000
0000
0001
0000
0000
0100
0000
0010
0000
0000
0100
0000
0000
0010
0000
,
0100
0000
0001
1000
0001
0100
0001
1000
,
0010
0100
0110
0010
,
0110
0000
1000
0100
0010
0001
1000
0100
,
1000
0001
0101
0100
,
0101
0000
0001
1000
0010
0100
0001
1000
,
0100
0100
0110
0010
,
0011
0000
0001
1000
0001
0100
0001
0010
,
0000
0100
0000
0010
0000
0100
0000
0000
,
1100
0100
0110
0001
,
0011
0000
0001
1000
0001
0000
0100
0010
,
0100
0000
0010
0000
0100
0000
0010
0100
,
0020
0000
1030
0200
0000
0300
0010
0002
,
0000
0003
1000
0002
0000
0003
0100
0200
,
0000
0300
0010
0020
0000
0030
1000
0002
,
0000
0003
0001
2000
0000
3000
0001
0200
,
0000
0300
0100
0020
0000
0130
0000
0010
,
0000
1000
0000
0001
0000
0100
0000
0020
,
0000
0000
1030
0002
0000
0000
0103
0020
,
0000
0000
0030
1000
0000
0001
0000
0001
,
0000
0100
0000
0010
0100
0001
1000
0002
,
0000
0103
0000
0010
0000
1000
0000
0002
,
0000
0003
1000
2000
0000
3000
0010
0020
,
0000
0130
0000
0001
0000
0100
0000
0010
,
0000
1000
0000
0001
0100
0001
0100
0010
,
0000
0000
0100
0001
0100
0010
1000
0002
,
0000
1003
0000
1000
0100
0010
0001
0020
,
0000
0030
0000
0001
0010
0100
1000
0020
,
0000
0130
0000
0001
0000
1000
0001
0100
,
0000
0100
0000
0001
0000
1000
0010
1000
,
0000
0001
0100
0002
0000
0003
1000
0001
,
0000
0001
0000
0010
0100
1000
0100
1000
,
0000
0001
0000
0100
0010
0100
0010
0010
,
0000
0000
0100
0000
0001
0000
1000
0002
,
0000
0000
0103
0000
0010
0000
1000
0010
,
0000
0100
0000
0001
0000
1000
0000
0001
,
0000
0100
0000
0010
0000
1000
0100
0010
,
0000
0001
0010
0000
0001
0000
1000
0100
,
0000
0010
0001
0000
0100
0000
0000
0001
,
0000
0100
0000
1000
0000
0100
0000
0001
,
0000
2000
0000
3002
0000
0103
0000
0010
,
0000
1001
0000
0100
0000
0010
0000
2010
,
0000
0000
3001
0100
0000
0100
0001
2000
,
0000
3001
0000
0100
0010
0100
0001
0100
,
0000
0001
0000
1000
0000
0001
0100
0001
,
0000
0100
1000
0100
0000
0001
0010
0100
,
0000
0010
0100
2000
0000
0000
3001
0020
,
0000
0031
0000
0100
0001
0100
0001
1000
,
0000
0001
0000
1000
0100
0010
0001
0001
,
0000
0000
1000
0010
1000
0001
1000
0020
,
0000
0000
0030
0100
0001
0100
0010
0010
;

//---------------dance-single - ----------------
#NOTEDATA:;
#CHARTNAME:;
#STEPSTYPE:dance-single;
#DESCRIPTION:;
#CHARTSTYLE:;
#DIFFICULTY:Hard;
#METER:13;
#RADARVALUES:0.533848,0.599389,0.110998,0.129498,0.305245,404.000000,392.000000,12.000000,14.000000,0.000000,0.000000,0.000000,0.000000,0.000000,0.533848,0.599389,0.110998,0.129498,0.305245,404.000000,392.000000,12.000000,14.000000,0.000000,0.000000,0.000000,0.000000,0.000000;
#CREDIT:;
#NOTES:
// measure 0
0000
0000
0000
0000
,  // measure 1
0000
0000
0000
0000
,  // measure 2
0100
0000
0000
0001
0100
0000
0001
0100
0001
0100
0001
0100
0010
0000
0000
0000
,  // measure 3
1000
0000
0000
0001
0100
0000
0010
0100
0010
0100
0010
1000
0010
0100
0010
0100
,  // measure 4
0010
1000
0001
0010
0100
0010
0001
1000
,  // measure 5
0100
0000
0010
0000
0100
0000
1000
0000
0001
0000
0000
0100
0001
0000
0100
0000
,  // measure 6
0010
1000
0100
0001
0100
1000
0001
0001
,  // measure 7
0010
0000
0100
0000
1000
0000
0010
0000
0100
0000
0000
0010
0100
0000
0001
0000
,  // measure 8
1001
1000
0100
0010
0010
0001
0100
0010
,  // measure 9
1000
0000
1000
0000
0001
0000
0000
0000
0100
0000
0000
0010
0100
0000
0001
0000
,  // measure 10
1000
0001
0001
0100
0100
0010
1000
0001
,  // measure 11
0000
0000
0000
0100
0010
0000
1000
0000
0001
0000
0100
0000
0100
0000
0010
0000
,  // measure 12
1010
0000
0010
0000
1001
0000
0001
0000
0100
0000
0000
0010
1000
0000
0001
0000
,  // measure 13
0101
0000
0000
1000
0010
0000
0100
0000
0010
0000
0000
0000
1000
0000
0100
0000
,  // measure 14
0001
0000
0001
0000
0100
1000
0100
0020
,  // measure 15
0000
0000
0030
0001
0000
0000
0001
0000
1000
0000
0000
1000
0000
0000
0100
0000
,  // measure 16
0010
0000
0000
0001
0000
0000
0100
0000
0010
0000
0000
0010
0000
0000
0100
0000
,  // measure 17
0001
0000
0000
1000
0000
0000
1000
0000
0001
0000
0000
0001
0000
0000
1000
0000
,  // measure 18
0200
0000
0000
0010
0000
0000
0010
0000
0310
0000
0000
0010
0000
0000
0001
0000
,  // measure 19
0002
0000
0000
1000
0000
0000
0100
0000
0103
0000
0000
0010
0000
0000
1000
0000
,  // measure 20
0020
0000
0000
0100
0000
0000
1000
0000
1030
0000
0000
0001
0000
0000
0100
0000
,  // measure 21
0020
0000
0000
0100
0000
0000
0100
0000
0031
0000
0000
0001
0000
0000
1000
0000
,  // measure 22
0001
0000
0100
0000
0000
0000
0100
0000
0001
0000
1000
0000
0010
0000
0100
0001
,  // measure 23
0100
0010
0000
1000
0100
0100
0010
0001
,  // measure 24
1000
0000
0000
1000
0000
0000
0001
0000
0100
0000
0000
0100
0000
0000
0010
0000
,  // measure 25
0020
0000
0000
1000
0000
0000
1000
0000
1030
0000
0000
0001
0000
0000
0100
0000
,  // measure 26
0002
0000
0000
0010
0000
0000
0100
0000
0103
0000
0000
0001
0000
0000
1000
0000
,  // measure 27
0001
0000
0000
0100
0000
0000
0010
0000
1000
0000
0001
0000
0100
0000
0010
0000
,  // measure 28
0110
0000
1000
0010
1000
0000
0001
0000
0100
0000
0010
0000
1000
0000
0001
0000
,  // measure 29
0100
0000
0001
0100
0001
0000
1000
0000
0100
0000
0010
0000
0001
0000
1000
0000
,  // measure 30
0001
0000
0100
0010
1000
0000
0001
0000
0100
0000
0010
0000
0100
0000
0010
0000
,  // measure 31
1000
0000
0001
0010
0001
0000
1000
0000
0001
0000
1000
0100
0010
0000
0001
0000
,  // measure 32
0100
0000
0010
0100
0010
0000
1000
0000
0001
0000
0100
0001
0010
0000
0001
0000
,  // measure 33
1000
0000
0100
0010
0100
0000
1000
0000
0001
0000
0010
0100
0010
0000
0001
0000
,  // measure 34
1000
0000
0100
0010
0001
0000
0100
0000
0001
0000
0010
0100
1000
0000
0001
0000
,  // measure 35
0200
0000
0000
0010
0000
0000
0010
0000
0310
0000
1000
0000
0001
0000
0100
0000
,  // measure 36
0110
0000
0000
0000
0001
0000
0010
0000
0001
0000
0000
1000
0001
0000
0100
0000
,  // measure 37
0010
0000
0000
1000
0100
0000
1000
0000
0010
0000
0000
0100
0001
0000
0100
0000
,  // measure 38
0001
0010
0000
0100
0000
1000
0000
0100
,  // measure 39
0000
0010
0000
0001
0000
1000
0001
0100
,  // measure 40
0010
0000
0000
0010
0100
0000
0001
0000
0101
0000
0000
1000
0010
0000
0100
0000
,  // measure 41
1010
0000
0000
0001
0100
0000
0010
0000
0110
0000
0000
0100
0010
0000
1000
0000
,  // measure 42
0101
0001
0000
1000
0000
0010
0000
0100
,  // measure 43
0000
0001
0000
0001
0000
1000
0000
0010
,  // measure 44
0100
0000
0001
0100
0001
0000
1000
0000
0010
0000
0100
0010
1000
0000
0001
0000
,  // measure 45
0100
0000
0010
0100
0001
0000
1000
0000
0010
0000
1000
0100
1000
0000
0001
0000
,  // measure 46
0101
0001
0000
1000
0001
0100
0001
0200
,  // measure 47
0000
0000
0310
0100
0010
0000
1000
0000
0001
0000
0100
0000
0001
0000
2000
0000
,  // measure 48
0000
0000
3010
0100
0001
0000
0200
0000
0000
0000
0310
0000
1000
0000
0200
0000
,  // measure 49
0000
0310
0001
0020
0000
0031
1000
0002
,  // measure 50
0000
0000
0103
0010
0100
0000
0001
0000
1000
0000
0010
0000
0100
0000
0001
0000
,  // measure 51
0000
1000
0000
0001
0010
0100
1000
0001
,  // measure 52
0101
0000
0100
0001
0100
0000
0010
0000
1000
0000
0001
0000
0100
0000
0010
0000
,  // measure 53
0100
0000
0001
0100
0010
0000
1000
0000
0100
0000
0010
0000
0001
0000
0100
0000
,  // measure 54
0010
0000
0000
0000
;
