#TITLE:Denki Dance;
#SUBTITLE:;
#ARTIST:Freddie Hatae;
#TITLETRANSLIT:;
#SUBTITLETRANSLIT:;
#ARTISTTRANSLIT:;
#GENRE:;
#CREDIT:;
#BANNER:Denki Dance.png;
#BACKGROUND:;
#LYRICSPATH:;
#CDTITLE:;
#MUSIC:Freddie Hatae - Denki Dance.ogg;
#OFFSET:-0.157000;
#SAMPLESTART:32.340000;
#SAMPLELENGTH:19.000000;
#SELECTABLE:YES;
#BPMS:0.000000=151.000000
;
#STOPS:
;
#BGCHANGES:;
#KEYSOUNDS:;
#ATTACKS:;

//---------------dance-single - ----------------
#NOTES:
     dance-single:
     :
     Beginner:
     1:
     0.080626,0.116845,0.052911,0.000000,0.000000,64.000000,58.000000,6.000000,0.000000,0.000000,0.000000,0.080626,0.116845,0.052911,0.000000,0.000000,64.000000,58.000000,6.000000,0.000000,0.000000,0.000000:
0000
0000
0000
0000
,
0000
0000
0000
0000
,
0000
0000
0000
0000
,
0000
0000
0000
0000
,
0000
0100
0000
0000
,
0000
0010
0000
0000
,
0000
1000
0000
0000
,
0000
0001
0000
0000
,
0000
0010
0000
0000
,
0000
0110
0000
0000
,
0000
0100
0000
0000
,
0000
0100
0000
0000
,
0000
0110
0000
0000
,
0000
0010
0000
0000
,
0000
1000
0000
0000
,
0000
0001
0000
0000
,
0000
1000
0000
0000
,
0000
0100
0000
0000
,
0000
0010
0000
0000
,
0000
1000
0000
0000
,
0000
0001
0000
0000
,
0000
1001
0000
0000
,
0000
0100
0000
0000
,
0000
0100
0000
0000
,
0000
0000
0000
0000
,
0000
0010
0000
0000
,
0000
0010
0000
0000
,
0000
0010
0000
0000
,
0000
1000
0000
0000
,
0000
1001
0000
0000
,
0000
0001
0000
0000
,
0000
1000
0000
0000
,
0000
0010
0000
0000
,
0000
0100
0000
0000
,
0000
0000
0000
0000
,
0000
0010
0000
0000
,
0000
0010
0000
0000
,
0000
0100
0000
0000
,
0000
0100
0000
0000
,
0000
0001
0000
0000
,
0000
1000
0000
0000
,
0000
0001
0000
0000
,
0000
0010
0000
0000
,
0000
0110
0000
0000
,
0000
0000
0000
0000
,
0000
0100
0000
0000
,
0000
0010
0000
0000
,
0000
0100
0000
0000
,
0000
0000
0000
0000
,
0000
0010
0000
0000
,
0000
1000
0000
0000
,
0000
1000
0000
0000
,
0000
0010
0000
0000
,
0000
0100
0000
0000
,
0000
0010
0000
0000
,
0000
0000
0000
0000
,
0000
0110
0000
0000
,
0000
0100
0000
0000
,
0000
0010
0000
0000
,
0000
1000
0000
0000
,
0000
0001
0000
0000
,
0000
0001
0000
0000
,
0000
1000
0000
0000
,
0000
0010
0000
0000
,
0000
0100
0000
0000
,
0000
0100
0000
0000
,
0000
0010
0000
0000
;

//---------------dance-single - ----------------
#NOTES:
     dance-single:
     :
     Easy:
     5:
     0.226761,0.265878,0.052911,0.061729,0.000000,180.000000,174.000000,6.000000,7.000000,0.000000,0.000000,0.226761,0.265878,0.052911,0.061729,0.000000,180.000000,174.000000,6.000000,7.000000,0.000000,0.000000:
0000
0000
0000
0000
,
0000
0000
0000
0000
,
0000
0100
0100
0010
,
0010
1000
1000
0002
,
0000
1003
1000
0100
,
0010
0001
0000
1000
,
0000
0001
0010
0100
,
1000
0010
0000
0100
,
0000
0001
1000
0100
,
0001
0100
0000
1000
,
0000
0002
0000
0000
,
0003
2000
0000
0000
,
3000
0001
1000
0001
,
0100
0010
0100
0001
,
0001
1000
0100
1000
,
0010
0200
0000
0300
,
0000
0101
0000
0010
,
1000
0100
0000
1000
,
0010
0100
0000
0001
,
0001
0001
0000
1000
,
0000
0001
1000
0001
,
0000
1001
0000
0010
,
0100
0001
1000
0001
,
0100
0001
0000
1010
,
0000
0100
0001
0100
,
0001
0100
0000
0001
,
0000
1000
0000
0001
,
0000
0100
0000
0010
,
0000
0100
0010
0100
,
0010
0100
0000
0010
,
0000
1000
0000
0001
,
0000
1000
1000
1000
,
0000
0001
0010
0100
,
1000
0002
0000
1000
,
0003
1000
0000
0002
,
0000
1003
0000
0110
,
0000
0001
0001
1000
,
0000
1000
0100
0010
,
0000
0100
0000
0100
,
0000
1000
0100
0010
,
0000
0100
0000
0100
,
0000
1000
0010
0001
,
0000
0010
0000
0010
,
0000
1000
0000
0100
,
0000
0001
0000
1000
,
0000
0001
0000
0100
,
0100
0100
0000
0100
,
0100
0100
0000
0001
,
0001
1000
0000
1000
,
1000
0001
0000
1000
,
0000
0001
0010
0100
,
1000
0100
0010
0001
,
0000
1001
0000
1000
,
0000
0001
1000
0001
,
1000
0001
0000
1000
,
0010
1000
0010
1000
,
0000
1001
0000
0001
,
0000
0100
0000
0001
,
0010
0100
0000
1000
,
0000
0001
1000
0001
,
1000
0001
0000
1000
,
0000
0010
0000
0010
,
0000
0100
0000
0001
,
0000
1000
0001
1000
,
0000
0001
1000
0001
,
0000
1000
0000
0000
,
0000
0002
0000
0000
0000
0000
0000
0000
,
0003
0000
0000
0000
;

//---------------dance-single - ----------------
#NOTES:
     dance-single:
     :
     Medium:
     6:
     0.319985,0.382613,0.132277,0.070548,0.000000,254.000000,239.000000,15.000000,8.000000,0.000000,0.000000,0.319985,0.382613,0.132277,0.070548,0.000000,254.000000,239.000000,15.000000,8.000000,0.000000,0.000000:
0000
0000
0000
0000
,
0000
0000
0000
0000
,
0000
0100
0010
0100
,
0010
1000
0001
1000
,
0001
0000
1001
0000
1000
0100
0000
0100
,
0000
1000
0000
0001
0100
0000
0001
0000
,
1000
0000
0001
0000
0001
1000
0000
1000
,
0000
0010
0000
0100
0010
0000
0100
0000
,
0001
1001
1000
0001
,
0100
0010
0100
0000
0001
0000
1000
0000
,
0001
0100
0002
0000
0000
0000
2003
0000
,
0000
3010
0010
0010
,
0100
0110
0000
0100
,
0000
0010
0010
0100
,
0100
0001
0100
0000
0000
0000
0001
0000
,
0001
1000
1000
0001
,
1000
0001
1000
0000
0000
0000
0010
0000
,
0100
0010
0000
0100
,
0010
0100
0000
0010
,
0100
0020
0000
0030
,
0000
0200
0000
0320
,
0000
0000
0030
0000
0100
0000
0001
0100
,
0000
0000
0001
0100
0000
0001
0000
0100
,
0000
0001
0100
0000
0001
0000
0100
0000
,
1000
0100
0001
0010
,
0100
0000
1000
0000
0001
0000
0001
1000
,
0000
0000
0001
0100
0000
0001
0000
1000
,
0000
0010
1000
0000
0100
0000
0010
0000
,
0100
1000
0001
1001
,
1001
1001
1000
0100
,
0010
0000
0001
0000
1000
0001
1000
0000
,
0001
1000
0100
0010
,
0001
0000
1000
0001
1000
0000
0001
0000
,
1000
0000
0010
0100
0010
0000
0000
0000
,
0000
0000
0100
0010
0100
0000
0000
0000
,
0001
1000
0010
0010
,
0100
0100
0001
0001
,
0000
1000
1000
0010
,
0010
0100
0100
0001
,
0000
1000
0010
0010
,
1000
0001
0001
0100
,
0001
0010
0000
2002
,
3003
1001
0000
0010
,
0100
0110
0000
0010
,
1000
0010
0100
0001
,
1000
0001
1000
0000
0001
0000
1000
0000
,
0001
1000
0000
0001
,
0010
0001
1000
0100
,
1000
0001
0010
0001
,
1000
0100
1100
0000
,
1100
0000
0001
0000
,
0100
0010
0010
0100
,
0100
0101
0000
0010
,
1000
0010
0100
0001
,
0000
1000
0001
1000
,
0001
0010
0001
1000
,
0100
1100
0000
0010
,
0001
0100
0010
0001
,
0010
0100
0001
1001
,
1000
0001
0100
0010
,
0100
0110
0000
0001
,
0000
1000
0001
1000
,
0001
1000
0000
0100
,
0010
0001
1000
0100
,
0010
0000
0001
0000
1000
0000
0001
1000
,
0001
0000
0100
0000
0010
0000
0100
0010
,
0100
0020
0000
0000
0000
0000
0030
0000
;

//---------------dance-single - from pop n music 14----------------
#NOTES:
     dance-single:
     :
     Hard:
     9:
     0.422028,0.412044,0.141096,0.132277,0.000000,335.000000,319.000000,16.000000,15.000000,0.000000,0.000000,0.422028,0.412044,0.141096,0.132277,0.000000,335.000000,319.000000,16.000000,15.000000,0.000000,0.000000:
// measure 0
0000
0000
0000
0000
,  // measure 1
0000
0000
0000
0000
,  // measure 2
0000
0000
0100
0000
0010
0100
0000
0000
,  // measure 3
0010
0100
0000
0000
0010
0000
0100
0000
,  // measure 4
0020
0000
0130
0000
0001
1000
0001
1000
,  // measure 5
0000
0002
0000
0000
0000
1000
1003
0100
,  // measure 6
0000
0000
0011
0000
0001
1000
0001
1000
,  // measure 7
0000
0200
0000
0000
0000
1000
1300
0100
,  // measure 8
0000
0000
0110
0000
0001
0100
0001
0010
,  // measure 9
0000
0001
1000
0000
0000
0001
1000
0100
,  // measure 10
0000
0100
1000
0000
0001
0000
0101
0000
,  // measure 11
0010
0110
0000
0200
,  // measure 12
0300
0000
0110
0000
0001
1000
0001
1000
,  // measure 13
0000
0010
0000
0100
0000
0000
0010
0000
,  // measure 14
0100
0010
0100
0000
0001
1000
0010
1000
,  // measure 15
0001
1000
0000
0002
0000
0000
1003
0000
,  // measure 16
1100
0000
0011
0000
0001
1000
0000
0010
,  // measure 17
1000
0010
0000
0100
0001
0100
0000
0010
,  // measure 18
0100
0010
0000
0100
0000
0001
0100
0001
,  // measure 19
0100
0002
0000
0000
0003
0000
1000
0000
,  // measure 20
0000
0000
0010
0100
0010
1000
0100
0010
,  // measure 21
0001
0000
1001
0000
1000
0000
0001
1000
,  // measure 22
0000
0001
1000
0001
0000
0200
0000
0300
,  // measure 23
0010
0100
0010
0000
0100
0000
0110
0000
,  // measure 24
0010
0000
1000
0001
0100
0000
0010
0000
,  // measure 25
1000
0000
0001
0000
0100
0001
0100
0001
,  // measure 26
0000
0000
0110
0000
0100
0010
0000
0000
,  // measure 27
0010
0100
0000
0000
0010
0000
0110
0000
,  // measure 28
0001
0000
1000
0010
0100
0000
0001
0000
,  // measure 29
0010
0100
1000
1000
,  // measure 30
0001
0000
0001
0000
1000
0001
0000
1000
,  // measure 31
0001
0200
0000
0000
0300
0010
0010
0100
,  // measure 32
0010
0200
0000
0000
0001
0000
0301
1000
,  // measure 33
0001
0200
0000
0001
0000
0001
0300
0001
,  // measure 34
1000
0001
1000
0000
0001
0000
0100
0010
,  // measure 35
0100
0000
0010
0000
1000
0100
0010
0001
,  // measure 36
0000
1000
0000
0000
0001
0100
0001
0100
,  // measure 37
0000
0000
0101
0000
0010
1000
0010
1000
,  // measure 38
0000
0100
0000
0000
0010
0001
0010
0001
,  // measure 39
0000
0000
0010
0000
0100
1000
0100
0010
,  // measure 40
0000
0001
0000
0000
0000
1000
0100
1000
,  // measure 41
0000
0002
0000
0000
0003
0000
0100
0010
,  // measure 42
0100
0010
0000
0100
0010
0000
0200
0000
,  // measure 43
0000
0000
0301
0000
1000
0010
0100
0010
,  // measure 44
0100
0001
0000
1000
0000
0000
0001
0000
,  // measure 45
1000
0001
1000
0000
0001
0010
0001
0010
,  // measure 46
0001
0100
0000
0010
0000
0000
0100
0000
,  // measure 47
0010
0000
0100
0010
0100
0010
0000
0100
,  // measure 48
0001
0100
0000
0010
1000
0010
0000
0100
,  // measure 49
0010
0100
0000
0001
0010
0100
1000
0001
,  // measure 50
1000
0002
0000
0000
1000
0000
1003
0000
,  // measure 51
0100
0000
0010
0001
0010
0001
1000
0100
,  // measure 52
1000
0100
0010
0000
0001
0000
0100
0001
,  // measure 53
0000
0000
0100
0010
0000
0010
0100
0000
,  // measure 54
0001
1000
0000
0000
1000
0010
0100
0000
,  // measure 55
0001
0010
0100
0000
1000
0000
1100
0000
,  // measure 56
0010
0000
0011
0000
1000
0001
1000
0001
,  // measure 57
0000
0000
0100
0010
0000
0100
0010
0000
,  // measure 58
1000
0001
0000
0000
0010
0001
0100
0000
,  // measure 59
0010
1000
0100
0000
0010
0000
0011
0000
,  // measure 60
0100
0000
1100
0000
0000
0001
1000
0001
,  // measure 61
0000
1000
0000
1000
0000
0001
0000
0100
,  // measure 62
0010
0100
0010
0000
0100
0001
0100
0001
,  // measure 63
0100
0002
0000
0000
1000
0000
1003
0100
,  // measure 64
1000
0000
0001
0010
0100
1000
0000
1000
,  // measure 65
0100
1000
0000
0001
0010
0001
0100
0001
,  // measure 66
0010
0002
0000
0000
0000
0000
0003
0000
;
