#VERSION:0.83;
#TITLE:Dengana Mangana;
#SUBTITLE:;
#ARTIST:Dengana & Mangana;
#TITLETRANSLIT:;
#SUBTITLETRANSLIT:;
#ARTISTTRANSLIT:;
#GENRE:;
#ORIGIN:;
#CREDIT:from pop n music 11;
#BANNER:Dengana & Mangana - Dengana Mangana.png;
#BACKGROUND:;
#PREVIEWVID:;
#JACKET:;
#CDIMAGE:;
#DISCIMAGE:;
#LYRICSPATH:;
#CDTITLE:;
#MUSIC:Dengana & Mangana - Dengana Mangana.ogg;
#OFFSET:-0.174000;
#SAMPLESTART:47.140999;
#SAMPLELENGTH:12.000000;
#SELECTABLE:YES;
#BPMS:0.000=152.000;
#STOPS:;
#DELAYS:;
#WARPS:;
#TIMESIGNATURES:0.000=4=4;
#TICKCOUNTS:0.000=4;
#COMBOS:0.000=1;
#SPEEDS:0.000=1.000=0.000=0;
#SCROLLS:0.000=1.000;
#FAKES:;
#LABELS:0.000=Song Start;
#BGCHANGES:;
#KEYSOUNDS:;
#ATTACKS:
;

//---------------dance-single - ----------------
#NOTEDATA:;
#CHARTNAME:;
#STEPSTYPE:dance-single;
#DESCRIPTION:;
#CHARTSTYLE:;
#DIFFICULTY:Beginner;
#METER:2;
#RADARVALUES:0.080562,0.090155,0.000000,0.019787,0.000000,57.000000,57.000000,0.000000,2.000000,0.000000,0.000000,0.000000,0.000000,0.000000,0.080562,0.090155,0.000000,0.019787,0.000000,57.000000,57.000000,0.000000,2.000000,0.000000,0.000000,0.000000,0.000000,0.000000;
#CREDIT:;
#NOTES:
0000
0000
0000
0000
,
0000
0000
0000
0000
,
0000
0000
0000
0000
,
0000
0000
0000
0000
,
0000
0000
0000
1000
,
0000
0000
0000
1000
,
0000
0000
0000
0001
,
0000
0000
0000
0001
,
0000
0000
0000
1000
,
0000
0000
0000
1000
,
0000
0000
0000
0001
,
0000
0000
0000
1000
,
0000
0000
0000
0001
,
0000
0000
0000
0100
,
0000
0000
0000
0010
,
0000
0000
0000
0100
,
0000
0000
0000
0010
,
0000
0000
0000
0100
,
0000
0000
0000
0010
,
0000
0000
0000
0100
,
0000
0000
0000
0100
,
0000
0000
0000
0010
,
0000
0000
0000
0010
,
0000
0000
0000
0100
,
0000
0000
0000
0010
,
0000
0000
0000
1000
,
0000
0000
0000
0001
,
0000
0000
0000
1000
,
0000
0000
0000
0001
,
0000
0000
0000
0100
,
0000
0000
0000
0010
,
0000
0000
0000
0100
,
0000
0000
0000
0010
,
0000
0000
0000
0200
,
0000
0000
0300
0010
,
0000
0000
0000
0100
,
0000
0000
0000
0010
,
0000
0000
0000
1000
,
0000
0000
0000
0001
,
0000
0000
0000
1000
,
0000
0000
0000
0001
,
0000
0000
0000
0100
,
0000
0000
0000
0010
,
0000
0000
0000
0100
,
0000
0000
0000
0010
,
0000
0000
0000
0100
,
0000
0000
0000
0001
,
0000
0000
0000
1000
,
0000
0000
0000
0001
,
0000
0000
0000
1000
,
0000
0000
0000
0001
,
0000
0000
0000
0001
,
0000
0000
0000
1000
,
0000
0000
0000
1000
,
0000
0000
0000
0001
,
0000
0000
0000
1000
,
0000
0000
0000
0001
,
0000
0000
0000
1000
,
0000
0000
0000
0001
,
0000
0000
0000
0002
,
0000
0000
0003
1000
;

//---------------dance-single - ----------------
#NOTEDATA:;
#CHARTNAME:;
#STEPSTYPE:dance-single;
#DESCRIPTION:;
#CHARTSTYLE:;
#DIFFICULTY:Easy;
#METER:5;
#RADARVALUES:0.221898,0.269352,0.049468,0.098935,0.000000,157.000000,152.000000,5.000000,10.000000,0.000000,0.000000,0.000000,0.000000,0.000000,0.221898,0.269352,0.049468,0.098935,0.000000,157.000000,152.000000,5.000000,10.000000,0.000000,0.000000,0.000000,0.000000,0.000000;
#CREDIT:;
#NOTES:
// measure 0
0000
0000
0000
0000
,  // measure 1
0000
0000
0000
0000
,  // measure 2
0000
0000
0000
0000
,  // measure 3
0000
0000
0000
1000
,  // measure 4
0001
1000
0001
1000
,  // measure 5
0001
1000
0000
0020
,  // measure 6
0030
0100
0001
1000
,  // measure 7
0001
1000
0000
0002
,  // measure 8
0003
1000
0000
1000
,  // measure 9
0001
0100
0000
0010
,  // measure 10
0010
0010
0000
0100
,  // measure 11
0100
0100
0000
0001
,  // measure 12
0000
1000
0000
2002
,  // measure 13
0000
3003
0000
1000
,  // measure 14
0100
0010
0000
1000
,  // measure 15
0000
0001
0000
0001
,  // measure 16
0010
0100
0000
0001
,  // measure 17
0000
0100
0000
0010
,  // measure 18
0010
0100
0100
0010
,  // measure 19
0000
0100
0100
0010
,  // measure 20
0100
0100
0000
0001
,  // measure 21
0000
0000
0000
1100
,  // measure 22
0000
1000
0100
1000
,  // measure 23
0000
0001
0000
0001
,  // measure 24
0010
0001
0010
0100
,  // measure 25
0000
1000
0000
0001
,  // measure 26
1000
0001
0000
1000
,  // measure 27
0100
0010
0001
1000
,  // measure 28
0100
0010
0001
2000
,  // measure 29
0000
3000
0000
0001
,  // measure 30
0000
0001
0001
0010
,  // measure 31
0000
0010
0000
0001
,  // measure 32
0001
1000
1000
1000
,  // measure 33
0000
0000
0000
0002
,  // measure 34
0000
1003
0000
0100
,  // measure 35
0010
0100
0010
0200
,  // measure 36
0000
0310
0000
0001
,  // measure 37
1000
0001
1000
0100
,  // measure 38
0010
0001
0000
0001
,  // measure 39
0100
0001
0100
0001
,  // measure 40
0000
0100
0010
0100
,  // measure 41
0010
0200
0000
0301
,  // measure 42
0000
1000
0000
0001
,  // measure 43
1000
0001
0000
1000
,  // measure 44
0010
0100
0000
0110
,  // measure 45
0000
1001
0000
1000
,  // measure 46
0100
0010
0000
1000
,  // measure 47
0000
0001
0010
0100
,  // measure 48
0000
0001
0000
2000
,  // measure 49
0000
3001
0000
0001
,  // measure 50
0000
0001
0000
1000
,  // measure 51
1000
1000
1000
0001
,  // measure 52
0001
0001
0001
1000
,  // measure 53
1000
0001
0000
1000
,  // measure 54
0000
0000
0000
0110
,  // measure 55
0000
0000
0000
0001
,  // measure 56
0000
0001
0010
0100
,  // measure 57
0000
0001
0000
1000
,  // measure 58
0000
0001
0000
1000
,  // measure 59
0001
1000
0002
0000
,  // measure 60
0000
0000
0003
0000
;

//---------------dance-single - ----------------
#NOTEDATA:;
#CHARTNAME:;
#STEPSTYPE:dance-single;
#DESCRIPTION:;
#CHARTSTYLE:;
#DIFFICULTY:Medium;
#METER:9;
#RADARVALUES:0.397155,0.450775,0.187977,0.187977,0.064308,281.000000,262.000000,19.000000,19.000000,0.000000,0.000000,0.000000,0.000000,0.000000,0.397155,0.450775,0.187977,0.187977,0.064308,281.000000,262.000000,19.000000,19.000000,0.000000,0.000000,0.000000,0.000000,0.000000;
#CREDIT:;
#NOTES:
0000
0000
0000
0000
,
0001
0000
0100
0001
0100
0000
0010
0000
,
0110
0000
0000
0110
0000
0000
0110
0000
,
0000
1001
0000
0000
0001
0000
1100
0000
,
1000
0100
1000
0000
0010
0000
1001
0000
,
0010
0100
0010
0000
0010
0100
0002
0000
,
1000
0000
0013
0000
0001
0000
1000
0100
,
0010
0001
0010
0000
0010
0100
0020
0000
,
0100
0031
0010
1000
,
0010
0001
0010
0001
0010
0000
0010
0000
,
1100
0000
0000
0011
0000
0000
0001
0000
0100
0100
0000
0000
,
0001
0000
2000
0000
0000
0000
3000
0000
0000
1001
0000
0000
,
0001
0000
0100
0001
0000
0000
0100
0000
0020
0000
0000
0000
,
0130
0000
0000
0100
0000
0000
0010
0000
0000
1000
0000
0200
,
0000
0000
0000
0300
0000
0000
1000
0000
1000
0001
0000
0000
,
0000
0100
0000
0010
,
0100
0000
0010
0100
0000
0010
0100
0000
0000
0100
0000
0000
,
0000
0001
0000
1000
,
0100
0000
1000
0100
0000
0000
1000
0000
0100
2000
0000
0000
,
3000
0000
0001
0000
0000
0100
0000
0000
0020
0000
0000
0000
,
0030
0100
0010
0100
,
0010
0000
0100
0000
0100
0000
0010
1000
,
0010
0001
1000
0010
0001
0000
0100
0000
,
0101
0000
1000
0000
0000
0000
0001
0100
,
0001
1000
0100
0001
0100
1000
0001
0000
,
1000
0000
0001
0000
0100
0000
0020
0030
,
0100
0100
0010
0010
,
1000
0000
0001
0000
1000
0010
0100
0000
,
0001
1000
0001
0000
1000
0000
0002
0000
,
1000
0000
1003
0000
0100
0010
0001
0000
,
0100
0000
0001
0100
0001
0000
0010
0000
,
0100
1000
0010
0100
,
0001
0000
0010
0000
0001
1000
0100
0000
,
0100
1000
0010
0000
1000
0000
0110
0000
,
0001
0200
0310
1000
,
0100
0010
0001
2000
,
3100
0020
0031
0100
,
0010
0100
0000
0010
,
0100
0010
0001
1000
,
0100
0010
0001
2000
,
3000
0002
0003
0100
,
0100
0000
0100
0010
0100
0000
0010
0000
,
0010
0000
0010
0000
0010
0100
0001
0000
,
1000
1000
0001
1001
,
1000
0110
1000
0010
,
0001
0010
0001
0000
0010
0000
0100
0000
,
0001
0100
0001
0000
0100
0000
0202
0000
,
0303
0000
0001
0000
0100
0001
0200
0000
,
0300
0000
0100
0000
0001
0100
0001
0000
,
0010
0100
1000
0001
,
0010
0100
1000
0001
,
0010
0001
1000
0100
,
1000
0001
0101
0001
,
0110
1000
0100
0010
,
0001
0000
1000
0001
0100
0001
1000
0000
,
0001
0000
1000
0100
0010
0100
1000
0000
,
0001
0000
0011
0000
0110
0000
0001
1000
,
0010
1000
0001
0000
0100
0000
1000
0000
,
0100
0020
0030
0110
,
0100
0010
0100
0010
0100
0020
0000
0000
,
0000
0000
0000
0030
;

//---------------dance-single - ----------------
#NOTEDATA:;
#CHARTNAME:;
#STEPSTYPE:dance-single;
#DESCRIPTION:;
#CHARTSTYLE:;
#DIFFICULTY:Hard;
#METER:15;
#RADARVALUES:0.767456,0.931601,0.277019,0.217658,0.860738,543.000000,515.000000,28.000000,22.000000,0.000000,0.000000,0.000000,0.000000,0.000000,0.767456,0.931601,0.277019,0.217658,0.860738,543.000000,515.000000,28.000000,22.000000,0.000000,0.000000,0.000000,0.000000,0.000000;
#CREDIT:;
#NOTES:
0000
0000
0000
0000
0000
0000
0000
0000
0000
0000
0000
0000
0000
0000
0001
0100
,
0001
0100
0001
0100
0001
1000
0100
1000
0100
0010
0001
0000
0010
0000
0000
0000
,
0110
0110
0000
1001
1001
0000
0110
0110
,
0000
0000
1100
0000
1100
0000
0000
0000
0001
1000
0001
0000
1100
0000
0000
0000
,
1000
0010
1000
0000
0010
0000
1001
0000
,
0010
0000
0100
0000
0010
0000
0000
0000
0010
0000
0100
0000
0002
0000
1003
0100
,
1000
0100
1000
0000
0010
0000
0100
0001
0100
0001
0100
0000
0001
0010
0100
0010
,
0001
0010
0001
0010
0001
0010
0001
0010
0100
0000
0010
0000
0002
0000
0103
0001
,
0100
0010
0100
0000
0001
0000
1000
0100
0010
0001
1000
0000
0001
0010
0001
0010
,
0001
0000
0000
0010
0000
0000
0001
0000
0000
0010
0000
0000
0100
0000
0000
0010
0000
0000
0001
0000
0000
0010
0000
0000
0100
0000
0000
0000
0000
0000
0000
0000
0000
0000
0000
0000
0010
0000
0000
0000
0000
0000
0000
0000
1000
0000
0000
0000
,
1000
0100
0000
0010
0000
0001
0001
0000
0100
0010
0000
0100
,
0001
0000
2000
0000
0000
0000
3010
0000
0000
1001
0000
0000
,
0101
0000
0100
0001
0000
0100
0001
0000
0020
0000
0000
0000
,
0130
0000
1000
0100
0000
0010
0001
0000
1000
0001
0000
0200
,
0000
0000
0000
0300
0000
0000
0010
0000
1000
1001
0000
0000
,
0100
0010
0100
0010
0100
0001
0100
0000
0100
0010
0000
0000
,
0100
0000
0010
0100
0010
0100
0010
0000
0000
0110
0000
0000
,
1000
0001
0100
0001
1000
0001
1000
0000
0001
1000
0000
0000
,
0100
0000
1000
0100
0000
0000
0001
0000
0100
2000
0000
3100
,
0000
0000
0010
0000
0000
0001
0000
0000
0020
0000
0000
0031
,
0010
0000
0100
1000
0000
0100
0000
0000
0010
0001
0000
1000
,
0001
0000
0000
0000
0100
0000
0000
0000
0010
0000
0000
0000
1000
0000
0000
0000
0001
0000
0000
0000
0100
0000
0000
0000
0010
0000
0000
0000
0000
0000
0000
0000
0000
0000
0000
0000
0100
0000
0000
0000
0000
0000
0001
0000
0000
0100
0000
0000
,
0001
0000
1000
0000
0100
0000
0010
0000
0001
0000
1000
0100
0010
0000
0000
0000
,
0011
0000
0000
0000
0110
0000
0000
0000
1000
0000
0000
0000
0001
0000
0100
0001
,
0010
0000
0001
0000
0100
0000
0010
0000
0100
0000
0001
0000
1000
0000
0100
1000
,
0010
0100
1000
0110
0110
0000
0001
1000
,
0002
0103
0200
0310
0010
1000
0010
0100
,
0001
2000
0001
3001
0010
0010
0100
0000
,
1000
0000
0000
0001
0200
0000
0000
0000
0301
0000
1000
0000
0020
0000
0000
0000
,
0130
0000
0010
0000
0100
0001
0100
0001
0100
0000
0010
1000
0010
0000
0000
0000
,
0100
0001
0000
0000
0100
0010
0000
0000
1000
0100
0000
0000
0010
0000
0001
0000
,
0010
0000
0200
0000
0000
0000
0000
0000
0310
0000
0000
0000
0001
0000
0000
0010
,
0001
0000
0000
0010
0100
0000
1000
0000
0001
0000
2000
0000
0000
0000
0000
0000
,
3001
0000
0000
0000
0001
0000
0000
0000
0100
0000
0000
0000
0020
0000
0130
0010
,
0100
0000
0010
0100
0000
0000
0001
0000
1000
0000
0001
0000
0110
0000
0000
0000
,
0100
0000
0010
0100
0010
0100
0010
0100
0000
0000
0000
0000
0001
1000
0000
0001
,
0100
0000
0010
0100
0000
0001
0100
0001
0100
0000
0001
0100
0001
1000
0100
1000
,
0001
0000
1000
0000
0100
0010
0000
0000
0100
0000
1000
0000
0001
0000
0100
0000
,
0001
0010
0000
0001
0010
0000
0001
0010
0001
0000
0001
0010
0000
0001
0100
0001
,
1000
0100
1000
0001
0100
0000
0001
0010
0100
0000
0000
0001
0100
0010
0100
0001
,
0100
0010
0001
0000
1000
0010
0000
0000
0000
0000
0100
0010
0100
0010
0000
0100
,
0001
0010
0001
0100
0000
0001
0000
1000
0001
0100
0001
0000
0100
0010
0100
0000
,
0000
0000
0001
0000
1000
0100
0020
0030
,
0001
0000
1000
0001
0000
0001
0100
0000
0010
0000
0100
0000
0200
0000
0301
0100
,
0000
0001
0100
0000
0002
0000
0003
0000
0100
0000
0010
0100
0000
0010
0100
0001
,
1000
0100
0000
0010
0100
0000
0010
0001
0010
0000
0001
0000
0010
1000
0010
0000
,
0001
0010
0000
0001
0010
0000
0001
0001
0100
0000
0010
0000
0200
0000
0300
0000
,
0010
0000
0010
0000
0020
0000
0030
0000
0100
0001
0100
0001
0100
0000
0010
0000
,
0000
0000
0000
0000
0000
0000
0100
0000
0000
0010
0000
0000
0100
0000
0000
0000
0000
0000
0010
0000
0000
0000
0000
0000
0101
0000
0000
0000
0000
0000
0000
0000
0100
0000
0000
0000
0010
0000
0000
0000
0100
0000
0000
0000
0010
0000
0000
0000
,
0100
0000
0000
0000
0001
0000
0000
0000
1000
0000
0000
0000
0001
0000
0000
0000
0100
0000
0000
0000
0001
0000
0000
0000
0000
0000
0000
0000
0000
0000
0000
0000
0000
0000
0000
0000
1000
0000
0000
0000
0000
0000
0100
0000
0000
1000
0000
0000
,
0100
0000
0100
0000
1000
0000
0100
0000
0010
0000
0001
0000
0010
0000
0010
0001
,
0010
0000
0010
0001
0100
0000
0001
0100
0001
0000
1000
0000
0010
0100
0010
1000
,
0010
0100
0010
0100
0010
1000
0010
0100
0010
1000
0001
0010
0001
0000
1000
0010
,
0100
0010
1000
0100
0011
0000
0011
0110
,
0011
0000
0001
0010
0001
0010
0001
0010
0100
1000
0010
0100
0010
0000
0110
0000
,
0101
0000
0001
0010
0100
0010
0001
0100
0010
0100
0001
0000
0100
0000
0000
0100
,
0010
0000
0000
1000
0001
0000
0000
0100
0001
0000
0000
0000
1000
0000
0100
0010
,
0100
0020
0030
0100
0010
0100
0001
0000
,
1100
0000
0010
0100
0010
0100
0010
0100
0010
0000
0000
0000
0100
0000
0000
0000
,
0100
0010
0100
0001
0100
0102
0000
0000
,
0100
0000
0000
0000
0100
0000
0000
0000
0103
0010
0000
0010
0100
0000
0000
0000
;
