#TITLE:Deautoki... Shimonoseki;
#SUBTITLE:;
#ARTIST:Nagato Machi;
#TITLETRANSLIT:;
#SUBTITLETRANSLIT:;
#ARTISTTRANSLIT:;
#GENRE:;
#CREDIT:from pop n music 8 / 6 CS;
#BANNER:CS6_ROMANCE_KAYOU.png;
#BACKGROUND:;
#LYRICSPATH:;
#CDTITLE:;
#MUSIC:Nagato Machi - Deautoki... Shimonoseki..ogg;
#OFFSET:-0.222000;
#SAMPLESTART:55.506001;
#SAMPLELENGTH:16.000000;
#SELECTABLE:YES;
#BPMS:0.000000=115.000000
;
#STOPS:
;
#BGCHANGES:;
#KEYSOUNDS:;
#ATTACKS:;

//---------------dance-single - ----------------
#NOTES:
     dance-single:
     :
     Beginner:
     2:
     0.102138,0.138152,0.019860,0.019860,0.000000,72.000000,70.000000,2.000000,2.000000,0.000000,0.000000,0.102138,0.138152,0.019860,0.019860,0.000000,72.000000,70.000000,2.000000,2.000000,0.000000,0.000000:
0000
0000
0000
0000
,
0000
0000
0001
0000
,
1000
0000
0001
0000
,
0000
0000
0001
0000
,
0100
0000
0001
0000
,
0001
0000
1000
0000
,
0001
0000
1000
0000
,
0000
0000
0001
0000
,
0100
0000
0001
0000
,
1000
0000
1001
0000
,
0001
0000
1000
0000
,
1000
0000
0001
0000
,
0001
0000
0100
0000
,
0000
0000
0001
0000
,
0001
0000
1000
0000
,
1000
0000
0001
0000
,
0001
0000
0100
0000
,
0000
0000
0010
0000
,
0000
0000
0100
0000
,
0000
0000
0001
0000
,
0001
0000
1000
0000
,
0000
0000
1000
0000
,
0000
0000
0001
0000
,
0000
0000
1000
0000
,
0001
0000
1000
0000
,
0000
0000
0001
0000
,
0000
0000
1000
0000
,
0001
0000
1000
0000
,
0000
0000
0001
0000
,
0100
0000
0001
0000
,
0100
0000
0001
0000
,
0001
0000
1000
0000
,
0010
0000
1000
0000
,
0000
0000
0001
0000
,
0000
0000
1000
0000
,
0000
0000
1001
0000
,
0000
0000
0002
0000
,
0003
0000
1000
0000
,
0000
0000
1000
0000
,
0001
0000
1000
0000
,
0100
0000
0100
0000
,
0010
0000
0001
0000
,
0000
0000
1000
0000
,
0001
0000
1000
0000
,
0100
0000
0010
0000
,
0000
0000
2000
0000
,
0001
0000
0000
3000
0000
0000
0000
0000
;

//---------------dance-single - ----------------
#NOTES:
     dance-single:
     :
     Easy:
     4:
     0.194346,0.207229,0.089371,0.178742,0.000000,137.000000,128.000000,9.000000,18.000000,0.000000,0.000000,0.194346,0.207229,0.089371,0.178742,0.000000,137.000000,128.000000,9.000000,18.000000,0.000000,0.000000:
0000
0000
0000
0000
,
0000
0000
0001
1000
,
0001
0000
0001
0000
,
1001
0000
2000
3000
,
0100
0010
0002
0003
,
1000
0010
0110
0000
,
0001
0000
1000
0001
,
0100
0000
0002
0003
,
0010
0100
2000
3000
,
1000
0000
1001
0000
,
1000
0100
1000
0100
,
1000
0000
0001
0010
,
0001
0000
0100
0001
,
0100
0000
0010
0100
,
0010
0000
1000
0001
,
1000
0001
0200
0300
,
0001
0000
1001
0000
,
0110
0000
1001
0000
,
0001
0001
0100
0000
,
0010
0010
1000
0000
,
0001
0010
0100
0000
,
0100
0000
0100
0010
,
0001
0000
0001
1000
,
0001
0000
2000
3000
,
0001
0010
0001
0000
,
0200
0000
0301
0001
,
0001
0000
1000
0010
,
0100
0000
0001
0001
,
1000
1000
0001
0000
,
0110
0000
0010
0100
,
0010
1000
0002
0003
,
0010
0100
2000
3000
,
0100
0010
0002
0003
,
0010
0100
2000
3000
,
0001
0001
1001
0000
,
1000
0100
0010
0000
,
0010
0001
2000
3000
,
0010
1000
0010
0100
,
0100
0000
0001
1000
,
0001
0000
2000
3000
,
0100
0010
0200
0300
,
2000
3000
0001
0010
,
0001
0000
0001
0100
,
0001
1000
0002
0013
,
0100
0010
0001
0000
,
1000
0000
2002
0000
,
0000
0000
0000
3003
0000
0000
0000
0000
;

//---------------dance-single - ----------------
#NOTES:
     dance-single:
     :
     Medium:
     7:
     0.343297,0.322356,0.198602,0.168812,0.000000,242.000000,222.000000,20.000000,17.000000,0.000000,0.000000,0.343297,0.322356,0.198602,0.168812,0.000000,242.000000,222.000000,20.000000,17.000000,0.000000,0.000000:
// measure 0
0000
0000
0000
0000
,  // measure 1
0000
0000
0000
0000
0001
0000
1000
0100
,  // measure 2
0010
0001
0000
0000
0001
0010
0100
1000
,  // measure 3
0000
1000
0000
0000
0002
0000
0103
0000
,  // measure 4
0010
0000
0100
0010
0020
0000
1030
0001
,  // measure 5
1000
0000
0010
0000
0110
0000
0100
0010
,  // measure 6
0100
0001
0000
0000
1000
0001
1000
0001
,  // measure 7
0000
0001
0000
0000
2000
0000
3010
0000
,  // measure 8
0100
0010
0100
0000
1001
0000
2002
0000
,  // measure 9
3003
0001
1001
0010
,  // measure 10
1000
0100
0000
0000
0001
0000
0100
1000
,  // measure 11
0100
1000
0000
0000
0001
0000
0100
0000
,  // measure 12
0001
0100
0000
0010
0100
0000
0001
1000
,  // measure 13
0100
0100
0000
0100
1000
0000
0100
0000
,  // measure 14
0010
0001
0000
0001
1000
0000
0001
0000
,  // measure 15
1000
0001
1000
0001
0200
0000
0301
0000
,  // measure 16
0001
1000
0001
0000
1000
0001
0100
0000
,  // measure 17
0010
0100
0000
0100
0010
0000
1000
0000
,  // measure 18
0001
1000
0001
1000
0001
0000
1000
0000
,  // measure 19
0010
0100
0010
0100
0010
0000
0100
0000
,  // measure 20
0001
0010
0000
0100
1000
0000
1001
0000
,  // measure 21
0110
0100
0100
0110
,  // measure 22
0001
1000
0000
1000
0001
0000
0101
0000
,  // measure 23
0001
0100
0000
0001
0100
0000
0001
0000
,  // measure 24
1000
0010
0100
0000
0001
0000
0101
0000
,  // measure 25
0001
0100
0001
0000
0200
0300
0002
0003
,  // measure 26
0000
0100
0110
0010
,  // measure 27
0100
0010
0100
0010
0100
0000
0001
0000
,  // measure 28
1000
0001
0100
0001
1000
0000
0001
0000
,  // measure 29
0100
0010
0100
0001
0100
0000
0010
0000
,  // measure 30
1010
1001
0022
0033
,  // measure 31
0010
0100
0010
0000
0001
0000
1000
0000
,  // measure 32
0100
0010
0000
0100
0002
0000
1003
0000
,  // measure 33
0010
0100
0010
0000
1000
0000
1001
0000
,  // measure 34
0001
1000
0100
0000
1100
0000
1100
0000
,  // measure 35
1000
0100
0010
0000
0002
0000
0103
0000
,  // measure 36
0010
0100
0010
0000
0200
0000
0301
0000
,  // measure 37
0010
0100
0010
0000
0001
0000
0101
0000
,  // measure 38
1000
0001
0000
0000
0001
1000
0001
1000
,  // measure 39
0000
0001
0000
0000
0100
0010
0100
0000
,  // measure 40
0010
0100
0010
0000
0100
0001
0100
0000
,  // measure 41
0010
0100
0001
0100
0001
0000
1000
0001
,  // measure 42
0100
0001
0000
0000
1000
0100
0010
0001
,  // measure 43
0000
1000
0000
0000
0001
0010
0001
0010
,  // measure 44
0001
0010
0011
2200
,  // measure 45
3300
0001
2002
0000
,  // measure 46
0000
0000
0000
3003
0000
0000
0000
0000
;

//---------------dance-single - ----------------
#NOTES:
     dance-single:
     :
     Hard:
     10:
     0.436924,0.414457,0.188672,0.208532,0.124126,308.000000,289.000000,19.000000,21.000000,0.000000,0.000000,0.436924,0.414457,0.188672,0.208532,0.124126,308.000000,289.000000,19.000000,21.000000,0.000000,0.000000:
0000
0000
0000
0000
,
0000
0000
0001
1000
0001
0000
1000
0000
1001
0000
0000
0000
1000
0000
0100
0000
,
0010
0001
1000
0000
0001
0010
0100
1000
,
0000
0001
1000
0000
0100
0000
0000
0000
0010
0000
0001
0000
0100
0000
0001
0000
,
0010
0001
1000
0010
0200
0000
0301
0001
,
1000
0000
0010
0100
0110
0000
0100
0010
,
0100
0001
1000
0000
1000
0100
0010
0001
,
0000
1000
0001
0000
0100
0000
0000
0000
0010
0000
0010
0000
1000
0000
0100
0000
,
0010
0000
0001
0000
0100
0010
0100
0000
0110
0000
0000
0000
2002
0000
0000
0000
,
3003
0001
0001
1000
1001
0000
0010
0000
,
1000
0000
0100
0000
0000
0000
0010
0000
0001
0000
0000
1000
0000
0000
0001
0000
,
0100
0010
0100
0000
0001
0000
0101
0001
,
0100
0000
0010
0000
0100
0000
0010
0000
0100
0000
0000
0001
0000
0000
1000
0000
,
0010
0100
0010
0100
0110
0000
0001
0000
,
1000
0000
0001
0000
0100
0000
0001
0000
1000
0000
0000
0010
0000
0000
0100
0000
,
0000
0001
1000
0001
0100
0000
0100
0010
,
1000
0000
0100
0000
0001
0000
0100
0000
0000
0000
1000
0000
0100
0000
0000
0010
,
0001
0010
0000
0001
2000
3000
0100
0010
,
0000
0000
0001
0000
0100
0000
0010
0000
0100
0000
0000
0010
0000
0000
0100
0000
,
0000
0100
0010
0100
0001
0010
0100
1000
,
0001
0000
0000
1000
0000
0000
0001
0000
0000
0000
1000
0000
0001
0000
0010
0000
,
0100
0000
1000
0000
0100
0000
0010
0000
0110
0000
0000
0110
0000
0000
0001
1000
,
0001
1000
0000
0001
0100
0000
0001
0010
,
0001
0100
0001
0100
0020
1000
1030
0100
,
0010
0000
0000
0001
0000
0000
1000
0000
0001
0000
0000
0202
0000
0000
0303
0000
,
0001
0100
0001
1000
0200
0300
0020
0030
,
0000
0000
0001
0100
0001
0000
0000
0000
0100
0000
0000
0000
0010
0000
0000
0000
,
1000
0000
0001
0000
0000
0000
0010
0000
0100
0000
0000
0100
0000
0000
1000
0000
,
0001
0100
0100
0001
1000
0000
0001
1000
,
0100
0000
1000
0000
0100
0000
0001
0000
0100
0000
0000
1000
0000
0000
0020
0000
,
0000
0000
0030
0000
1000
0000
0100
0000
0020
0000
0000
0001
0030
0000
0100
0000
,
0000
0000
0100
0000
0020
0000
0030
0000
0110
0000
0000
0010
0000
0000
0100
0010
,
0100
0010
0000
0100
0002
0003
1000
0001
,
0100
0000
0000
0010
0000
0000
0100
0000
0001
0000
0200
0000
0000
0000
0301
0000
,
0001
0000
0010
0000
0100
0000
1000
0000
1100
0000
0000
1100
0000
0000
0200
0000
,
0000
0000
1300
0000
0010
0000
0100
0000
0002
0000
0000
0100
0003
0000
0001
0000
,
0010
0100
0010
0001
0200
0000
0310
0010
,
0100
0000
0100
0000
0001
0000
1000
0001
1000
0000
0000
0000
0101
0000
0001
0000
,
1000
0001
0000
1000
0001
1000
0001
1000
,
0000
0100
0010
0000
0001
0000
0000
0000
0100
0000
0010
0000
0100
0000
0001
0000
,
1000
0001
0100
0010
0200
0000
0301
0010
,
0001
0000
1000
0100
1100
0000
1000
0010
,
0100
0010
0000
0100
0001
0100
0010
1000
,
0010
1000
0000
0000
0001
0010
0100
0010
,
0001
1000
0010
0100
0110
0000
2000
0000
,
3000
0001
0011
0101
2002
0000
0000
0000
,
0000
0000
0000
3003
0000
0000
0000
0000
;
