#VERSION:0.83;
#TITLE:Day & Night;
#SUBTITLE:;
#ARTIST:Isyss Ft. Jadakiss;
#TITLETRANSLIT:;
#SUBTITLETRANSLIT:;
#ARTISTTRANSLIT:;
#GENRE:;
#ORIGIN:;
#CREDIT:;
#BANNER:;
#BACKGROUND:;
#PREVIEWVID:;
#JACKET:;
#CDIMAGE:;
#DISCIMAGE:;
#LYRICSPATH:;
#CDTITLE:;
#MUSIC:Isyss-Day & Night-Original-Version-Ft.-Jadakiss (1).ogg;
#OFFSET:-0.022000;
#SAMPLESTART:100.679001;
#SAMPLELENGTH:17.799999;
#SELECTABLE:YES;
#BPMS:0.000=191.934;
#STOPS:;
#DELAYS:;
#WARPS:;
#TIMESIGNATURES:0.000=4=4;
#TICKCOUNTS:0.000=4;
#COMBOS:0.000=1;
#SPEEDS:0.000=1.000=0.000=0;
#SCROLLS:0.000=1.000;
#FAKES:;
#LABELS:0.000=Song Start;
#BGCHANGES:;
#KEYSOUNDS:;
#ATTACKS:
;

//---------------dance-single - ----------------
#NOTEDATA:;
#CHARTNAME:;
#STEPSTYPE:dance-single;
#DESCRIPTION:;
#CHARTSTYLE:;
#DIFFICULTY:Beginner;
#METER:3;
#RADARVALUES:0.163424,0.197130,0.089883,0.065370,0.000000,140.000000,129.000000,11.000000,8.000000,0.000000,0.000000,0.000000,0.000000,0.000000,0.163424,0.197130,0.089883,0.065370,0.000000,140.000000,129.000000,11.000000,8.000000,0.000000,0.000000,0.000000,0.000000,0.000000;
#CREDIT:;
#NOTES:
0000
0000
0000
0000
,
1000
0000
0000
0000
,
0001
0000
1000
0000
,
0000
0000
0000
0000
,
0001
0000
0100
0000
,
0010
0000
0000
0000
,
0100
0000
0001
0000
,
0000
0000
0000
0000
,
0001
0000
1000
0000
,
0001
0000
0000
0000
,
1000
0000
1000
0000
,
0001
0000
0000
0000
,
1000
0000
0001
0000
,
1000
0000
0000
0000
,
0001
0000
0100
0000
,
0010
0000
0000
0000
,
1000
0000
0000
0000
,
2002
0000
3003
0000
,
0001
0000
1000
0000
,
0001
0000
0000
0000
,
0100
0000
0100
0000
,
0010
0000
0000
0000
,
1000
0000
0001
0000
,
0100
0000
0000
0000
,
0001
0000
0000
0000
,
2002
0000
3003
0000
,
1000
0000
0001
0000
,
1000
0000
0000
0000
,
0010
0000
0010
0000
,
0100
0000
0000
0000
,
0001
0000
0000
0000
,
1001
0000
0000
0000
,
1000
0000
0000
0000
,
0001
0000
0000
0000
,
0100
0000
0010
0000
,
0100
0000
0000
0000
,
0001
0000
0000
0000
,
1000
0000
0001
0000
,
0100
0000
0000
0000
,
1001
0000
0000
0000
,
0100
0000
0000
0000
,
0110
0000
0000
0000
,
0001
0000
1000
0000
,
0010
0000
0000
0000
,
0010
0000
1000
0000
,
0001
0000
0000
0000
,
1000
0000
1000
0000
,
0001
0000
0000
0000
,
0100
0000
0000
0000
,
0220
0000
0330
0000
,
0100
0000
0010
0000
,
0100
0000
0000
0000
,
0010
0000
1000
0000
,
0010
0000
0000
0000
,
1000
0000
0001
0000
,
1000
0000
0000
0000
,
0001
0000
0000
0000
,
0101
0000
0000
0000
,
0001
0000
0100
0000
,
0001
0000
0000
0000
,
1000
0000
0001
0000
,
1000
0000
0000
0000
,
0010
0000
0010
0000
,
0100
0000
0000
0000
,
0100
0000
0000
0000
,
1001
0000
0000
0000
,
0001
0000
0000
0000
,
1000
0000
0000
0000
,
0001
0000
0000
0000
,
1000
0000
0100
0000
,
1000
0000
0100
0000
,
1000
0000
0000
0000
,
0001
0000
0000
0000
,
0101
0000
0000
0000
,
0100
0000
0001
0000
,
0100
0000
0000
0000
,
0001
0000
0000
0000
,
0100
0000
0001
0000
,
0100
0000
0001
0000
,
0100
0000
0000
0000
,
0010
0000
0000
0000
,
0220
0000
0330
0000
,
0100
0000
0010
0000
,
0100
0000
0000
0000
,
0001
0000
1000
0000
,
0010
0000
0000
0000
,
1000
0000
0001
0000
,
1000
0000
0000
0000
,
0010
0000
0000
0000
,
0110
0000
0000
0000
,
0100
0000
0001
0000
,
1000
0000
0000
0000
,
0001
0000
0100
0000
,
0001
0000
0000
0000
,
0100
0000
0010
0000
,
0100
0000
0000
0000
,
0010
0000
1000
0000
;

//---------------dance-single - ----------------
#NOTEDATA:;
#CHARTNAME:;
#STEPSTYPE:dance-single;
#DESCRIPTION:;
#CHARTSTYLE:;
#DIFFICULTY:Easy;
#METER:6;
#RADARVALUES:0.328015,0.355754,0.196109,0.032685,0.000000,281.000000,257.000000,24.000000,4.000000,0.000000,0.000000,0.000000,0.000000,0.000000,0.328015,0.355754,0.196109,0.032685,0.000000,281.000000,257.000000,24.000000,4.000000,0.000000,0.000000,0.000000,0.000000,0.000000;
#CREDIT:;
#NOTES:
0000
0000
0000
0000
,
0100
0000
0000
0000
,
0010
0000
1000
0000
,
0001
0100
0001
0000
,
1000
0010
1000
0000
,
0010
0100
0001
0000
,
1000
0100
0020
0000
,
0000
0000
0031
0000
,
0001
1000
0001
0000
,
1001
0000
0100
0000
,
0010
0000
1010
0000
,
0100
0001
1000
0000
,
0100
0001
1000
0001
,
0010
0000
0100
0000
,
1000
0000
1001
0000
,
1000
0100
0010
0000
,
0100
0010
0001
0000
,
1001
0000
0100
0000
,
0010
0000
0100
0000
,
1001
0000
0010
0000
,
0100
1000
0100
0010
,
0001
0000
1000
0000
,
0010
0000
1010
0000
,
0100
0001
0100
0000
,
0001
1000
0001
0100
,
0110
0000
0010
0000
,
1000
0000
1001
0000
,
0001
0100
0010
0000
,
1000
1000
0001
0001
,
1000
0000
0010
0000
,
0100
0000
0101
0000
,
0001
0010
0100
0000
,
0010
0100
1000
0000
,
0110
0000
0010
0001
,
0010
0000
0010
0001
,
0100
0000
0010
0000
,
1000
0000
0001
0000
,
0100
0010
0100
0000
,
0010
0000
1000
0100
,
0010
0000
0010
0001
,
1000
0000
0001
0000
,
1010
0000
0100
0000
,
0001
0000
1001
0000
,
0100
0010
1000
0000
,
0001
0010
0001
0010
,
0001
0000
1000
0000
,
0100
0000
0110
0000
,
0001
0010
0001
0100
,
0001
0000
1000
0001
,
1001
0000
0100
0000
,
0010
0000
0110
0000
,
1000
0100
1000
0000
,
0010
0100
0010
0100
,
0001
0000
1000
0000
,
0001
0000
0101
0000
,
0001
0100
0010
0000
,
1000
0100
0010
0001
,
0011
0000
0001
0000
,
1000
0000
1010
0000
,
0010
0100
0001
0000
,
1000
0100
0010
0001
,
1000
0000
0001
0100
,
0001
1000
0001
0000
,
1000
0100
1000
0000
,
0010
0000
0000
0000
,
0110
0000
0001
0000
,
1000
0000
0020
0000
,
0130
0000
0001
1000
,
0000
1000
0001
0000
,
0100
0000
0010
0100
,
0000
0100
0001
0000
,
1000
0100
1000
0001
,
1000
0000
0001
0000
,
0101
0000
0001
0010
,
0100
0000
2000
0000
,
3001
0000
0100
0000
,
0001
0000
0010
0001
,
0010
0000
1000
0000
,
0010
0001
0010
0001
,
1000
0000
0010
0000
,
0100
0010
0100
0000
,
0110
0000
0010
0000
,
1000
0000
0001
0000
,
1001
0000
0011
0000
,
1000
0001
1000
0001
,
0100
0000
1000
0000
,
0100
0001
1000
0000
,
0100
0001
0100
0000
,
0010
0001
0001
1000
,
1010
0000
0010
0000
,
1000
0100
0010
0000
,
0001
0100
0010
0100
,
0001
1000
0100
0001
,
0100
0000
1000
0010
,
0001
0000
0200
0000
,
0301
0010
0001
1000
,
0100
0010
0100
1000
;

//---------------dance-single - ----------------
#NOTEDATA:;
#CHARTNAME:;
#STEPSTYPE:dance-single;
#DESCRIPTION:;
#CHARTSTYLE:;
#DIFFICULTY:Medium;
#METER:9;
#RADARVALUES:0.426070,0.474338,0.155253,0.220622,0.000000,365.000000,346.000000,19.000000,27.000000,0.000000,0.000000,0.000000,0.000000,0.000000,0.426070,0.474338,0.155253,0.220622,0.000000,365.000000,346.000000,19.000000,27.000000,0.000000,0.000000,0.000000,0.000000,0.000000;
#CREDIT:;
#NOTES:
0000
0000
0000
0000
,
0200
0000
0000
0000
0000
0300
0010
0000
,
0020
0000
2030
0000
,
3001
0000
0100
0000
0001
0000
0000
1000
,
0001
0010
0200
0000
,
1300
0000
0100
0010
0001
0000
1000
0100
,
1000
0100
0020
0002
,
0000
0030
0103
0001
,
1000
1000
0001
0001
,
1001
0000
0000
0000
0100
0000
0010
0100
,
0010
0000
1000
0000
0000
0100
0000
0000
,
0010
0000
0001
0000
0000
1000
0000
0000
,
0100
0000
0010
0000
0000
0001
0000
1000
,
0010
0000
0100
0001
1000
0000
0001
0000
,
1000
0000
0100
0000
0010
0001
0010
0001
,
1000
0100
0010
0002
,
0000
1003
0001
0100
,
0110
0000
0000
0000
0100
0000
0000
0010
,
0100
0001
0100
0010
,
1010
0000
0010
0000
,
1000
0001
0100
0010
,
0200
0000
0310
0000
,
0100
0010
0100
0001
,
0101
0000
0100
0010
,
1000
0001
0010
0100
,
2100
0000
0000
0000
3001
0000
0000
1000
,
0001
0100
0010
1000
,
0101
0000
0001
0000
,
1000
0100
0010
0001
,
2000
0000
3010
0100
,
0100
0010
0010
1000
,
1100
0000
0100
0010
,
0001
0100
1000
0100
,
0002
0000
1003
0001
,
0010
0000
0001
0010
0000
0002
0000
0000
,
0103
0000
0010
1000
0000
2000
0000
0000
,
3010
0000
0100
0001
0000
0200
0000
0000
,
0310
0000
0100
0010
1000
0000
0001
0010
,
0100
1000
0100
0010
,
0011
0000
0001
1000
,
0100
0000
0010
0001
0010
0000
0001
1000
,
0001
0000
0100
0000
,
0010
0000
0100
0001
0000
0200
0000
0000
,
0310
0100
0010
0000
1000
0000
0001
0100
,
0010
0000
0100
0000
0001
0010
0100
0000
,
2000
3000
0001
0100
,
0010
0000
1000
0010
0000
0100
0000
0001
,
0000
1000
0010
1000
0000
0001
0100
0001
,
0000
1000
0000
0010
1000
0000
0001
0000
,
2001
0000
0000
0000
3010
0000
0000
0100
,
0010
1000
0001
0100
,
1000
0100
0001
0000
,
1000
0010
0100
0001
,
1000
0000
0000
0010
1000
0000
0001
0000
,
0100
0010
0100
0020
,
0100
0030
0100
0001
,
1000
0100
0010
0001
,
2000
0000
3010
0100
,
0001
0001
1000
0100
,
1000
0000
0000
0000
0010
0100
0010
0000
,
0100
0001
1001
0100
,
1010
0000
0100
0001
,
0010
0100
1000
0002
,
0100
0003
0100
0010
,
0100
0001
1000
0000
,
0001
0000
0100
0001
0100
0000
0001
0000
,
1000
0110
0010
0000
,
1000
0000
0001
0100
0001
0000
1000
0000
,
0000
0100
0000
0000
0010
0000
0001
0000
,
1000
0000
0001
0100
0000
0010
0000
0000
,
1000
0000
0001
0100
0000
0001
0000
0000
,
1001
0001
0100
0020
,
0000
1030
0001
1000
,
1100
0001
1000
0001
,
0200
0000
0310
0000
,
0100
0010
1000
0002
,
0000
1000
0003
0000
1000
0000
0001
0100
,
0001
0000
1000
0000
,
0010
0100
0001
2000
,
0000
3000
0001
0100
,
0000
0100
0001
1000
,
0110
0000
0000
0000
0100
0000
0000
0010
,
1000
0001
0001
0100
,
0101
0000
0010
0000
,
1000
0001
0100
0001
,
0020
0000
0130
0000
,
1000
0001
0010
0100
,
1100
0000
0100
0000
,
0010
0001
1000
0001
,
0110
0000
0000
0000
0010
0000
0000
1000
,
0001
0100
0001
1000
,
0020
0000
0130
0000
,
0001
1000
0010
0100
,
0101
0000
0100
0001
,
1000
0100
0010
0002
,
0100
0003
0100
0001
,
0100
0001
1000
0001
;

//---------------dance-single - ----------------
#NOTEDATA:;
#CHARTNAME:;
#STEPSTYPE:dance-single;
#DESCRIPTION:;
#CHARTSTYLE:;
#DIFFICULTY:Hard;
#METER:12;
#RADARVALUES:0.570817,0.592923,0.179766,0.187938,0.000000,489.000000,467.000000,22.000000,23.000000,0.000000,0.000000,0.000000,0.000000,0.000000,0.570817,0.592923,0.179766,0.187938,0.000000,489.000000,467.000000,22.000000,23.000000,0.000000,0.000000,0.000000,0.000000,0.000000;
#CREDIT:;
#NOTES:
// measure 0
0000
0000
0000
0000
,  // measure 1
0200
0000
0310
1000
,  // measure 2
0020
0000
2030
0001
,  // measure 3
3001
0000
0100
0000
0001
0000
1000
0001
,  // measure 4
1000
0010
0020
0100
,  // measure 5
1030
0000
0100
0010
0001
0000
1000
0100
,  // measure 6
0010
0100
0010
0002
,  // measure 7
0000
0000
0103
0001
,  // measure 8
1000
0000
0001
0100
0010
0000
0100
0010
,  // measure 9
1010
0000
0000
0000
0100
0000
0001
0100
,  // measure 10
0010
0000
1000
0000
0100
0010
0000
0000
,  // measure 11
0001
0010
0001
0000
1000
0001
0000
1000
,  // measure 12
0100
0000
1000
0000
0001
0100
0010
1000
,  // measure 13
0010
0000
0100
0001
1000
0000
0001
0100
,  // measure 14
0010
0000
1000
0000
0010
0100
0010
1000
,  // measure 15
0001
0000
0100
0000
0010
0010
0100
0010
,  // measure 16
0000
1000
0001
1000
,  // measure 17
0220
0000
0330
0000
0100
0000
0000
0010
,  // measure 18
0100
0001
1000
0100
,  // measure 19
1000
0010
0000
0000
0010
0100
0001
0000
,  // measure 20
1000
0000
0001
0000
0100
0000
0010
0100
,  // measure 21
0001
0001
1000
0000
0010
0000
0100
0010
,  // measure 22
1000
0000
0010
0100
0001
0000
0001
0000
,  // measure 23
0100
0001
0000
0000
0100
0010
0000
0010
,  // measure 24
1000
0000
0001
0010
0100
0000
0010
0100
,  // measure 25
2000
0000
0000
0000
3001
0000
1000
0001
,  // measure 26
1000
0010
0100
0001
,  // measure 27
0100
0010
0000
0000
1000
0000
0010
1000
,  // measure 28
0010
0000
0100
0000
0010
0000
0001
0010
,  // measure 29
2000
0000
0000
0000
3100
0000
0010
0001
,  // measure 30
1000
0000
0010
0100
0001
0000
1000
0000
,  // measure 31
1000
1010
0000
0000
0100
0010
0000
0100
,  // measure 32
0001
0000
0100
0001
1000
0000
0100
0000
,  // measure 33
0011
0000
0000
0000
1000
0000
0001
0010
,  // measure 34
0001
0000
1000
0100
0001
0200
0000
0300
,  // measure 35
0010
0001
1000
0000
0010
2000
0000
0000
,  // measure 36
3010
0100
0001
0000
1000
0020
0000
0000
,  // measure 37
0130
0000
0100
0010
1000
0000
0001
0010
,  // measure 38
0100
1100
0011
1000
,  // measure 39
0002
0000
0000
0000
0103
0010
0000
1000
,  // measure 40
0000
0001
0100
0001
0010
0000
0010
0100
,  // measure 41
1000
0000
0001
0000
0100
0000
0010
0100
,  // measure 42
0010
0000
0100
0001
0100
0010
0000
0010
,  // measure 43
0101
0001
1000
0000
1000
0000
0001
0100
,  // measure 44
0010
1000
0001
0000
2000
0000
3010
0100
,  // measure 45
0020
0000
0000
0000
0130
0000
0001
1000
,  // measure 46
0001
0000
1000
0010
0000
0100
0000
0010
,  // measure 47
1000
0100
0010
0100
0000
0010
0001
0100
,  // measure 48
0000
0010
0000
1000
0001
0000
1000
0000
,  // measure 49
0001
0100
0000
0100
0001
0000
1000
0010
,  // measure 50
0100
0000
0001
0000
0100
0010
0100
0000
,  // measure 51
1000
0010
0100
0000
0001
0000
1000
0100
,  // measure 52
1000
0000
0010
0000
0110
0000
0001
1000
,  // measure 53
0001
1000
0000
0010
2000
0000
0001
0000
,  // measure 54
3010
0000
0100
0010
0110
0000
0001
0000
,  // measure 55
0100
0010
0000
0000
1000
0001
0000
0001
,  // measure 56
1000
0010
0100
0010
,  // measure 57
1000
0100
0000
0000
1000
0000
0100
0000
,  // measure 58
0001
0001
0100
1000
,  // measure 59
0010
0000
0001
0000
0010
0100
0010
0000
,  // measure 60
0100
0001
1000
0000
0001
0000
0100
0010
,  // measure 61
0110
0000
0000
0000
0001
0000
1000
0010
,  // measure 62
1000
0100
0010
0002
,  // measure 63
0103
0010
0000
0000
0100
0010
0000
1000
,  // measure 64
0001
0001
1001
1000
,  // measure 65
0101
0000
0100
0010
0100
0000
0001
0000
,  // measure 66
1000
0100
0010
0100
1000
0000
0000
0000
,  // measure 67
0001
0100
0010
0100
0010
0000
1000
0000
,  // measure 68
0100
0010
0000
0100
0010
0000
0001
1000
,  // measure 69
0001
0000
0001
0100
0000
0001
0000
0001
,  // measure 70
1000
0000
0100
1000
0000
0100
0000
0000
,  // measure 71
1000
0100
1000
0000
0010
1000
0010
1000
,  // measure 72
1000
0100
0010
0000
0001
0000
1000
0100
,  // measure 73
1000
0000
0001
0000
0100
0000
0010
0100
,  // measure 74
0000
0100
0001
0000
1000
0000
0000
0000
,  // measure 75
0110
0000
0010
0000
1000
0000
0001
0100
,  // measure 76
0000
0100
0002
0000
1000
0000
1003
0010
,  // measure 77
1010
0000
0100
0000
0101
0000
0010
0100
,  // measure 78
0010
0010
0100
0001
,  // measure 79
2000
0000
0000
0000
3001
1000
0000
0001
,  // measure 80
0000
1000
0000
0000
0001
0000
0100
0000
,  // measure 81
0220
0000
0330
0000
1000
0000
0000
0100
,  // measure 82
0010
0001
1000
0100
,  // measure 83
1000
1001
0000
0000
0010
0100
0010
1000
,  // measure 84
0001
0000
1000
0000
0100
0000
0010
0001
,  // measure 85
1000
0001
1000
0000
0010
0000
0010
0100
,  // measure 86
0001
0000
1000
0100
0010
0000
0010
0100
,  // measure 87
1000
0100
0010
0000
0001
0011
0000
0001
,  // measure 88
1000
0000
0100
0010
0100
0000
0010
0100
,  // measure 89
0020
0000
0000
0000
0031
0000
1000
0001
,  // measure 90
1000
0100
0010
0001
,  // measure 91
0100
0010
0000
0000
1000
0000
0001
1000
,  // measure 92
0010
1000
0001
0000
0100
0000
1000
0100
,  // measure 93
0002
0000
0000
0000
0103
0000
0010
1000
,  // measure 94
1010
0000
0010
0100
0101
0000
1000
0000
,  // measure 95
0001
0101
0000
0000
0100
0010
0000
0110
,  // measure 96
0000
1000
0001
0000
0100
0010
0100
0000
;
