#TITLE:DA DA DA DANCING!!;
#SUBTITLE:;
#ARTIST:TOMO-crew;
#TITLETRANSLIT:;
#SUBTITLETRANSLIT:;
#ARTISTTRANSLIT:;
#GENRE:DISCO FEVER;
#CREDIT:;
#BANNER:TOMO-crew - DISCO FEVER DA DA DANCING!! [pop n music].png;
#BACKGROUND:;
#LYRICSPATH:;
#CDTITLE:;
#MUSIC:DA_DA_DA_DANCING!!.ogg;
#OFFSET:-0.419000;
#SAMPLESTART:8.089000;
#SAMPLELENGTH:21.000000;
#SELECTABLE:YES;
#BPMS:0.000000=124.999992
;
#STOPS:
;
#BGCHANGES:;
#KEYSOUNDS:;
#ATTACKS:;

//---------------dance-single - ----------------
#NOTES:
     dance-single:
     :
     Beginner:
     1:
     0.074396,0.124676,0.132399,0.035306,0.000000,59.000000,44.000000,15.000000,4.000000,0.000000,0.000000,0.074396,0.124676,0.132399,0.035306,0.000000,59.000000,44.000000,15.000000,4.000000,0.000000,0.000000:
0000
0000
0000
0000
,
0000
0000
0000
0000
,
0000
0000
0000
0000
,
0000
0000
0000
0000
,
1001
0000
0000
0000
,
1000
0000
0000
0000
,
1001
0000
0000
0000
,
0001
0000
0000
0000
,
1001
0000
0000
0000
,
0100
0000
0000
0000
,
1001
0000
0000
0000
,
0010
0000
0000
0000
,
0110
0000
0000
0000
,
0100
0000
0000
0000
,
0110
0000
0000
0000
,
0100
0000
0000
0000
,
0110
0000
0000
0000
,
0010
0000
0000
0000
,
0010
0000
0000
0000
,
0010
0000
0000
0000
,
1001
0000
0000
0000
,
1000
0000
0000
0000
,
1000
0000
0000
0000
,
1000
0000
0000
0000
,
0001
0000
0000
0000
,
0001
0000
0000
0000
,
0001
0000
0000
0000
,
0000
0000
0000
0000
,
1001
0000
0000
0000
,
0001
0000
0000
0000
,
0001
0000
0000
0000
,
0000
0000
0000
0000
,
1001
0000
0000
0000
,
0000
0000
0000
0000
,
1100
0000
0000
0000
,
0000
0000
0000
0000
,
1000
0000
0000
0000
,
1000
0000
0000
0000
,
1000
0000
0000
0000
,
0000
0000
0000
0000
,
0001
0000
0000
0000
,
0000
0000
0000
0000
,
1001
0000
0000
0000
,
0001
0000
0000
0000
,
1001
0000
0000
0000
,
0001
0000
0000
0000
,
1001
0000
0000
0000
,
1000
0000
0000
0000
,
1001
0000
0000
0000
,
1000
0000
0000
0000
,
0002
0000
0003
0000
,
0000
0000
0000
0000
,
0200
0000
0300
0000
,
0000
0000
0000
0000
,
0020
0000
0030
0000
,
0000
0000
0000
0000
,
2000
0000
3000
0000
;

//---------------dance-single - ----------------
#NOTES:
     dance-single:
     :
     Easy:
     5:
     0.211838,0.296574,0.282451,0.141225,0.000000,168.000000,136.000000,32.000000,16.000000,0.000000,0.000000,0.211838,0.296574,0.282451,0.141225,0.000000,168.000000,136.000000,32.000000,16.000000,0.000000,0.000000:
0000
0000
0000
0000
,
0000
0000
0000
0000
,
0000
0000
0000
0000
,
0000
0000
0000
0000
,
1001
0000
1000
0000
,
0001
0100
0001
0000
,
0101
0000
1010
0000
,
1000
0100
1000
1000
,
0010
0000
0100
0000
,
0001
0100
0001
0000
,
0101
0000
1100
0000
,
1000
0100
1000
1000
,
0001
0000
0100
0000
,
0110
1001
0110
0000
,
0001
0000
1000
0000
,
1001
0110
1001
0000
,
2000
0000
0001
0000
,
0001
3000
0001
0000
,
0002
0000
1000
0000
,
1000
0003
1000
0000
,
0002
0003
0100
0100
,
0200
0300
0010
0010
,
0020
0030
0200
0300
,
0110
0110
0110
0110
,
0220
0330
0000
0000
,
1000
0000
0001
0001
,
1001
0000
1000
0000
,
1000
0000
1000
1000
,
1001
0000
0001
0100
,
0100
0000
0001
0001
,
0011
0000
0100
0000
,
0010
0000
1000
1000
,
1100
0000
0000
0000
,
1000
0000
0001
0100
,
0001
0000
1000
0000
,
0110
0000
1000
0100
,
1000
0100
1000
0000
,
0001
0000
0100
0100
,
0020
0000
0030
0000
,
0100
0000
0000
0110
,
0220
0000
0000
0330
,
0110
1001
0110
1001
,
0110
0000
0001
0000
,
1000
0100
1000
0100
,
2000
3000
0002
0003
,
0100
0010
0100
0100
,
0110
0000
0001
0000
,
1000
0001
1000
0001
,
1000
0000
0002
0003
,
0100
0010
0110
0110
,
1001
0000
0001
0000
,
1000
0000
0001
0100
,
0001
0100
0002
0003
,
2000
3000
0001
0100
,
0001
0000
1000
0000
,
0001
0100
0001
0000
,
0100
0000
0000
0000
;

//---------------dance-single - ----------------
#NOTES:
     dance-single:
     :
     Medium:
     8:
     0.335411,0.377337,0.255971,0.070613,0.000000,266.000000,237.000000,29.000000,8.000000,0.000000,0.000000,0.335411,0.377337,0.255971,0.070613,0.000000,266.000000,237.000000,29.000000,8.000000,0.000000,0.000000:
0000
0000
0000
0000
,
0000
0000
0000
0000
,
0000
0000
0000
0000
,
0000
0000
0000
0000
,
0000
0000
0000
0000
,
0000
0000
0000
0000
,
0000
0000
0000
0000
,
0000
0000
0000
0000
,
1000
0000
0001
1000
0001
0000
0000
0100
,
0000
0100
0000
0010
0100
0000
0010
0100
,
0001
0000
1000
0001
0100
0000
0100
0001
,
0000
0001
1000
0010
1000
0001
0100
0000
,
0010
1000
0010
1000
0000
0000
0000
0001
,
0000
0100
0000
0010
0000
1000
0000
0002
,
0000
0103
0010
0100
0020
0000
0030
1000
,
0000
1001
0000
0001
0100
0000
0101
0000
,
2000
0000
0001
0000
3001
0100
0001
1000
,
0001
0000
1000
0000
0010
0100
0001
0000
,
1100
0000
0100
1000
0002
0000
0103
0100
,
0000
0010
0100
0010
0010
0000
0110
0000
,
0001
0000
1000
0100
1000
0000
0001
0000
,
0101
0000
0001
0010
0100
0000
1000
0000
,
0011
1000
1100
0001
,
0101
0000
0010
0000
1100
0000
0100
0001
,
0100
0000
0000
0001
1000
0001
0000
0100
,
0001
0100
0000
0010
1000
0001
0100
0001
,
2000
3000
0001
0100
0010
0000
0100
0000
,
0010
0110
1001
1001
,
1100
0000
0001
0100
0010
0000
0100
0010
,
1000
0001
0101
1010
,
1001
0000
0001
0010
0100
0000
1000
0100
,
0010
0001
0110
0101
,
1001
0000
0000
0000
0000
0100
0000
0010
,
0000
0100
0010
0100
0010
0000
1000
0000
,
0001
0010
0001
0000
0000
1000
0001
0100
,
0000
0001
0000
1000
0100
0010
0001
0000
,
1000
0100
1000
0000
0000
0001
0010
0001
,
0000
0100
0000
0010
0000
1000
0000
0001
,
0100
0000
0010
0000
0010
0000
0100
0010
,
0100
1001
1100
0011
,
2000
0000
0000
3000
,
0011
0011
1100
1100
,
0011
0000
0001
0000
0100
0000
0000
0100
,
0000
0001
0000
1000
0010
0000
0100
0000
,
0001
0000
1000
0010
0100
0001
0000
0010
,
0000
0001
0100
0001
0000
0100
0010
0000
,
1000
0000
0010
0100
0001
0000
1000
0100
,
0000
0010
0000
0010
0001
0000
0010
0100
,
1000
0000
0001
0100
0010
0100
0001
1000
,
0000
1000
0000
0001
0100
0000
0101
0000
,
1010
0000
0010
0000
2000
3000
0000
0001
,
0000
0001
0000
0001
0100
0000
0001
1000
,
0010
0000
1000
0001
1000
0001
0000
0001
,
0000
0001
0000
0001
0001
0000
0001
0000
,
0001
0000
0001
0000
0001
0000
0000
0001
,
0000
0001
0000
1000
0001
0000
0001
0100
,
0001
0001
0002
0000
,
0003
0000
0000
0000
;

//---------------dance-single - from pop n music 14 FEVER----------------
#NOTES:
     dance-single:
     :
     Hard:
     12:
     0.506899,0.553427,0.326584,0.079439,0.273624,402.000000,365.000000,37.000000,9.000000,0.000000,0.000000,0.506899,0.553427,0.326584,0.079439,0.273624,402.000000,365.000000,37.000000,9.000000,0.000000,0.000000:
// measure 0
0000
0000
0000
0000
,  // measure 1
0000
0000
0000
0000
,  // measure 2
0000
0000
0000
0000
,  // measure 3
0000
0000
0000
0000
,  // measure 4
0000
0000
0000
0000
,  // measure 5
0000
0000
0000
0000
,  // measure 6
0000
0000
0000
0000
,  // measure 7
0000
0000
0000
0000
,  // measure 8
1000
0000
0000
0000
0001
0000
1000
0000
0001
0100
0000
0001
0100
0000
0001
0000
,  // measure 9
0000
0110
0110
0010
0100
0000
0010
1000
,  // measure 10
0010
0000
1000
0001
1000
0000
0001
0000
0101
0000
0000
0000
0100
0000
0010
0000
,  // measure 11
0000
0100
1000
0100
0010
0100
0001
0000
,  // measure 12
0010
0001
0010
1000
0010
0000
0001
0100
,  // measure 13
0000
0010
1000
0010
1010
0000
0100
0010
,  // measure 14
0000
0100
0010
0100
0020
0100
0030
0100
,  // measure 15
0000
0010
0100
0100
0101
0000
1001
0000
,  // measure 16
2000
0000
0001
0000
3001
0010
1000
0010
,  // measure 17
0001
0100
1000
0100
0001
0010
0110
0100
,  // measure 18
2000
0000
0000
3010
0100
0000
0001
0000
0100
0001
0000
0001
0100
0000
0002
0000
,  // measure 19
0003
1000
0100
0001
0100
0000
1100
0000
,  // measure 20
0001
0000
0000
0000
1000
0100
1000
0100
1000
0000
0000
0001
0100
0000
0000
0000
,  // measure 21
0101
0000
0000
0000
0001
0010
0001
0010
0001
0000
0000
0010
0100
0000
0000
0000
,  // measure 22
1100
0000
1000
0010
0110
0000
0001
0100
,  // measure 23
0110
0000
0110
0000
0011
0000
1000
0100
,  // measure 24
0101
0000
0000
0000
1000
0000
0001
0000
1000
0100
1000
0000
0010
0000
0100
0001
,  // measure 25
0100
0000
0010
0000
1000
0000
0010
0100
0001
0000
0000
0000
0110
0000
0000
0001
,  // measure 26
1000
0000
0000
0000
0001
0000
0100
0000
0010
0100
0001
0000
1000
0000
0010
0100
,  // measure 27
0001
0000
0010
0000
0100
0000
1000
0001
0100
0000
0000
0000
0101
0000
0000
0010
,  // measure 28
0100
0000
0000
0000
0001
0000
0100
0000
0010
1000
0010
0000
0100
0000
0010
0100
,  // measure 29
0001
0000
0010
0000
0100
0000
0010
0001
1000
0000
0000
0000
1010
0000
0000
0001
,  // measure 30
0100
0000
0001
0010
0100
1000
1000
0100
,  // measure 31
0010
0011
0000
0110
0110
0000
2000
3000
,  // measure 32
0001
0000
0100
0010
0100
0000
0000
0000
0010
0000
0100
0000
0010
0000
0100
0001
,  // measure 33
0010
0000
0100
0000
0010
0000
0100
0000
0010
0000
0001
1000
0001
0000
0000
0000
,  // measure 34
1000
0001
1000
0001
1000
0000
0000
0000
0001
0000
1000
0010
0100
0000
0010
0000
,  // measure 35
0100
0000
0100
0000
0010
0000
1000
0000
0000
0000
0001
0100
0001
0000
0000
0000
,  // measure 36
1000
0010
1000
0010
1000
0000
0000
0000
0001
0000
0010
0001
0010
0000
0001
0000
,  // measure 37
0000
0000
0110
0000
0000
0100
0010
0000
1000
0000
0001
0100
0010
0000
1000
0000
,  // measure 38
0002
0000
1003
0010
0100
0010
1000
0020
,  // measure 39
0030
0100
0110
0110
1001
0000
0001
0010
,  // measure 40
0200
0000
1300
0100
1000
0000
0000
0000
,  // measure 41
0011
0000
0000
0010
0001
0000
1000
0100
0010
0000
0001
0010
0100
0000
1000
0100
,  // measure 42
1000
0000
0000
0000
0001
0000
0010
0000
0100
0000
1000
0000
0000
0000
0100
0010
,  // measure 43
0001
0000
1000
0000
1100
0000
1100
0000
0011
0000
0000
0000
0100
0000
0001
0100
,  // measure 44
0010
0000
0000
0000
1000
0001
0010
0000
0001
0010
0001
0000
0000
0000
1000
0000
,  // measure 45
0100
0010
0100
0001
0100
0000
1100
0000
,  // measure 46
1000
0000
0001
0100
0010
0000
0100
0001
0100
0000
0000
0000
0001
0000
0100
0010
,  // measure 47
1000
0000
0010
0000
0110
0000
0110
0000
0101
0000
0000
0000
1000
0000
0100
0010
,  // measure 48
0001
0000
1000
0000
0001
0100
0000
0001
0100
0000
0001
0000
1000
0000
0100
0000
,  // measure 49
0000
0000
1000
0000
0100
0000
1000
0000
1100
0000
0000
0001
0100
0000
0010
1000
,  // measure 50
0100
0000
0000
0000
0010
0000
0001
1000
0100
0000
0000
0000
1000
0000
0100
0000
,  // measure 51
0010
0000
0011
0000
0000
0000
0001
0000
0100
0000
0000
0100
0001
0000
1000
0010
,  // measure 52
0100
0000
0010
0000
1000
0001
0000
1000
0001
0000
0100
0000
0000
0000
0001
0100
,  // measure 53
0001
0000
1000
0100
1000
0000
0000
0000
0101
0000
0000
0000
0011
0000
0000
0000
,  // measure 54
0001
1000
0100
0001
0100
1000
0000
0001
,  // measure 55
1000
0001
0100
0000
0010
0000
1000
0100
1000
0000
0000
0000
0001
0000
0010
0001
,  // measure 56
0100
0000
0100
0001
0200
0000
0000
0000
,  // measure 57
0300
0000
0000
0000
;
