#TITLE:Cryin';
#SUBTITLE:;
#ARTIST:SASEBO BROTHERS;
#TITLETRANSLIT:;
#SUBTITLETRANSLIT:;
#ARTISTTRANSLIT:;
#GENRE:;
#CREDIT:from pop n music 10 AC / 8 CS;
#BANNER:SASEBO BROTHERS - Cryin'.png;
#BACKGROUND:;
#LYRICSPATH:;
#CDTITLE:Popn_music_10_logo_small.png;
#MUSIC:SASEBO BROTHERS - Cryin'.ogg;
#OFFSET:-0.051000;
#SAMPLESTART:45.540001;
#SAMPLELENGTH:12.000000;
#SELECTABLE:YES;
#BPMS:0.000000=131.871002
;
#STOPS:
;
#BGCHANGES:;
#KEYSOUNDS:;
#ATTACKS:;

//---------------dance-single - ----------------
#NOTES:
     dance-single:
     :
     Beginner:
     2:
     0.114235,0.154217,0.066637,0.028559,0.000000,84.000000,77.000000,7.000000,3.000000,0.000000,0.000000,0.114235,0.154217,0.066637,0.028559,0.000000,84.000000,77.000000,7.000000,3.000000,0.000000,0.000000:
0000
0000
0000
0000
,
0000
0000
0000
0000
,
0000
0000
0000
0000
,
0110
0000
0000
0000
,
0100
0000
0100
0000
,
0110
0000
0000
0000
,
0100
0000
0000
0000
,
0001
0000
0000
0000
,
1000
0000
1000
0000
,
1001
0000
0001
0000
,
1000
0000
0001
0000
,
1000
0000
0001
0000
,
1000
0000
1000
0000
,
1000
0000
0001
0000
,
1000
0000
0001
0000
,
1000
0000
0001
0000
,
1000
0000
1000
0000
,
1000
0000
0000
0000
,
0001
0000
0010
0000
,
0001
0000
0000
0000
,
1000
0000
0100
0000
,
1000
0000
0000
0000
,
1000
0000
0001
0000
,
1000
0000
0000
0000
,
1000
0000
0100
0000
,
1000
0000
0000
0000
,
0001
0000
0100
0000
,
0001
0000
0000
0000
,
1000
0000
1000
0000
,
1000
0000
0000
0000
,
0001
0000
0100
0000
,
0001
0000
0000
0000
,
0001
0000
0000
0000
,
1001
0000
0000
0000
,
1000
0000
1000
0000
,
1000
0000
0000
0000
,
0001
0000
0001
0000
,
1001
0000
0000
0000
,
0001
0000
0000
0000
,
1001
0000
1000
0000
,
0002
0003
0000
0000
,
2000
0000
3000
0000
,
0001
0000
0001
0000
,
1000
0000
0000
0000
,
0100
0000
0000
0000
,
0100
0100
0100
0000
,
0100
0000
0000
0000
,
0110
0000
0000
0000
,
0001
0000
1000
0000
,
0001
0000
1000
0000
,
0001
0000
0000
0000
,
0002
0000
0003
0000
,
0100
0000
0000
0000
,
0100
0000
0000
0000
,
0100
0000
0000
0000
;

//---------------dance-single - ----------------
#NOTES:
     dance-single:
     :
     Easy:
     8:
     0.325025,0.359839,0.114235,0.095195,0.123754,239.000000,227.000000,12.000000,10.000000,0.000000,0.000000,0.325025,0.359839,0.114235,0.095195,0.123754,239.000000,227.000000,12.000000,10.000000,0.000000,0.000000:
// measure 0
0000
0000
0000
0000
,  // measure 1
2001
0000
0000
0000
,  // measure 2
3002
0000
1000
0003
,  // measure 3
2001
0000
0001
0000
,  // measure 4
3001
0000
0001
0011
,  // measure 5
2000
0000
0000
0000
,  // measure 6
3100
0000
0100
0000
,  // measure 7
2000
0000
0000
3000
,  // measure 8
0001
0000
0010
0000
,  // measure 9
0001
0000
0000
0000
0010
0000
0000
0100
0000
0000
0000
0000
1000
0000
0001
0000
,  // measure 10
1000
0000
0000
0000
0001
0000
0000
0010
0000
0000
0000
0000
0100
0000
1000
0000
,  // measure 11
0001
0000
0000
0000
1000
0000
0000
0100
0000
0000
0000
0000
0010
0000
0001
0000
,  // measure 12
0010
0000
0000
0000
0100
0000
0000
1000
0000
0000
0000
0000
0001
0000
0010
0000
,  // measure 13
0100
0000
0000
0000
0100
0000
0000
0010
0000
0000
0000
0000
0001
0000
1000
0000
,  // measure 14
0001
0000
0000
0000
0100
0000
0000
0010
0000
0000
0000
0000
1000
0000
0001
0000
,  // measure 15
0100
0000
0000
0000
0010
0000
0000
0100
0000
0000
0000
0000
0001
0000
1000
0000
,  // measure 16
0010
0000
0000
0000
0100
0000
0000
0010
0000
0000
1000
0000
0000
0000
0000
0000
,  // measure 17
0001
0000
0000
0000
0001
0000
0000
1000
0000
0000
0001
0000
1000
0000
0000
0000
,  // measure 18
0001
0000
0100
0000
0001
0000
0000
0100
0000
0000
0000
0000
0001
0000
0000
0000
,  // measure 19
1001
0000
0000
0000
1000
0000
0000
0001
0000
0000
1000
0000
0010
0000
0000
0000
,  // measure 20
1000
0010
1000
0000
1000
0100
0001
0000
,  // measure 21
0100
0000
0010
0000
0001
0000
0000
0010
0000
0000
0000
0000
0001
0000
0000
0000
,  // measure 22
0100
0000
0010
0000
0100
0000
0000
0010
0000
0000
0000
0000
0100
0000
0000
0000
,  // measure 23
0110
0000
0000
0000
1000
0000
0000
0000
0001
0000
0000
1000
0000
0000
0001
0000
,  // measure 24
1000
1000
0001
0001
,  // measure 25
0101
0000
0000
0000
0001
0000
0000
0100
0000
0000
0000
0000
0001
0000
0010
0000
,  // measure 26
0001
0000
0000
0000
0010
0000
0000
0100
0000
0000
0000
0000
1000
0000
0100
0000
,  // measure 27
1000
0000
0000
0000
0001
0000
0000
0100
0000
0000
0001
0000
0010
0000
0000
0000
,  // measure 28
0100
0000
1000
0000
0100
0010
0100
0000
,  // measure 29
0010
0000
0000
0000
0001
0000
0000
1000
0000
0000
0001
0000
0100
0000
0000
0000
,  // measure 30
0010
0000
0100
0000
0010
0000
0000
0100
0000
0000
0000
0000
0010
0000
0000
0000
,  // measure 31
0100
0000
0010
0000
0100
0000
0000
0100
0000
0000
0000
0000
0010
0000
0100
0000
,  // measure 32
0010
0000
0000
0000
1000
0000
0000
0000
0001
0000
0000
1000
0000
0000
0000
0000
,  // measure 33
0001
1000
1010
0100
,  // measure 34
0001
0000
0010
0100
0010
0000
0010
0100
,  // measure 35
0010
0001
1000
0001
,  // measure 36
1000
0000
0100
0010
0100
0000
0100
0010
,  // measure 37
0100
1000
0010
0100
,  // measure 38
0001
0000
1000
0001
0000
0001
1000
0000
,  // measure 39
0001
0011
0001
0011
,  // measure 40
0110
0000
1100
0000
0001
0000
1000
0001
,  // measure 41
1000
0000
0001
0000
1000
0000
0010
0100
,  // measure 42
0010
0000
0000
0000
0100
0000
0000
0000
0002
0000
0003
0000
0100
0000
0000
0002
,  // measure 43
0000
0000
0003
0000
0100
0000
0000
0000
0010
0000
0000
0000
1000
0000
0000
0002
,  // measure 44
0000
0003
0001
0000
1000
0000
0010
0000
,  // measure 45
1000
0000
0010
0100
0010
0000
0100
0000
,  // measure 46
0010
0100
0010
1000
0010
0000
0100
0000
,  // measure 47
0200
0000
0000
0000
0300
0000
0000
0000
0001
0000
0000
0000
0001
0000
0000
1000
,  // measure 48
0000
0010
1000
0100
,  // measure 49
0010
0000
0001
0010
0001
0000
1000
0100
,  // measure 50
1000
0000
0100
0001
0200
0000
0000
0000
,  // measure 51
0310
0000
0000
0010
,  // measure 52
0110
0000
0000
0000
0100
0000
0000
0010
0000
0000
0000
0000
0100
0000
0000
0000
,  // measure 53
0010
0000
0000
0000
0010
0000
0000
0100
0000
0000
0000
0000
0001
0000
0000
0000
,  // measure 54
1000
0000
0000
0000
;

//---------------dance-single - ----------------
#NOTES:
     dance-single:
     :
     Medium:
     11:
     0.444699,0.462650,0.247508,0.171352,0.218950,327.000000,301.000000,26.000000,18.000000,0.000000,0.000000,0.444699,0.462650,0.247508,0.171352,0.218950,327.000000,301.000000,26.000000,18.000000,0.000000,0.000000:
0000
0000
0000
0000
,
2001
0000
0001
0000
,
3002
0000
0000
0000
0100
0000
0000
0000
0100
0000
0000
0100
0003
0000
0100
0000
,
2000
0010
0001
0100
,
3100
1000
0000
0100
0001
0000
1000
0000
,
0210
0000
0000
0300
,
0010
0100
0010
0100
0000
0000
0100
0010
0100
0010
0000
0000
,
0201
0000
0001
0300
,
0001
0100
0001
1000
0010
0000
1001
0000
,
1010
0000
0000
0000
0010
0000
0000
0100
0000
0000
0001
0000
1000
0000
0001
0000
,
1001
0000
0000
0000
0001
0000
0000
0100
0000
0000
0010
0000
0100
0000
0001
0000
,
1000
0000
0000
0000
1000
0000
0000
0100
0000
0000
0010
0000
0001
0000
0001
0000
,
1000
0000
0000
0000
0100
0000
0000
1100
0000
0000
0000
0000
1000
0000
0010
0000
,
0100
0000
0000
0000
0010
0000
0000
0100
0000
0000
0001
0000
1000
0000
1000
0000
,
0001
0000
0000
0000
0100
0000
0000
0010
0000
0000
0010
0000
1000
0000
0100
0000
,
0010
0000
0000
0000
0001
0000
0000
1000
0000
0000
0001
0000
0010
0000
0100
0000
,
0110
0000
0000
0000
0010
0000
0000
0010
0000
0000
0000
0010
0000
0000
0010
0000
,
0001
0000
0000
0000
0001
0000
1000
0001
0000
0000
1000
0000
0100
0000
0010
0000
,
0001
0000
0100
0000
0001
0100
0000
0001
0000
0000
0000
0000
1000
0000
0000
0000
,
1100
0000
1000
0000
0100
0000
1000
0100
0000
0000
1000
0000
0010
0000
0100
0000
,
1000
0200
0300
0000
0010
0000
1100
0000
,
0000
0000
1000
0000
0001
0000
0100
0010
0000
0000
0010
0000
0100
0000
0000
0000
,
0100
0000
0010
0000
0100
0010
0000
0100
0000
0000
0000
0000
0010
0000
0010
0000
,
0110
0000
0000
0000
1000
0000
0001
0000
1000
0000
0000
1000
0000
0000
0001
0000
,
1000
0000
0001
0000
1000
0000
0001
0000
0001
0000
0000
0001
0000
0000
0000
0000
,
0101
0000
0001
0000
0001
0000
0100
0001
0000
0000
1000
0000
0001
0000
0010
0000
,
0001
0000
1000
0000
0001
0100
0000
0001
0000
0000
0000
0000
1000
0000
0100
0000
,
1100
0000
0000
0000
1000
0000
0010
0100
0000
0000
0001
0000
0100
0000
0000
0000
,
0100
0001
1000
0000
0001
1000
0100
0000
,
0010
0000
0001
0000
0001
0000
1000
0100
0000
0000
0100
0000
1000
0000
0000
0000
,
0010
0000
0100
0000
0010
0100
0000
0010
0000
0000
0000
0000
0100
0000
0010
0000
,
0100
0000
0010
0000
1000
0000
0000
0100
0000
0000
0010
0000
0000
0001
0000
0200
,
0000
0000
0001
0300
0000
0001
0000
0000
0010
0000
0000
1000
0000
0000
0010
0000
,
0001
0000
1000
0100
0010
0000
0100
0010
,
0001
0000
0000
0000
1000
0000
0000
0100
0000
0000
0010
0000
0001
0000
0100
0000
,
0010
0000
0100
0110
1001
0000
0001
0110
,
2002
0000
3003
0000
0100
0000
0100
0010
,
0100
0000
0001
0100
0010
1000
0001
0010
,
1000
0000
0000
0010
0000
0000
0002
0000
0003
0000
0000
0000
1000
0000
0000
0000
,
0110
0000
0011
0010
0001
0000
1001
1000
,
0010
0000
1100
0100
0010
0000
0001
0000
,
1000
0100
0001
0100
1000
0000
1000
0100
,
0001
0000
0100
0000
1000
0000
0000
0000
0001
0000
0000
0000
0101
0000
0000
0202
,
0000
0000
0303
0000
0100
0000
0000
0010
0100
0000
0000
0000
0001
0000
0000
2000
,
0000
0000
3000
0000
0001
0000
0000
1000
0001
0000
0000
0000
0010
0000
0100
0000
,
1000
0000
0100
0000
0010
0000
0000
0001
0000
0000
0010
0000
0100
0000
0010
0000
,
0001
1000
0200
0300
0010
0000
0100
0001
,
0200
0000
0000
0000
0310
0000
0000
0000
0001
0000
0000
0000
0001
0000
0000
2002
,
0000
3003
0001
0000
1000
0100
0010
0000
,
0001
0001
1000
1000
0000
0100
1000
0100
,
0001
0100
1000
0000
0200
0000
1000
0000
,
0310
0000
0000
0000
0001
0000
0000
0000
0110
0000
0000
0100
0010
0000
0000
0000
,
0110
0000
0000
0000
0100
0000
0000
0010
0000
0000
0100
0000
0001
0000
0010
0000
,
0100
0000
0000
0000
1000
0000
0000
0100
0000
0000
0010
0000
0001
0000
0100
0000
,
1000
0000
0000
0000
;

//---------------dance-single - ----------------
#NOTES:
     dance-single:
     :
     Hard:
     13:
     0.616051,0.616867,0.152313,0.209430,0.509296,453.000000,437.000000,16.000000,22.000000,0.000000,0.000000,0.616051,0.616867,0.152313,0.209430,0.509296,453.000000,437.000000,16.000000,22.000000,0.000000,0.000000:
0000
0000
0000
0000
,
2001
0000
0000
0000
3001
0100
0001
0100
,
0001
0000
0100
0000
0010
0100
0000
0000
0101
0000
0000
0100
0010
0000
0100
0000
,
1020
0000
1030
0100
0010
0100
1000
0001
,
0100
0000
0010
0100
0010
0000
0100
0000
0010
0100
0010
0000
1000
0000
0000
0000
,
0100
0010
0100
0000
0010
0000
0100
0000
0010
0100
0010
0000
0100
0000
0010
0000
,
1000
0100
0010
0001
0100
0010
1000
0010
0100
0001
1000
0001
,
0200
0000
0001
0001
0301
0001
0001
1000
,
0001
0100
0101
1000
0110
0000
1001
0000
,
1010
0000
0000
0000
0010
0000
0100
0010
0000
0000
1000
0000
0100
0000
0010
0000
,
1001
0000
0000
0000
0001
0000
0010
0100
0000
0000
0010
0000
0100
0000
1000
0000
,
0001
0000
0000
0000
1000
0000
0010
0100
0000
0000
0010
0000
0100
0000
0001
0000
,
1000
0000
0100
0000
0100
0000
1000
0100
0000
0000
0010
0000
0001
0000
0010
0000
,
0011
0000
0000
0000
1000
0000
0001
0100
0000
0000
0001
0000
1000
0000
0010
0000
,
0001
0000
0000
0000
0100
0000
0010
0100
0000
0000
0010
0000
1000
0000
0100
0000
,
0010
0000
0100
0000
0010
0000
0001
1000
0000
0000
0001
0000
0010
0000
0001
0000
,
0110
0000
0000
0000
0010
0000
0000
0010
0001
0010
0000
0001
0010
0001
0010
0000
,
0001
0000
1000
0000
0001
0000
1000
0100
0000
0000
1000
0000
0100
0000
0010
0001
,
0010
0000
0001
0000
0100
0001
0000
0100
0000
0000
0010
0000
1000
0000
0100
1000
,
0100
0000
0010
0000
0100
0000
0010
0001
0000
1000
0010
0000
0100
0000
0100
0000
,
0010
0000
0220
0000
0330
0000
0000
0000
0010
0100
0010
0000
0200
0000
0300
0000
,
0001
0000
1000
0000
0001
0000
0100
0010
0000
0010
0100
0000
0100
0000
0010
0000
,
0100
0000
0001
0000
0100
0010
0100
0010
0000
0000
0100
0000
0010
0000
1000
0001
,
1000
0000
0001
0000
1000
0000
0001
0000
0100
0001
0100
0001
0000
0100
0001
0000
,
1000
0000
0001
0000
1000
0100
0010
0100
0010
0000
0100
1000
0100
1000
0010
0100
,
0010
0000
0001
0000
1000
0000
0100
0001
0000
1000
0001
0000
0001
0000
0010
0000
,
0100
0000
1000
0000
0001
0100
0000
0001
0100
0000
0010
0000
1000
0000
0100
0010
,
0100
0000
0010
0000
0001
0000
0010
0100
0000
0000
0010
0000
0100
0000
0010
0000
,
0001
0000
1000
0000
0000
0000
1000
0000
0001
1000
0001
1000
0100
0000
0010
0000
,
0010
0000
0001
0000
1000
0000
1000
0100
0000
0000
0100
0000
1000
0000
0001
0000
,
0010
0000
0100
0000
0010
0100
0000
0010
0100
0000
1000
0001
0100
0000
0010
0000
,
0100
0000
0010
0000
1000
0000
0001
0100
0000
0001
0000
0010
0000
0001
0000
0200
,
0000
0300
0001
0000
0010
0001
0000
0001
0010
0000
0001
0000
1000
0001
1000
0000
,
0002
0000
0003
0000
1000
0001
1000
0001
0010
0000
0000
0000
0100
0000
0010
0000
,
0001
0000
2000
0000
3000
0000
0000
0100
0001
0000
0010
0000
0001
0000
0100
0010
,
0100
0000
0100
0010
1000
0001
1000
0010
,
1000
0000
0100
0000
0010
0000
0010
0000
0001
0010
0001
0000
0100
0000
0010
0000
,
0110
0000
0001
0010
0010
1000
0001
0001
,
0100
0000
0010
0100
0000
0000
0020
0000
0030
0000
0000
0000
1000
0100
0010
0001
,
0000
0000
1000
0010
0002
0003
0010
1000
,
0002
0000
0003
0000
1000
0000
0010
0000
0001
0000
0000
0000
0100
0010
0000
0200
,
0000
0000
0000
0000
0001
0000
0001
0000
0301
0000
1000
0000
0001
1000
0001
0000
,
1000
0001
1000
0001
0000
1000
0001
0000
1000
0000
0000
0000
0101
0000
0000
0202
,
0000
0000
0303
0000
0100
0010
0000
0010
0100
0000
0001
0000
0001
1000
0001
2000
,
0000
0000
3000
0000
0010
0000
0010
1000
0001
0000
0100
0000
0000
0000
0100
0001
,
0100
0000
0001
0000
0010
0000
0001
0010
0000
0000
0010
0000
0010
0000
0100
0000
,
1000
0000
0100
0000
0100
0000
1000
0100
0000
0000
0000
0000
0100
0010
0100
0010
,
0200
0000
0000
0000
0301
0000
0100
0000
0010
0000
1000
0000
0001
0000
0000
2002
,
0000
0000
3003
0000
0001
0000
1000
0001
1000
0000
0100
0010
0100
0000
0010
0000
,
0001
0000
0100
0000
0010
0000
1000
0001
0000
0000
0100
0000
0001
0000
0100
0000
,
0101
0000
0200
0000
0000
0000
0300
0000
0010
0100
0010
0100
0010
1000
0010
1000
,
0020
0000
0000
0000
0030
0000
0000
0000
0100
0000
0000
0100
0010
0000
0100
0010
,
0200
0000
0000
0000
0001
0000
0000
0010
0300
0000
0100
0000
0001
0000
0010
0100
,
0010
0000
0001
0000
1000
0000
1000
0100
0000
0010
0001
0000
0010
0001
0100
0010
,
0100
0000
0000
0000
;
