#TITLE:Come To Life;
#SUBTITLE:;
#ARTIST:Marie Digby;
#TITLETRANSLIT:;
#SUBTITLETRANSLIT:;
#ARTISTTRANSLIT:;
#GENRE:;
#CREDIT:;
#BANNER:;
#BACKGROUND:;
#LYRICSPATH:;
#CDTITLE:;
#MUSIC:Marie Digby - Come-To-Life.ogg;
#OFFSET:-0.138000;
#SAMPLESTART:40.766998;
#SAMPLELENGTH:24.299999;
#SELECTABLE:YES;
#BPMS:0.000000=198.000000
;
#STOPS:
;
#BGCHANGES:;
#KEYSOUNDS:;
#ATTACKS:;

//---------------dance-single - ----------------
#NOTES:
     dance-single:
     :
     Beginner:
     2:
     0.082155,0.156095,0.024647,0.065724,0.000000,70.000000,67.000000,3.000000,8.000000,0.000000,0.000000,0.082155,0.156095,0.024647,0.065724,0.000000,70.000000,67.000000,3.000000,8.000000,0.000000,0.000000:
0000
0000
0000
0000
,
0000
0000
0000
0000
,
0000
0000
0000
0000
,
0000
0000
0000
0000
,
0000
0000
0000
0000
,
0000
0000
0000
0000
,
0000
0000
0000
0000
,
0000
0000
0000
0000
,
0000
0000
0000
0000
,
0100
0000
0000
0000
,
0001
0000
0000
0000
,
1000
0000
0000
0000
,
0001
0000
0000
0000
,
0100
0000
0000
0000
,
0010
0000
0000
0000
,
1000
0000
0000
0000
,
0000
0000
0000
0000
,
0001
0000
0000
0000
,
1000
0000
0000
0000
,
0001
0000
0000
0000
,
1000
0000
0000
0000
,
0010
0000
0000
0000
,
0100
0000
0000
0000
,
0002
0000
0003
0000
,
2000
0000
3000
0000
,
0001
0000
0000
0000
,
1000
0000
0000
0000
,
0001
0000
0000
0000
,
0000
0000
0000
0000
,
1000
0000
0000
0000
,
0001
0000
0000
0000
,
1000
0000
0000
0000
,
2000
0000
3000
0000
,
0001
0000
0000
0000
,
0000
0000
0000
0000
,
0100
0000
0000
0000
,
0010
0000
0000
0000
,
0100
0000
0000
0000
,
0001
0000
0000
0000
,
1000
0000
0000
0000
,
0000
0000
0000
0000
,
0001
0000
0000
0000
,
1000
0000
0000
0000
,
0001
0000
0000
0000
,
0100
0000
0000
0000
,
0001
0000
0000
0000
,
0100
0000
0000
0000
,
0001
0000
0000
0000
,
0000
0000
0000
0000
,
1000
0000
0000
0000
,
0000
0000
0000
0000
,
0002
0000
0003
0000
,
0000
0000
0000
0000
,
0001
0000
0000
0000
,
1000
0000
0000
0000
,
2000
0000
0000
3000
,
0000
0000
0000
0000
,
0001
0000
0000
0000
,
0100
0000
0100
0000
,
0100
0000
0000
0000
,
0001
0000
0000
0000
,
2000
0000
0000
0000
,
3000
0000
0000
0000
,
0001
0000
0000
0000
,
1000
0000
0000
0000
,
1001
0000
0000
0000
,
0000
0000
0000
0000
,
0001
0000
0000
0000
,
0000
0000
0000
0000
,
0110
0000
0000
0000
,
0000
0000
0000
0000
,
0100
0000
0000
0000
,
0001
0000
0000
0000
,
1000
0000
0000
0000
,
0000
0000
0000
0000
,
0001
0000
0000
0000
,
1000
0000
0000
0000
,
0001
0000
0000
0000
,
0000
0000
0000
0000
,
0100
0000
0000
0000
,
0010
0000
0000
0000
,
0100
0000
0000
0000
,
0000
0000
0000
0000
,
0110
0000
0000
0000
,
0000
0000
0000
0000
,
0001
0000
0000
0000
,
1000
0000
0000
0000
,
0001
0000
0000
0000
,
0000
0000
0000
0000
,
1000
0000
0000
0000
,
0000
0000
0000
0000
,
0020
0000
0000
0030
,
0000
0000
0000
0000
,
0200
0000
0000
0000
,
0000
0000
0000
0000
,
0300
0000
0000
0000
;

//---------------dance-single - ----------------
#NOTES:
     dance-single:
     :
     Easy:
     5:
     0.255854,0.312189,0.082155,0.188957,0.000000,218.000000,208.000000,10.000000,23.000000,0.000000,0.000000,0.255854,0.312189,0.082155,0.188957,0.000000,218.000000,208.000000,10.000000,23.000000,0.000000,0.000000:
0000
0000
0000
0000
,
0110
0000
0001
1000
,
0001
0100
0001
0000
,
1000
0010
1000
0010
,
0100
0000
0001
0000
,
1000
0001
0100
0001
,
1000
0000
0010
0000
,
0100
0000
0001
0000
,
1000
0001
1000
0001
,
1000
0000
0001
0000
,
0110
0000
0010
1000
,
0010
0000
0110
0000
,
0001
0000
1000
0001
,
1000
0000
0010
0000
,
0100
0000
0001
0000
,
1000
0001
1000
0000
,
0001
1000
0001
1000
,
0001
0000
2000
0000
,
3001
0000
0200
0000
,
0310
0000
0020
0000
,
0130
0000
0002
0000
,
1003
0000
2000
0000
,
3100
0000
0020
0000
,
0031
0000
0101
0000
,
0001
0000
1000
0000
,
1001
0000
0002
0000
,
1003
0000
2000
0000
,
3010
0000
0020
0000
,
0130
0000
0002
0000
,
0013
0000
0200
0000
,
1300
0000
0010
0000
,
0100
0000
0001
0000
,
1000
0000
0001
0000
,
1000
0000
1000
0000
,
1000
0000
0001
0000
,
1000
0000
0001
0000
,
0001
0000
0001
0000
,
0100
0000
0010
0000
,
1000
0000
0001
0000
,
1000
0000
0001
0000
,
0000
0000
0001
0000
,
1000
0000
0010
0000
,
0100
0001
0100
0000
,
0001
0000
1000
0000
,
0001
1000
0001
0000
,
1000
0000
0100
0000
,
0010
0100
0010
0000
,
0001
0000
1000
0000
,
0001
0000
1000
0000
,
0001
0000
0100
0000
,
0010
0000
1000
0000
,
0002
0000
1003
0000
,
1000
0000
0010
1000
,
0001
0000
1000
0000
,
0010
0000
0100
0000
,
0002
0000
1003
0000
,
0001
0000
0100
0001
,
0100
0000
0010
1000
,
0010
1000
0002
0000
,
0003
1000
0100
1000
,
0010
0000
0200
0000
,
0310
0000
0110
0000
,
0001
0000
1000
0000
,
0001
0000
1000
0000
,
1001
0000
0001
0000
,
2002
0000
3003
0000
,
0001
0000
0100
0001
,
0100
0000
0001
0000
,
1000
0000
0010
0000
,
1010
0000
0100
0000
,
0001
0100
0010
0000
,
1000
0000
0001
0000
,
1000
0100
0010
0000
,
0001
0000
1000
0000
,
0001
0100
0001
0000
,
1000
0000
0001
0000
,
0100
0000
0010
0000
,
0110
0000
1000
0000
,
0001
0100
0001
0000
,
1000
0000
1000
0000
,
0000
0000
0001
0000
,
0001
0000
1000
0000
,
0010
0000
0100
0000
,
0002
0000
0103
0000
,
0010
0000
0010
0000
,
1000
0000
0001
0000
,
1000
0000
0001
1000
,
0002
0000
1003
0000
,
0001
0000
0100
0000
,
0020
0000
0030
0000
,
2000
0000
3000
0000
,
0001
0000
0100
0000
,
0001
0000
1000
0000
,
0002
0000
0000
0000
,
2003
0000
0000
0000
,
3000
0000
0000
0000
;

//---------------dance-single - ----------------
#NOTES:
     dance-single:
     :
     Medium:
     8:
     0.356788,0.429260,0.082155,0.139664,0.000000,304.000000,294.000000,10.000000,17.000000,0.000000,0.000000,0.356788,0.429260,0.082155,0.139664,0.000000,304.000000,294.000000,10.000000,17.000000,0.000000,0.000000:
0000
0000
0000
0000
,
0110
0000
0001
1000
,
0001
0100
0010
1000
,
0001
0010
1000
0010
,
0001
0000
0001
1000
,
0001
0100
0010
1000
,
0001
0000
0010
0001
,
0100
0000
0001
0001
,
1000
1000
0010
0100
,
0001
0000
0000
0000
0001
0000
1000
0010
,
0100
0000
0010
1000
,
1010
0000
0000
0000
0100
0000
0001
0100
,
0010
0000
1000
0010
,
1000
0001
0010
0001
,
0100
0010
0200
0300
,
0010
0000
1010
0000
,
1000
0001
1000
0010
,
0100
0000
2000
0000
,
3010
0000
0200
0001
,
0301
0000
0020
0000
,
0031
0000
0200
0010
,
0310
0000
1000
0001
,
2000
3000
0010
0100
,
0020
0000
0030
0000
0100
0000
0001
0100
,
0001
0000
0000
0000
1000
0000
1000
0010
,
1000
0000
0200
0000
,
0310
0000
2000
0100
,
3100
0000
0002
0000
,
0013
0000
2000
0001
,
3001
0000
0100
0010
,
0100
0001
1000
0010
,
0100
0000
0001
0100
,
0001
0000
0100
0001
0100
0000
0000
0000
,
0010
0000
1000
0000
,
1000
0000
0001
0100
,
0001
0000
0100
0010
,
1000
0000
0001
0100
0001
0000
1000
0000
,
0010
0000
0100
0010
,
1000
0000
0001
0010
0100
0000
0000
0000
,
1000
0001
0001
0000
,
0001
1000
1000
0000
,
1000
0000
0110
0000
,
0100
0001
1000
0100
,
0001
0000
0100
0000
,
1000
0001
0100
0010
,
1000
0000
0110
0000
,
0010
0001
1000
0100
,
0010
0000
0001
0000
,
1000
0010
1000
0000
,
0001
0000
0100
0010
0100
0000
0000
0000
,
0100
0000
0010
0100
0010
0000
0000
0000
,
1000
0001
1000
0000
,
1000
0000
0110
0010
,
0001
0000
0000
0000
1000
0000
0010
0100
,
0010
0000
0000
0000
0001
0000
0100
0010
,
0100
0000
1000
0000
,
0001
0100
0010
1000
,
0100
0010
0010
0001
,
0010
0100
0200
0000
,
0300
1000
0100
1000
,
0100
0100
0020
0000
,
0031
0000
0101
0000
,
0001
1000
0001
0000
,
1000
0000
0001
0000
,
1001
0000
0010
0000
,
0110
0000
0100
0000
,
0001
0000
1000
0000
0100
0000
1000
0100
,
1000
0000
0001
0000
,
1000
0000
0001
0000
0100
0000
0001
0010
,
0001
0000
0100
0000
,
0010
0000
1000
0000
0010
0000
0100
0001
,
0010
0000
0001
1000
,
1000
0000
0010
0100
,
0010
0000
1000
0000
,
0001
0000
0100
0000
0010
0000
1000
0010
,
0100
0000
0001
0000
,
0100
0000
0010
0000
0100
0000
0001
1000
,
0010
0000
1000
0010
,
0100
0000
0001
0000
0100
0000
0010
0100
,
0010
0000
1000
0000
0001
0000
1000
0001
,
1000
0001
0100
0100
,
0101
0000
1000
0000
,
0010
0100
0001
0000
,
0001
0000
0100
0100
,
0010
0000
0010
0010
,
1000
0000
0001
0100
,
1000
0000
0001
0000
,
1000
0000
0100
0010
,
0001
0000
0100
0000
,
0020
0000
0130
0000
,
2000
0000
3001
0000
,
0001
0100
0001
0000
,
0010
0100
0010
0000
,
0002
0000
1000
0000
,
2003
0000
0000
0000
,
3000
0000
0000
0000
;

//---------------dance-single - ----------------
#NOTES:
     dance-single:
     :
     Hard:
     10:
     0.427206,0.546331,0.156095,0.279327,0.004108,364.000000,345.000000,19.000000,34.000000,0.000000,0.000000,0.427206,0.546331,0.156095,0.279327,0.004108,364.000000,345.000000,19.000000,34.000000,0.000000,0.000000:
// measure 0
0000
0000
0000
0000
,  // measure 1
0110
0000
0000
0000
0001
1000
0000
0001
,  // measure 2
0000
0100
0000
0010
0000
1000
0000
0002
,  // measure 3
0000
0000
0013
0000
0100
0000
0010
0100
,  // measure 4
0000
1000
0000
0000
0001
0000
1000
0001
,  // measure 5
0000
0010
0000
0100
0000
0000
0010
0001
,  // measure 6
0010
0001
0010
0200
,  // measure 7
0300
1000
0010
0100
,  // measure 8
0001
0001
0100
0010
,  // measure 9
1001
0000
0000
0000
1000
0010
0000
0100
,  // measure 10
0000
0001
0000
1000
0000
0000
1000
0200
,  // measure 11
0000
0300
0010
0000
0001
0000
1000
0001
,  // measure 12
0000
0001
1000
0000
0010
0000
0100
0010
,  // measure 13
0000
0100
0000
0001
0000
0000
0010
0001
,  // measure 14
0010
0001
0010
0200
,  // measure 15
0000
0300
1000
1010
,  // measure 16
1000
0101
0001
0010
,  // measure 17
0110
0000
2000
0000
,  // measure 18
3002
0000
0203
0000
,  // measure 19
0310
0000
2000
0000
,  // measure 20
3020
0000
0230
0000
,  // measure 21
0301
0000
1000
0010
,  // measure 22
2000
3000
0010
0100
,  // measure 23
0110
0000
0100
0001
,  // measure 24
0100
0000
0100
0010
0000
0000
1000
0000
,  // measure 25
0001
0000
0200
0000
,  // measure 26
0302
0000
2003
0000
,  // measure 27
3100
0000
0200
0000
,  // measure 28
0310
0010
0002
0000
,  // measure 29
1003
0000
0100
0010
,  // measure 30
0100
0010
0001
0010
,  // measure 31
0000
0100
0000
1000
,  // measure 32
0001
0000
0100
0001
0000
0100
0001
0000
,  // measure 33
1000
0000
0000
0000
1000
0000
0010
0100
,  // measure 34
0010
0000
0100
0010
0000
0010
1000
0000
,  // measure 35
0001
0000
0000
0000
0101
0000
0001
0100
,  // measure 36
0010
0000
0000
0010
0000
0000
1000
0000
,  // measure 37
0100
0000
0010
0001
,  // measure 38
1000
0000
0001
0010
0000
0000
0100
0000
,  // measure 39
1000
0000
0000
0001
0000
0100
0000
0002
,  // measure 40
0000
0003
0000
1000
0000
1000
0100
0000
,  // measure 41
1000
0000
0010
0000
0100
0000
0001
0100
,  // measure 42
0001
0000
1000
0100
0000
0100
0010
0000
,  // measure 43
0001
0000
1000
0010
,  // measure 44
0100
0000
0001
0100
0000
0100
0001
0000
,  // measure 45
1000
0000
0000
0000
0110
0000
0010
0100
,  // measure 46
0010
0000
0100
0001
0000
1000
0001
0000
,  // measure 47
0100
0000
0000
0001
0000
1000
0000
0020
,  // measure 48
0000
0030
0000
0100
0000
0100
0010
0000
,  // measure 49
1000
0000
0000
0010
0000
0010
0200
0000
,  // measure 50
0300
0000
0000
0001
0000
0001
2000
0000
,  // measure 51
0000
0000
3000
0001
0000
1000
0000
0002
,  // measure 52
0000
0003
0000
0100
0000
0010
0100
0000
,  // measure 53
0001
0000
0000
1000
0000
0001
2000
0000
,  // measure 54
3000
0000
0000
0001
0000
0100
0002
0000
,  // measure 55
0100
0000
0003
0000
0000
1000
0000
0001
,  // measure 56
0000
0000
0000
0100
0000
0010
1000
0000
,  // measure 57
0100
0100
0110
0001
,  // measure 58
0011
0100
2000
0000
,  // measure 59
3001
1000
1100
0100
,  // measure 60
0010
0001
0012
0000
,  // measure 61
1003
0000
0100
0000
,  // measure 62
0010
0001
1010
1000
,  // measure 63
0010
0000
0000
0000
0000
0000
0000
0100
0000
0000
0000
0000
0001
0000
0000
0000
,  // measure 64
1000
0000
0000
0001
0000
0000
0100
0000
,  // measure 65
0110
0000
0000
0000
0100
0000
0010
0100
,  // measure 66
0010
0000
1000
0100
0000
0100
0010
0000
,  // measure 67
0001
0000
0000
0000
0001
0000
1000
0010
,  // measure 68
1000
0000
0001
0100
0000
0000
0001
0000
,  // measure 69
0101
0000
0000
0000
0100
0000
0010
0001
,  // measure 70
0010
0000
0000
1000
0000
0010
0100
0000
,  // measure 71
0011
0000
0000
0001
0000
1000
0000
0002
,  // measure 72
0000
0003
0000
0100
0000
0010
0100
0000
,  // measure 73
0110
0000
1000
1000
,  // measure 74
0001
0000
0100
0010
0000
0010
1000
0000
,  // measure 75
0100
0010
0001
1000
,  // measure 76
0100
0000
0010
0100
0000
0010
0001
0000
,  // measure 77
1001
0000
0000
0000
1000
0000
0001
0010
,  // measure 78
0100
0000
0010
0001
0000
0010
0001
0000
,  // measure 79
0010
0000
0000
0010
0000
0100
0000
2000
,  // measure 80
0000
3000
0000
0001
0000
0100
0001
0000
,  // measure 81
0101
0000
0000
1000
0000
0010
0100
0000
,  // measure 82
0010
0000
0000
0100
0000
0001
0100
0000
,  // measure 83
0002
0000
0003
0100
0000
0010
0000
0200
,  // measure 84
0000
0300
0000
0010
0000
0010
0100
0000
,  // measure 85
0001
0000
0000
0001
0000
1000
0100
0000
,  // measure 86
1000
0000
0000
1000
0000
0001
0010
0000
,  // measure 87
0002
0000
0000
0100
0003
0100
0000
0020
,  // measure 88
0000
0000
0030
0100
0000
0010
1000
0000
,  // measure 89
0010
0100
0010
0000
0100
0010
0100
0000
,  // measure 90
0010
0100
0010
0000
1000
0100
1000
0100
,  // measure 91
0010
0000
0001
0010
0001
0000
0010
0001
,  // measure 92
0010
0000
0001
0010
0100
0010
0100
0000
,  // measure 93
2000
0000
0000
0000
,  // measure 94
3200
0000
0320
0000
,  // measure 95
0030
0000
0000
0000
;
