#TITLE:Cold World;
#SUBTITLE:;
#ARTIST:Quincy Jagher;
#TITLETRANSLIT:;
#SUBTITLETRANSLIT:;
#ARTISTTRANSLIT:;
#GENRE:;
#CREDIT:;
#BANNER:;
#BACKGROUND:;
#LYRICSPATH:;
#CDTITLE:;
#MUSIC:Quincy-Jagher - Cold World-RnB.ogg;
#OFFSET:-0.095000;
#SAMPLESTART:34.415001;
#SAMPLELENGTH:20.500000;
#SELECTABLE:YES;
#BPMS:0.000000=111.834000
;
#STOPS:
;
#BGCHANGES:;
#KEYSOUNDS:;
#ATTACKS:;

//---------------dance-single - ----------------
#NOTES:
     dance-single:
     :
     Beginner:
     1:
     0.053868,0.067097,0.000000,0.059149,0.000000,51.000000,51.000000,0.000000,8.000000,0.000000,0.000000,0.053868,0.067097,0.000000,0.059149,0.000000,51.000000,51.000000,0.000000,8.000000,0.000000,0.000000:
0000
0000
0000
0000
,
0000
0000
0000
0000
,
0000
0000
0000
0000
,
0100
0000
0000
0000
,
0010
0000
0000
0000
,
1000
0000
0000
0000
,
0001
0000
0000
0000
,
1000
0000
0000
0000
,
0002
0000
0003
0000
,
1000
0000
0000
0000
,
2000
0000
3000
0000
,
0001
0000
0000
0000
,
1000
0000
0000
0000
,
0001
0000
0000
0000
,
1000
0000
0000
0000
,
0010
0000
0000
0000
,
2000
0000
0000
0000
,
3000
0000
0000
0000
,
0001
0000
0000
0000
,
0001
0000
0000
0000
,
0001
0000
0000
0000
,
1000
0000
0000
0000
,
1000
0000
0000
0000
,
0000
0000
0000
0000
,
0002
0000
0000
0000
,
0003
0000
0000
0000
,
0100
0000
0000
0000
,
0100
0000
0000
0000
,
0010
0000
0000
0000
,
0100
0000
0000
0000
,
0001
0000
0000
0000
,
0000
0000
0000
0000
,
1000
0000
0000
0000
,
0001
0000
0000
0000
,
0100
0000
0000
0000
,
0010
0000
0000
0000
,
1000
0000
0000
0000
,
0001
0000
0000
0000
,
0002
0000
0003
0000
,
1000
0000
0000
0000
,
0002
0000
0000
0000
,
0003
0000
0000
0000
,
1000
0000
0000
0000
,
0001
0000
0000
0000
,
1000
0000
0000
0000
,
0001
0000
0000
0000
,
0100
0000
0000
0000
,
0000
0000
0000
0000
,
0010
0000
0000
0000
,
0010
0000
0000
0000
,
0020
0000
0000
0000
,
0030
0000
0000
0000
,
1000
0000
0000
0000
,
0100
0000
0000
0000
,
1000
0000
0000
0000
,
0001
0000
0000
0000
,
0001
0000
0000
0000
,
1000
0000
0000
0000
,
0010
0000
0000
0000
,
0100
0000
0000
0000
,
0002
0000
0003
0000
;

//---------------dance-single - ----------------
#NOTES:
     dance-single:
     :
     Easy:
     3:
     0.138366,0.180404,0.044362,0.096117,0.000000,131.000000,125.000000,6.000000,13.000000,0.000000,0.000000,0.138366,0.180404,0.044362,0.096117,0.000000,131.000000,125.000000,6.000000,13.000000,0.000000,0.000000:
0000
0000
0000
0000
,
0000
0000
0000
0000
,
0000
0000
0000
0000
,
0100
0000
0001
0000
,
0010
0000
0100
0000
,
1000
0000
0100
0000
,
0001
0000
0010
0000
,
0001
0000
0000
0000
,
1000
0000
0001
0000
,
1000
0000
0100
0000
,
1000
0000
0001
0000
,
0001
0000
0100
0000
,
1000
0000
0000
0000
,
0001
0000
0010
0000
,
1000
0000
0000
0000
,
0010
0000
0010
0000
,
0200
0000
0301
0000
,
0002
0000
1003
0000
,
0001
0000
0100
0000
,
0001
0000
1000
0000
,
0001
0000
1001
0000
,
1000
0000
1001
0000
,
2000
0000
3001
0000
,
0001
0000
0000
0000
,
0002
0000
0103
0000
,
0200
0000
0310
0000
,
2000
0000
3001
0000
,
0100
0000
0010
0000
,
0100
0000
0001
0000
,
1000
0000
1001
0000
,
0001
0000
0110
0000
,
0100
0000
0010
0000
,
0100
0000
0001
1000
,
0001
0000
1000
0001
,
1000
0000
0001
0010
,
0001
0000
0001
0010
,
0001
0000
1000
0000
,
0001
0000
0101
0000
,
1000
0001
1000
0000
,
0001
0100
0001
0000
,
0002
0000
0000
0000
,
2003
0000
0000
0000
,
3001
0000
0100
0000
,
0001
0010
0001
0000
,
0010
0001
0010
0000
,
0001
0100
0001
0000
,
1000
0010
1000
0010
,
1000
0000
0000
0000
,
0020
0000
0130
0000
,
0200
0000
0301
0000
,
0020
0000
0031
0000
,
1000
0001
1000
0000
,
0010
0010
0010
0000
,
0100
0100
0100
0000
,
0002
0000
1003
0000
,
0001
0000
0100
0000
,
0010
0000
1000
0100
,
1000
0000
0001
0100
,
0100
0000
0010
0010
,
0100
0000
1001
0000
,
0002
0000
0000
0000
,
0003
0000
0000
0000
;

//---------------dance-single - ----------------
#NOTES:
     dance-single:
     :
     Medium:
     7:
     0.261945,0.293156,0.133085,0.280957,0.000000,248.000000,230.000000,18.000000,38.000000,0.000000,0.000000,0.261945,0.293156,0.133085,0.280957,0.000000,248.000000,230.000000,18.000000,38.000000,0.000000,0.000000:
0000
0000
0000
0000
,
0000
0000
0000
0000
,
0000
0000
0000
0000
,
1000
0000
0001
0000
0100
0010
1000
0020
,
0000
0030
0100
0010
,
1000
0010
0100
0000
0100
0000
0001
0100
,
0000
0002
0000
0000
1003
0000
0010
0000
,
0110
0001
1001
1000
,
2000
0000
0000
0000
3010
0000
1000
0200
,
0000
0000
0300
0000
0110
0000
0010
0002
,
0000
0000
0003
0000
1000
0000
0000
0010
,
0100
0000
0001
1000
0000
0000
0001
2000
,
0000
0000
3001
0000
0110
0000
0001
0010
,
0001
0000
1000
0010
1000
0000
0010
0200
,
0000
0310
0110
0000
,
0010
0000
1000
0010
1000
0000
0001
0000
,
0200
0000
0000
0000
0310
0000
0010
0200
,
0000
0000
0000
0000
0301
0000
0100
0002
,
0000
0000
0103
0000
,
0010
0000
1000
0100
1000
0000
0001
0020
,
0000
0000
0130
2000
0000
0000
3001
0100
,
0000
0010
0100
0001
0000
0000
0001
2000
,
0000
0000
0000
3000
0001
0100
0001
0200
,
0000
0000
0300
0000
0110
0000
0010
0200
,
0000
0000
0301
0000
,
1000
0000
0001
0100
0000
0010
0000
2000
,
0000
0000
0000
0000
3010
0000
0100
0001
,
0100
0000
0001
1000
0000
0000
0010
2000
,
0000
0000
3000
0000
0101
0000
0001
2000
,
0000
0000
3000
0000
1001
0000
0001
0200
,
0000
0000
0310
0000
0110
0000
0010
0100
,
0010
0000
0100
0001
0000
0100
0000
0202
,
0000
0000
0303
0001
1000
0000
1000
0001
,
0000
0000
0100
0010
0100
0000
0001
1000
,
0001
0000
0000
0000
1010
0000
0001
0100
,
0000
0100
0000
0001
0000
1000
0010
1000
,
0020
0000
0030
0000
1000
0001
0100
0020
,
0000
0000
0130
0000
0101
0000
0001
1000
,
0001
0000
1000
0000
0101
0000
0001
0200
,
0000
0010
0300
0010
0000
0100
0000
0010
,
0200
0000
0000
0000
0010
0000
0010
0320
,
0000
0000
1000
0000
1030
0000
0001
0100
,
0001
1000
1010
0100
,
0001
0000
1000
0001
0000
0000
0100
0002
,
0000
0000
1003
0001
1000
0000
0001
0200
,
0000
0000
0310
0010
0000
0000
1000
0002
,
0000
0000
1003
0000
1001
0000
0100
0010
,
0000
0000
0000
0000
0100
0000
0010
2000
,
0000
0000
3001
0000
,
0100
0000
0010
1000
0000
0001
0000
0200
,
0000
0000
0301
0000
0101
0000
0001
1000
,
0001
0000
1000
0100
0000
0100
1000
0020
,
0000
0000
0030
0000
0100
0000
0001
1000
,
0010
0000
1000
0100
0010
0000
0001
0010
,
0000
0100
1000
0000
1001
0000
0100
0000
,
0010
0000
1000
0001
0000
0100
0000
0020
,
0000
0030
0100
0010
0100
0000
0001
1000
,
0001
0000
0001
0200
0000
0000
0300
0010
,
0000
0100
0000
0001
1000
0000
0000
2002
,
0000
3003
0001
0200
0000
0000
0000
0000
,
0320
0000
0000
0000
,
0030
0000
0000
0000
;

//---------------dance-single - ----------------
#NOTES:
     dance-single:
     :
     Hard:
     9:
     0.334825,0.360808,0.155266,0.199627,0.000000,317.000000,296.000000,21.000000,27.000000,0.000000,0.000000,0.334825,0.360808,0.155266,0.199627,0.000000,317.000000,296.000000,21.000000,27.000000,0.000000,0.000000:
// measure 0
0000
0000
0000
0000
,  // measure 1
0000
0000
0000
0000
,  // measure 2
0100
0010
0100
0010
1000
0001
0100
0001
,  // measure 3
1000
0010
0100
0000
0001
0010
0100
1000
,  // measure 4
0002
0000
0103
0010
0110
0000
0010
0100
,  // measure 5
0110
0000
1000
0000
0001
0100
0001
0000
,  // measure 6
1000
0010
1000
0010
0001
0000
1000
0000
,  // measure 7
0001
0100
0010
1000
0010
0000
0100
0000
,  // measure 8
0020
0000
1000
0000
1030
0000
0001
0100
,  // measure 9
0001
0000
1000
0010
1000
0000
0001
0100
,  // measure 10
0010
0000
0010
1000
0001
0000
0001
0100
,  // measure 11
0010
0000
0010
1000
0010
0100
0001
0000
,  // measure 12
2000
0001
3001
0100
,  // measure 13
0010
0000
0100
0010
0110
0000
0010
0000
,  // measure 14
1000
0001
1000
0000
1010
0000
0001
0000
,  // measure 15
0100
0000
0001
0100
0010
0000
1000
0000
,  // measure 16
0120
0000
0000
0000
0130
0000
0001
1000
,  // measure 17
0002
0000
0000
0000
1003
0000
0010
0100
,  // measure 18
0002
0000
1003
0010
1010
0000
0100
0000
,  // measure 19
0001
0000
0100
0010
1010
0000
0100
0020
,  // measure 20
0000
0030
0100
0010
0100
0000
0010
0200
,  // measure 21
0000
0300
0010
0100
0010
0000
1000
0002
,  // measure 22
1000
0000
0003
0000
1000
0010
0100
0002
,  // measure 23
0000
0000
0103
0000
0110
0000
0100
0010
,  // measure 24
0200
0301
1010
0100
,  // measure 25
0001
0000
0100
0010
0000
1000
0000
0002
,  // measure 26
0000
0000
1003
0010
1010
0000
0100
0000
,  // measure 27
0001
0000
0100
0020
0100
0000
0130
0010
,  // measure 28
2000
0000
3001
0100
,  // measure 29
0010
0000
1000
0000
0001
0000
0100
0010
,  // measure 30
1000
0000
0001
0100
0010
0000
1000
0100
,  // measure 31
0010
0000
0010
0100
0000
0100
0000
1000
,  // measure 32
0010
0000
0000
0100
0001
0000
1000
0001
,  // measure 33
0000
0001
0000
1000
0001
0000
0100
0010
,  // measure 34
0110
0000
0001
0000
1000
0000
0010
0100
,  // measure 35
0010
0100
0000
0001
0000
1000
0000
0001
,  // measure 36
1000
0000
0001
0000
0101
0001
0100
0020
,  // measure 37
0000
0000
1030
0000
1001
0000
0100
0020
,  // measure 38
0000
0000
0100
0000
1030
0000
0001
0100
,  // measure 39
0000
0010
0000
1000
0000
0001
0000
0100
,  // measure 40
0020
0000
0000
0000
0130
0000
0001
0100
,  // measure 41
0001
0000
1000
0010
0110
0000
0001
0010
,  // measure 42
0100
0000
0100
1000
0010
0000
0010
0100
,  // measure 43
0001
0010
0100
1000
0000
0001
0100
0002
,  // measure 44
0000
0003
1000
0001
0101
0000
0001
1000
,  // measure 45
0000
0010
0100
0010
0000
0010
0100
0020
,  // measure 46
0000
0000
0030
0000
0110
0100
0010
2000
,  // measure 47
0000
0000
3001
0000
0101
0000
0001
1000
,  // measure 48
0001
0000
1000
0001
1000
0000
0000
0000
,  // measure 49
0001
0000
0001
0010
0000
0100
0010
0002
,  // measure 50
0000
0103
0101
0010
,  // measure 51
1000
0000
0010
0100
0010
0000
0100
0001
,  // measure 52
2000
0000
3000
0000
1000
0000
0100
0010
,  // measure 53
0002
0000
1003
0100
0010
0100
0010
0000
,  // measure 54
0100
0010
0001
0000
1100
0100
1000
0000
,  // measure 55
0001
0000
0001
0100
0000
0010
0000
0200
,  // measure 56
0010
0300
0110
0001
,  // measure 57
1000
0000
0100
0010
0200
0000
0300
0010
,  // measure 58
0001
1000
0001
0100
0101
0000
0010
0100
,  // measure 59
0000
0010
0100
0002
0100
0000
0000
0000
,  // measure 60
2003
0000
0000
0000
,  // measure 61
3000
0000
0000
0000
;
