#TITLE:Circle of Life;
#SUBTITLE:;
#ARTIST:Double;
#TITLETRANSLIT:;
#SUBTITLETRANSLIT:;
#ARTISTTRANSLIT:;
#GENRE:;
#CREDIT:;
#BANNER:;
#BACKGROUND:;
#LYRICSPATH:;
#CDTITLE:;
#MUSIC:Double - Circle of Life.ogg;
#OFFSET:-0.073000;
#SAMPLESTART:0.840000;
#SAMPLELENGTH:15.000000;
#SELECTABLE:YES;
#BPMS:0.000000=144.000000
;
#STOPS:
;
#BGCHANGES:;
#KEYSOUNDS:;
#ATTACKS:;

//---------------dance-single - ----------------
#NOTES:
     dance-single:
     :
     Medium:
     5:
     0.259295,0.411530,0.285388,0.388128,0.000000,159.000000,134.000000,25.000000,34.000000,0.000000,0.000000,0.259295,0.411530,0.285388,0.388128,0.000000,159.000000,134.000000,25.000000,34.000000,0.000000,0.000000:
// measure 0
0000
0000
0100
0010
,  // measure 1
0100
0000
0220
0330
,  // measure 2
2002
3003
0020
0030
,  // measure 3
0200
0300
0002
0003
,  // measure 4
2000
3000
0010
0100
,  // measure 5
0010
0000
0100
0100
,  // measure 6
0010
0010
0020
0000
,  // measure 7
0030
0000
0200
0000
,  // measure 8
0320
0030
0101
0000
,  // measure 9
1010
0000
0101
0000
,  // measure 10
0220
0330
0020
0030
,  // measure 11
0200
0300
0001
0001
,  // measure 12
0001
0000
0101
0010
,  // measure 13
0010
0010
0100
0100
,  // measure 14
0100
0001
0002
0000
,  // measure 15
2003
0000
3020
0000
,  // measure 16
0030
0000
0110
0010
,  // measure 17
0100
0010
1000
1000
,  // measure 18
0001
0001
0000
1000
,  // measure 19
0010
1000
0010
0000
,  // measure 20
0100
0110
0000
0010
,  // measure 21
0100
0010
1000
0001
,  // measure 22
0100
0010
0100
0000
,  // measure 23
0010
0000
0110
0000
,  // measure 24
0011
0000
1001
0110
,  // measure 25
1001
0000
0101
0011
,  // measure 26
0011
0000
0002
0000
,  // measure 27
2003
0000
3020
0000
,  // measure 28
0230
0000
0310
0010
,  // measure 29
0010
0000
0100
0100
,  // measure 30
0100
0000
1000
0001
,  // measure 31
0100
0010
0001
0000
,  // measure 32
1001
0000
0002
0100
,  // measure 33
0203
0001
0301
1000
,  // measure 34
0100
0001
1000
0000
,  // measure 35
0001
0000
0010
0000
,  // measure 36
0100
0000
1001
0000
,  // measure 37
0101
0000
1001
0000
,  // measure 38
0011
0000
1000
0010
,  // measure 39
0100
0000
0000
0000
0001
0000
0000
0011
,  // measure 40
0000
0000
0002
0000
,  // measure 41
2003
0000
3020
0000
,  // measure 42
0230
0000
0301
0000
,  // measure 43
0011
0000
0000
1000
0000
1000
0000
1000
,  // measure 44
0000
0000
0002
0000
,  // measure 45
0023
0000
0230
0000
,  // measure 46
2300
0000
0000
0000
3001
0000
0000
0001
,  // measure 47
0000
0001
0000
0001
0000
0000
0000
0000
,  // measure 48
0010
0010
0200
0000
,  // measure 49
0302
0000
1003
0010
,  // measure 50
0100
0000
0000
0000
0101
0000
0000
0001
,  // measure 51
0000
0000
0001
0000
;

//---------------dance-single - ----------------
#NOTES:
     dance-single:
     :
     Hard:
     12:
     0.454990,0.621789,0.171233,0.365297,0.097032,279.000000,264.000000,15.000000,32.000000,0.000000,0.000000,0.454990,0.621789,0.171233,0.365297,0.097032,279.000000,264.000000,15.000000,32.000000,0.000000,0.000000:
0000
0000
0000
0000
0100
0000
0010
0100
,
0010
0000
1000
0001
2000
0000
3000
0000
,
0020
0030
0200
0300
,
0020
0000
0030
0000
0100
0010
0100
0010
,
0100
0000
0001
0000
0010
1000
0010
1000
,
0010
0100
0002
0003
,
2000
0000
3000
0000
0001
0000
0000
0010
,
0100
0000
1000
0000
0002
0000
0003
1000
,
0020
0000
0030
0000
0110
0000
0010
1000
,
0010
0000
0100
0000
0001
0001
0001
0000
,
2000
3000
0020
0030
,
0100
0000
0010
0000
0100
0001
0000
0001
,
0000
1000
0000
0001
0100
0000
0010
0100
,
0010
0000
1000
0000
0001
0000
1000
0001
,
0100
0020
0230
0300
,
0011
0000
2000
0000
,
3002
0000
0003
0000
1001
0010
0100
0010
,
1000
0001
0100
0001
0010
0001
1000
0100
,
0010
0000
1000
0000
0000
0001
0010
0001
,
1000
0100
1000
0010
0100
0010
0100
0001
,
0100
0000
0001
0000
1000
0010
0100
0010
,
0010
1000
1000
0001
0001
0010
0001
0010
,
0001
0000
0000
0000
1000
0000
0100
0010
0200
0000
0000
0000
0000
0000
1000
0000
,
0300
0001
0000
1000
0000
0200
0000
0010
,
0310
0000
0001
0000
0001
0000
0100
0010
0100
0000
0001
0000
0001
0000
1000
0000
,
1001
0000
0000
0000
0000
0000
0001
0010
0001
0010
0001
0000
1000
0000
0001
0000
,
1000
0000
0000
0000
0000
0000
0010
0000
0200
0000
0000
0000
0300
0000
0001
0010
,
0002
0000
0000
0000
0003
0000
1000
0100
2000
0000
0000
0000
3000
0000
0001
0100
,
0002
0000
0000
0000
0003
0000
0100
0010
0100
0000
0001
0000
0011
0000
1001
0000
,
1100
0000
0000
0000
0000
0000
0100
0001
0100
0001
0100
0000
0010
0000
0110
0000
,
1001
0000
0000
0000
0000
0000
0010
0000
1000
0000
0000
0000
0000
0000
0010
1000
,
0020
0000
0000
0000
0030
0000
0010
0100
0020
0000
0000
0000
0030
0000
0100
0000
,
0002
0000
0003
0000
1000
0000
0010
0010
,
0100
0000
0010
0000
0010
0000
0100
0000
0001
0000
1000
0000
0001
0000
1000
0001
,
1000
0001
1000
0001
1000
0001
1000
0001
1000
0000
0000
0000
0000
0000
1000
0000
,
0000
0010
0000
0100
0010
0100
0000
0001
,
0000
1000
0000
0100
0000
0010
0200
0000
,
0300
0000
1000
0001
0001
0000
1000
0001
,
0001
0000
0001
1001
1001
0010
0000
0100
,
0000
0010
0000
1000
0000
0001
0000
0100
,
0001
0100
0000
0020
0000
0000
0030
0000
,
0100
0010
0100
0020
0000
0000
0030
0100
,
0001
0010
0001
0010
0001
0000
1000
0010
,
0000
0100
0000
0001
0000
0110
1100
1001
,
0000
0000
1001
0200
0000
0000
0300
2000
,
0000
0000
3001
0200
0000
0000
0300
0020
,
0000
0000
0130
0010
0100
0000
0010
0100
,
0000
0100
0000
0010
0000
0010
0000
1000
,
0001
1000
0010
0200
0000
0000
0300
0002
,
0000
0000
0003
0000
1000
0010
0100
0100
,
0010
0100
0000
0001
0100
0000
0001
1000
,
0000
0010
0001
0000
0000
0000
0000
0010
;

//---------------dance-single - ----------------
#NOTES:
     dance-single:
     :
     Easy:
     2:
     0.150033,0.207763,0.079909,0.228311,0.000000,92.000000,85.000000,7.000000,20.000000,0.000000,0.000000,0.150033,0.207763,0.079909,0.228311,0.000000,92.000000,85.000000,7.000000,20.000000,0.000000,0.000000:
0000
0000
0100
0000
,
0100
0000
0010
0000
,
0010
0000
2000
0000
,
3000
0000
0002
0000
,
0003
0000
0100
0000
,
0010
0000
0100
0000
,
0010
0000
2002
0000
,
0000
3003
0010
0000
,
0010
0000
0001
0000
,
0100
0000
0100
0000
,
0010
0000
2000
0000
,
3000
0000
0002
0000
,
0003
0000
0010
0000
,
0100
0000
0010
0000
,
0001
0000
0001
0000
,
1000
0000
1000
0000
,
0000
0000
0110
0000
,
0010
0000
0100
0100
,
0100
0000
0001
0000
,
1000
0000
0001
0001
,
0001
0000
1001
0000
,
0001
0000
1000
0000
,
0010
0000
0010
0000
,
0200
0000
0300
0000
,
0100
0000
0020
0000
,
0030
0000
0200
0000
,
0300
0000
0001
0000
,
1000
0000
0001
0000
,
0100
0000
0002
0000
,
0003
0000
2000
0000
,
3000
0000
0010
0000
,
0010
0000
0010
0000
,
0100
0000
0200
0000
,
0000
0000
0000
0300
,
0010
0000
1001
0000
,
1000
0000
0001
0000
,
0100
0000
0010
0000
,
0110
0000
0000
0000
,
0101
0000
1000
0000
,
0001
0000
1000
0000
,
0001
0000
0200
0000
,
0000
0300
0020
0000
,
0000
0030
1000
0000
,
1000
0000
0001
0000
,
0001
0000
2000
0000
,
0000
3000
0020
0000
,
0000
0030
0100
0000
,
0010
0000
0100
0000
,
0001
0000
2002
0000
,
3003
0000
0010
0000
,
0100
0000
0020
0000
,
0030
0000
0200
0000
,
0300
0000
0000
0000
;

//---------------dance-single - ----------------
#NOTES:
     dance-single:
     :
     Beginner:
     1:
     0.088063,0.146975,0.091324,0.057078,0.000000,54.000000,46.000000,8.000000,5.000000,0.000000,0.000000,0.088063,0.146975,0.091324,0.057078,0.000000,54.000000,46.000000,8.000000,5.000000,0.000000,0.000000:
0000
0000
0000
0000
,
0000
0000
0000
0000
,
0000
0000
0000
0000
,
0000
0000
0000
0000
,
0000
0000
1000
0000
,
0000
0000
0001
0000
,
0000
0000
1000
0000
,
0000
0000
0010
0000
,
0000
0000
1000
0000
,
0000
0000
0002
0000
,
0003
0000
1000
0000
,
0000
0000
0001
0000
,
0000
0000
0100
0000
,
0000
0000
0200
0000
,
0300
0000
0001
0000
,
0000
0000
0010
0000
,
0000
0000
0110
0000
,
0000
0000
0100
0000
,
0000
0000
1001
0000
,
0000
0000
0001
0000
,
0001
0000
0001
0000
,
0000
0000
1000
0000
,
0000
0000
1001
0000
,
0000
0000
0001
0000
,
0000
0000
1000
0000
,
0000
0000
0001
0000
,
0000
0000
0200
0000
,
0300
0000
0000
0000
,
0000
0000
0001
0000
,
0000
0000
0100
0000
,
0000
0000
0001
0000
,
0000
0000
1000
0000
,
0000
0000
2000
0000
,
0000
0000
3000
0000
,
0000
0000
1001
0000
,
0000
0000
0000
0000
,
0000
0000
0110
0000
,
0000
0000
0010
0000
,
0000
0000
0110
0000
,
0000
0000
1000
0000
,
0000
0000
0001
0000
,
0000
0000
1001
0000
,
0000
0000
1000
0000
,
1000
0000
1000
0000
,
0000
0000
0002
0000
,
0003
0000
0000
0000
,
0000
0000
1000
0000
,
0000
0000
0001
0000
,
0000
0000
0110
0000
,
0000
0000
0100
0000
,
0000
0000
0100
0000
,
0000
0000
0001
0000
;
