#TITLE:Chou ni nare;
#SUBTITLE:;
#ARTIST:usagi;
#TITLETRANSLIT:;
#SUBTITLETRANSLIT:;
#ARTISTTRANSLIT:;
#GENRE:;
#CREDIT:from pop n music 11;
#BANNER:CS9_FOLK_SOUL_2.png;
#BACKGROUND:;
#LYRICSPATH:;
#CDTITLE:;
#MUSIC:usagi - Chou ni nare.ogg;
#OFFSET:-0.212000;
#SAMPLESTART:51.936142;
#SAMPLELENGTH:12.000000;
#SELECTABLE:YES;
#BPMS:0.000000=116.000000
;
#STOPS:
;
#BGCHANGES:;
#KEYSOUNDS:;
#ATTACKS:;

//---------------dance-single - ----------------
#NOTES:
     dance-single:
     :
     Beginner:
     1:
     0.083387,0.110945,0.023988,0.047976,0.015992,73.000000,70.000000,3.000000,6.000000,0.000000,0.000000,0.083387,0.110945,0.023988,0.047976,0.015992,73.000000,70.000000,3.000000,6.000000,0.000000,0.000000:
0000
0000
0000
0000
,
0000
0000
0000
0000
,
0000
0000
0000
0000
0000
0000
0000
0000
0000
0000
0000
0100
0000
0000
0000
0000
,
0000
0000
0000
0100
,
0000
0000
0000
0000
0000
0000
0000
0000
0000
0000
0000
0000
0000
0100
0000
0000
,
0000
0000
0000
0000
0000
0000
0000
0000
0000
0000
0000
0000
0000
0100
0000
0000
,
0000
0000
0000
0000
0000
0000
0000
0001
,
0000
0000
0000
0000
0000
0000
0000
0000
0000
0000
0000
0000
0000
0000
0000
1000
,
0000
0000
0000
0000
,
0000
0000
0000
0000
,
0010
0000
0000
0000
,
0100
0000
0000
0000
,
0010
0000
0000
0000
,
0100
0000
0000
0000
,
0010
0000
0000
0000
,
1000
0000
0001
0000
,
1000
0000
0001
0000
,
1000
0000
0001
0000
,
0001
0000
0000
0000
,
1000
0000
0000
0000
,
0001
0000
1000
0000
,
0001
0000
0000
0000
,
1000
0000
0010
0000
,
1000
0000
0001
0000
,
1000
0000
0000
0000
,
0001
0000
0100
0000
,
0001
0000
0100
0000
,
0001
0000
0000
0000
,
1001
0000
0000
0000
,
1000
0000
0001
0000
,
1000
0000
0000
0000
,
0001
0000
0100
0000
,
0001
0000
0000
0000
,
0001
0000
0010
0000
,
0001
0000
0000
0000
,
1000
0000
0001
0000
,
1000
0000
0000
0000
,
2000
0000
3000
0000
,
0002
0000
0003
0000
,
1000
0000
1000
0000
,
0001
0000
0000
0000
,
0001
0000
0001
0000
,
2000
0000
3000
0000
,
0001
0000
0001
0000
,
1000
0000
0000
0000
,
1001
0000
0000
0000
,
1001
0000
0000
0000
,
0001
0000
0001
0000
,
0001
0000
0000
0000
,
1000
0000
1000
0000
,
1000
0000
0000
0000
,
1000
0000
0001
0000
,
1000
0000
0000
0000
,
0002
0003
0000
0000
,
2000
0000
3000
0000
,
0002
0000
0003
0000
;

//---------------dance-single - ----------------
#NOTES:
     dance-single:
     :
     Easy:
     4:
     0.157636,0.222889,0.047976,0.127937,0.039980,138.000000,132.000000,6.000000,16.000000,0.000000,0.000000,0.157636,0.222889,0.047976,0.127937,0.039980,138.000000,132.000000,6.000000,16.000000,0.000000,0.000000:
0000
0000
0000
0000
,
0000
0000
0000
0000
,
0000
0000
0000
0000
0000
0000
0000
0000
0000
0000
0000
0100
0000
0000
0000
0000
,
0000
0000
0000
0000
0000
0000
0000
0100
0000
0000
0000
0000
0000
0000
0000
0000
0000
0000
0000
0000
0000
0000
0000
0100
0000
0000
0000
0000
0000
0000
0000
0000
,
0000
0000
0000
0000
0000
0000
0000
0000
0000
0010
0000
0000
0000
0000
0000
0000
0000
0000
0000
0000
0000
0000
0000
0000
0000
0100
0000
0000
0000
0000
0000
0000
,
0000
0000
0000
0000
0000
0000
0000
0000
0000
0000
0001
0000
0000
0000
0000
0000
0000
0000
0000
0000
0000
0000
0000
0000
0000
0000
0000
0100
0000
0000
0000
0000
,
0000
0000
0000
0000
0000
0000
0000
0000
0000
0000
0000
0001
0000
0000
0000
0000
0000
0000
0000
0000
0000
0000
0000
0000
0000
0000
0000
0000
0001
0000
0000
0000
,
0000
0000
0000
0000
0000
0000
0000
0000
0000
0000
0000
0000
0000
0100
0000
0000
0000
0000
0000
0000
0000
0000
0000
0000
0000
0000
0000
0000
0000
0000
0001
0000
,
0000
0000
2000
0000
,
3000
0000
0000
0000
,
0010
0000
0000
0000
,
0100
0010
1000
0000
,
0010
1000
0010
0100
,
0101
0001
1000
0010
,
0100
0001
2000
3000
,
0001
1000
0001
0000
,
1000
0100
0010
0001
,
1000
0001
1000
0000
,
0001
0000
1000
0000
,
1001
0000
0100
0000
,
0001
1000
0001
0000
,
0001
0000
1000
0000
,
1000
0001
1000
0000
,
1100
0000
1000
0000
,
1000
0100
0010
0001
,
1000
0000
0010
0000
,
0001
0000
0010
0000
,
1000
1000
1000
0000
,
1001
0000
0200
0300
,
0001
0000
2000
3000
,
0001
0000
2000
3000
,
0001
0010
0100
1000
,
0100
0000
0020
0030
,
0001
0000
0020
0030
,
0001
1000
0020
0030
,
1000
0100
0020
0030
,
0001
0000
1000
0000
,
0200
0300
0100
0000
,
0002
0003
0001
0000
,
1000
0001
1000
0000
,
0001
1000
0001
0100
,
0001
0100
0010
0100
,
0001
0010
0001
0000
,
2000
3000
0001
0001
,
0001
0000
1000
0000
,
1001
0000
0000
0000
,
0110
0000
0100
0001
,
0010
0000
0001
0001
,
0100
0000
0001
0010
,
0100
0000
0001
0000
,
1000
0100
1000
0000
,
0001
0010
0002
0003
,
1000
0000
0010
0000
,
0200
0300
0010
0000
,
2000
3000
0001
0000
,
0200
0000
0000
0300
;

//---------------dance-single - ----------------
#NOTES:
     dance-single:
     :
     Medium:
     9:
     0.281004,0.351826,0.063968,0.215893,0.263869,246.000000,238.000000,8.000000,27.000000,0.000000,0.000000,0.281004,0.351826,0.063968,0.215893,0.263869,246.000000,238.000000,8.000000,27.000000,0.000000,0.000000:
0000
0000
0000
0000
,
0000
0000
0000
0000
,
0000
0000
0000
0000
0000
0000
0000
0000
0000
0000
0000
0100
0000
0000
0100
0000
,
0100
0000
0000
0000
0000
0000
0000
0100
0000
0000
0000
0000
0000
0000
0000
0000
0000
0000
0000
0000
0000
0000
0000
0000
0100
0000
0000
0000
0000
0000
0000
0000
,
0000
0000
0000
0000
0000
0000
0000
0000
0000
0010
0000
0000
0000
0000
0000
0000
0000
0000
0000
0000
0000
0000
0000
0000
0000
0100
0000
0000
0000
0000
0000
0000
,
0100
0000
0000
0000
0100
0000
0000
0000
0000
0000
0100
0000
0000
0000
0000
0000
0000
0000
0000
0000
0000
0000
0000
0000
0000
0000
0000
0100
0000
0000
0000
0000
,
0000
0000
0000
0001
0000
0000
0001
0000
0000
0000
0000
0000
0000
0000
0001
0000
,
0000
0000
0000
0001
0000
0000
0000
0001
0000
0000
0000
0000
0000
0000
0001
0000
0000
0000
0000
0000
0000
0000
0000
0000
0000
0000
0000
0000
0000
0000
0001
0000
,
0000
0000
2000
0000
,
3000
0000
0000
0000
,
0020
0000
0030
0000
,
0100
0000
0010
0000
1000
0000
0001
1000
0000
0000
0000
0000
0001
0000
0000
0000
,
0010
0000
1000
0000
0010
0000
0001
0010
0000
0000
0000
0000
0100
0000
0001
0000
,
0100
0001
1000
0001
1000
0100
0010
0001
,
0100
0000
0000
0000
0100
0000
0000
0200
0000
0000
0000
0000
0301
0000
0001
0000
,
0001
0000
0000
0000
1000
0000
1000
0001
0000
0000
0000
0000
0100
0000
0010
0000
,
1000
0000
0100
0000
0010
0000
0001
1000
0000
0000
0000
0000
0001
0000
0000
0000
,
1001
1000
0001
0100
1000
0100
0001
0000
,
0001
0100
1000
0100
,
0001
0001
0100
0100
,
0001
1000
0001
1000
0001
0000
0000
0000
,
1000
0100
0010
0100
1000
0000
0100
0000
,
1000
0110
1000
0110
,
0010
0000
0000
0000
0001
0000
1000
0001
0000
0000
0000
0000
0100
0000
0000
0000
,
0010
0100
0010
0100
0020
0000
1030
0000
,
1000
0000
0100
0010
0010
0001
0001
1000
,
0002
0010
0013
2000
,
0001
3001
1001
0110
,
1001
0000
0000
0100
0000
0010
0000
0200
0000
0000
0000
0000
0300
0000
0000
0000
,
0001
0000
0000
0001
0000
0001
0000
0002
0000
0000
0000
0000
0003
0000
0000
0000
,
2000
0000
3000
0001
0000
1000
0000
0002
0000
0000
0000
0000
0003
0000
0000
0000
,
1000
0000
0000
0010
0000
0100
0000
0010
0000
0000
0000
0000
1000
0000
0100
0000
,
0010
0000
0000
0001
0000
0001
0000
0020
0000
0000
0000
0000
0030
0000
0000
0000
,
0001
0000
0000
0010
0000
0100
0000
0020
0000
0000
0000
0000
0030
0000
0000
0000
,
0001
0000
0000
1000
0000
0001
0000
2000
0000
0000
0000
0000
3000
0000
0000
0000
,
0001
0000
0000
0100
0000
0010
0000
0200
0000
0000
0000
0000
0300
0000
0000
0000
,
0001
0000
0001
1000
1000
0000
1000
0010
,
0200
0000
0301
0010
0200
0000
1300
0100
,
0020
0000
0032
0000
0103
0000
0010
1000
,
0100
0000
0002
0103
2000
0000
3100
0010
,
0100
0000
1000
0000
0001
0000
0100
0010
,
0200
0000
0301
0010
0001
0000
0100
0010
,
0200
0000
0310
1000
0010
0000
0100
0001
,
0200
0000
0001
0300
,
0001
0000
0000
1000
0000
0001
0000
1000
0000
0001
0000
1000
0000
0000
0000
0000
,
1001
0000
0000
1000
0000
0001
0000
1000
0000
0001
0000
1000
0000
0000
0000
0000
,
0101
0000
0001
0000
0100
0010
0100
0000
,
0010
0000
0000
0100
0000
0100
0000
0100
0000
0000
0000
0000
0001
0000
0000
0000
,
0100
0000
0000
0001
0000
0100
0000
0002
0000
0000
0000
0000
0003
0000
0000
0000
,
0100
0000
0000
0001
0000
0100
0000
0001
0000
0000
0000
0000
0001
0000
0010
0000
,
0001
0000
0000
1000
0000
0001
0000
1000
0000
0000
0000
0000
0001
0000
0000
0000
,
0100
0000
0000
0010
0000
0100
0000
0020
0000
0000
0000
0000
0030
0000
0000
0000
,
1000
0000
0010
0000
,
0200
0300
0001
0000
,
2000
3000
0001
0000
,
0010
0000
0000
0000
;

//---------------dance-single - ----------------
#NOTES:
     dance-single:
     :
     Hard:
     11:
     0.394090,0.496954,0.063968,0.215893,0.387808,345.000000,337.000000,8.000000,27.000000,0.000000,0.000000,0.394090,0.496954,0.063968,0.215893,0.387808,345.000000,337.000000,8.000000,27.000000,0.000000,0.000000:
// measure 0
0000
0000
0000
0000
,  // measure 1
0000
0000
0000
0000
,  // measure 2
0000
0000
0000
0000
0000
0000
0000
0000
0000
0000
0000
0100
0000
0000
0100
0000
,  // measure 3
0100
0000
0000
0000
0100
0000
0000
0000
0000
0000
0000
0000
0000
0000
0000
0000
0000
0000
0000
0100
0000
0000
0000
0100
0000
0000
0000
0000
0000
0000
0100
0000
,  // measure 4
0000
0000
0100
0000
0000
0000
0100
0000
0000
0000
0000
0000
0000
0000
0000
0000
0000
0000
0000
0000
0000
0000
0000
0000
0000
0100
0000
0000
0000
0000
0000
0000
,  // measure 5
0100
0000
0000
0000
0100
0000
0000
0000
0100
0000
0000
0000
0000
0000
0000
0000
0000
0000
0000
0000
0000
0000
0000
0000
0000
0000
0000
0100
0000
0000
0000
0000
,  // measure 6
0000
0001
0000
0001
0000
0001
0000
0000
0000
0000
0000
0000
0000
0000
0001
0000
,  // measure 7
0000
0000
0000
1000
0000
0000
0000
0001
0000
0000
0000
1000
0000
0000
0000
0000
0000
0000
0000
0000
0000
0000
0000
0000
0000
0000
0000
0000
0000
0000
0001
0000
,  // measure 8
0000
0000
2000
0000
,  // measure 9
3000
0000
0000
0000
,  // measure 10
0020
0000
0030
0000
,  // measure 11
0100
0000
0010
0000
1000
0000
0001
1000
0000
0000
0100
0000
0001
0000
0100
0000
,  // measure 12
0010
0000
1000
0000
0010
0000
0001
0010
0000
0000
0001
0000
0100
0000
0001
0000
,  // measure 13
0100
0010
1000
0001
1000
0010
0100
0001
,  // measure 14
0100
0000
0000
0000
0110
0000
0000
0200
0000
0000
0000
0000
0301
0000
1000
0000
,  // measure 15
0001
0000
0001
0000
1000
0000
0010
0100
0000
0000
0000
0000
0100
0000
0010
0000
,  // measure 16
1000
0000
0100
0000
0001
0000
0100
1000
0000
0000
1000
0000
0001
0000
0000
0000
,  // measure 17
1001
0000
1000
0000
0001
0000
0100
0000
0001
0100
0001
0000
0100
0000
0000
0000
,  // measure 18
0001
0010
0100
0001
1000
0010
0100
0010
,  // measure 19
0001
0000
0000
0100
0000
0000
0001
0100
0000
0000
0001
0000
0100
0000
0010
0000
,  // measure 20
1000
0000
1000
0000
0001
0000
1000
0010
0000
0000
0000
0000
1000
0000
0000
0000
,  // measure 21
1000
0000
0100
0000
0010
0000
0100
0010
0000
0000
0001
0000
0100
0000
0010
0000
,  // measure 22
0110
0000
0101
0000
1000
0100
0010
0001
,  // measure 23
0011
0000
0001
0000
0000
0000
1000
0001
0000
0000
1000
0000
0000
0000
0020
0000
,  // measure 24
0030
0000
0100
0000
0010
0000
0100
0010
0000
0000
0001
0000
1000
0000
0000
0000
,  // measure 25
1001
0200
0300
0010
0001
0100
0001
1000
,  // measure 26
0002
0010
0010
0000
0013
0010
0200
1000
,  // measure 27
1300
0000
0001
0000
0001
0000
0000
0000
1000
0001
1000
0000
0001
1000
0001
0000
,  // measure 28
1000
0000
0100
0010
0000
0001
0000
0002
0000
0000
0000
0000
1003
0000
0000
0000
,  // measure 29
0001
0000
1000
0100
0000
0010
0000
0002
0000
0000
0000
0000
0103
0000
0010
0000
,  // measure 30
1000
0000
0001
0100
0000
0010
0000
2000
0000
0001
0000
0000
3000
0000
0001
0000
,  // measure 31
1000
0000
0100
0010
0000
0100
0000
0010
0000
0000
0001
0000
1000
0000
0100
0000
,  // measure 32
0010
0000
0001
1000
0000
0001
0000
2000
0000
0001
0000
0000
3000
0000
0000
0000
,  // measure 33
0001
0000
0010
0100
0000
0010
0000
0200
0000
0000
0000
0000
0310
0000
0001
0000
,  // measure 34
1000
0000
0001
1000
0000
0100
0000
2000
0000
0100
0000
0000
3100
0000
0000
0000
,  // measure 35
0010
0000
0001
0100
0000
0010
0000
0200
0000
0000
0000
0000
0301
0000
0000
0000
,  // measure 36
0001
0000
0000
0001
0000
0000
1000
0000
1000
0000
0100
1000
0100
0000
1000
0100
,  // measure 37
2000
0000
3001
0020
0030
0020
0030
0001
,  // measure 38
0010
0000
0001
0000
0010
0000
0001
0010
0001
0000
0000
0010
0000
0000
0100
0000
,  // measure 39
0010
0000
0000
0001
0000
0000
0010
0000
0002
0000
0000
0000
0103
0000
0010
0000
,  // measure 40
0200
0300
0001
0010
0100
0010
0001
0100
,  // measure 41
0010
1000
0001
0100
0010
1000
0001
0010
,  // measure 42
0100
0010
0001
1000
0020
0030
0100
0001
,  // measure 43
0200
0000
0301
0000
0100
0001
0100
0000
0001
0000
0000
0010
0000
0000
0001
0000
,  // measure 44
1000
0000
0001
1000
0000
0010
0100
0010
0000
0100
0010
0100
0010
0000
0000
0000
,  // measure 45
1000
0000
0010
1000
0000
0010
0000
1000
0010
1000
0010
1000
0010
0000
0000
0000
,  // measure 46
0110
0000
0000
0100
0000
0010
0000
0100
0000
0010
0000
0000
0101
0000
0010
0000
,  // measure 47
0001
0000
0100
0010
0000
0100
0000
0002
0000
0000
0000
0000
1003
0000
0100
0000
,  // measure 48
0100
0000
0010
0001
0000
0010
0000
0200
0000
0000
0000
0000
0310
0000
0000
0000
,  // measure 49
0001
0000
0100
0010
0000
0001
0000
0020
0000
0000
0000
0000
1030
0000
0100
0000
,  // measure 50
1000
0000
0100
0010
0000
0100
0000
1000
0000
0010
0000
0000
0100
0000
0001
0000
,  // measure 51
0100
0000
0001
0010
0000
0100
0000
0020
0000
0000
0000
0000
0031
0000
1000
0000
,  // measure 52
0001
0000
0000
0000
0000
0100
0000
0000
0010
0000
0000
0000
0010
0000
0000
0000
,  // measure 53
0100
0000
0010
0000
0100
0010
0000
0000
1000
0000
0100
0000
0010
0000
0000
0000
,  // measure 54
0001
0000
0000
0000
0000
0010
0000
0000
0001
0000
0100
0000
0001
0000
0000
0000
,  // measure 55
0020
0200
0000
0000
,  // measure 56
0000
0000
0330
0000
;
