#VERSION:0.83;
#TITLE:Candy Blue;
#SUBTITLE:;
#ARTIST:Yuko Asai;
#TITLETRANSLIT:;
#SUBTITLETRANSLIT:;
#ARTISTTRANSLIT:;
#GENRE:Positive;
#ORIGIN:;
#CREDIT:from pop n music 9 / pop n music 3 APPEND DISC;
#BANNER:CS3_POSITIVE.png;
#BACKGROUND:;
#PREVIEWVID:;
#JACKET:;
#CDIMAGE:;
#DISCIMAGE:;
#LYRICSPATH:;
#CDTITLE:Popn_music_9_logo_small.png;
#MUSIC:Yuko Asai - Candy Blue.mp3;
#OFFSET:-0.423000;
#SAMPLESTART:53.443996;
#SAMPLELENGTH:15.900000;
#SELECTABLE:YES;
#BPMS:0.000=112.000;
#STOPS:;
#DELAYS:;
#WARPS:;
#TIMESIGNATURES:0.000=4=4;
#TICKCOUNTS:0.000=4;
#COMBOS:0.000=1;
#SPEEDS:0.000=1.000=0.000=0;
#SCROLLS:0.000=1.000;
#FAKES:;
#LABELS:0.000=Song Start;
#BGCHANGES:;
#KEYSOUNDS:;
#ATTACKS:
;

//---------------dance-single - ----------------
#NOTEDATA:;
#CHARTNAME:;
#STEPSTYPE:dance-single;
#DESCRIPTION:;
#CHARTSTYLE:;
#DIFFICULTY:Beginner;
#METER:1;
#RADARVALUES:0.072798,0.113843,0.021684,0.043369,0.000000,47.000000,45.000000,2.000000,4.000000,0.000000,0.000000,0.000000,0.000000,0.000000,0.072798,0.113843,0.021684,0.043369,0.000000,47.000000,45.000000,2.000000,4.000000,0.000000,0.000000,0.000000,0.000000,0.000000;
#CREDIT:;
#NOTES:
0000
0000
0000
0001
,
0000
0000
0000
1000
,
0000
0000
0000
0001
,
0000
0000
0000
0100
,
0000
0000
0000
0001
,
0000
0000
0000
0001
,
0000
0000
0000
1000
,
0000
0000
0000
1000
,
0000
0000
0000
0010
,
0000
0000
0000
0100
,
0000
0000
0000
0010
,
0000
0000
0000
0100
,
0000
0000
0000
0001
,
0000
0000
0000
2000
,
3000
0000
0000
0010
,
0000
0000
0000
0100
,
0000
0000
0000
0001
,
0000
0000
0000
2000
,
3000
0000
0000
0001
,
0000
0000
0000
0001
,
0000
0000
0000
1000
,
0000
0000
0000
0001
,
0000
0000
0000
0001
,
0000
0000
0000
0010
,
0000
0000
0000
0110
,
0000
0000
0000
1000
,
0000
0000
0000
0001
,
0000
0000
0000
1000
,
0000
0000
0000
1000
,
0000
0000
0000
0002
,
0000
0000
0003
1000
,
0000
0000
0000
0001
,
0000
0000
0000
1001
,
0000
0000
0000
0001
,
0000
0001
0000
0001
,
0000
0000
0000
1000
,
0000
1000
0000
1000
,
0000
0000
0000
0001
,
0000
0001
0000
0001
,
0000
0000
0000
0100
,
0000
0000
0000
0100
,
0000
0000
0000
0200
,
0300
0000
0000
0000
;

//---------------dance-single - ----------------
#NOTEDATA:;
#CHARTNAME:;
#STEPSTYPE:dance-single;
#DESCRIPTION:;
#CHARTSTYLE:;
#DIFFICULTY:Easy;
#METER:4;
#RADARVALUES:0.156438,0.183234,0.043369,0.140949,0.000000,101.000000,97.000000,4.000000,13.000000,0.000000,0.000000,0.000000,0.000000,0.000000,0.156438,0.183234,0.043369,0.140949,0.000000,101.000000,97.000000,4.000000,13.000000,0.000000,0.000000,0.000000,0.000000,0.000000;
#CREDIT:;
#NOTES:
0000
0000
0000
0001
,
0000
1000
0000
0000
0000
0000
1000
0000
,
0000
0001
0000
0000
0000
0000
0001
0000
,
0000
0100
0000
0000
0000
0000
0010
0000
,
0100
0100
0000
0001
,
1000
0001
1000
0100
,
0000
0000
1000
1001
,
0000
0000
0001
0000
0000
1000
0000
0000
,
0000
0001
0000
0000
0100
0000
0010
0000
,
0000
0100
0010
0100
,
0000
0010
0100
0010
,
0000
0000
0100
0000
0000
0010
0000
0000
,
0000
0200
0000
0000
0300
0000
0001
0000
,
0001
0001
0000
1000
,
0000
1000
0000
0000
0000
0000
0002
0000
,
0003
1000
0000
0020
,
0030
0000
0000
0001
,
0001
0001
0000
1000
,
0000
1000
0000
0000
0000
0000
0001
0000
,
0000
0010
0000
0100
,
0000
1000
0000
2002
,
3003
0000
0001
0100
,
0010
0000
0100
0200
,
0300
0000
0001
1000
,
0000
0001
0000
0000
0000
0000
1001
0000
,
0001
0000
0001
0000
0000
1000
0000
0000
,
2000
0000
3000
0001
,
0001
0000
1000
0000
0000
0001
0000
0000
,
0000
0002
0000
0000
0003
0000
1000
0000
,
0010
0100
0001
1000
,
0002
0000
0003
0100
,
0000
0001
0000
1000
,
0100
1000
0000
1100
,
0000
0010
0000
0001
,
0002
0000
0003
0100
,
0000
0100
0000
0100
,
0200
0000
0300
0010
,
0000
0010
0000
0010
,
0020
0000
0030
1000
,
0001
0000
1000
0000
0000
0001
0000
0000
,
0000
0001
0000
0100
,
0000
0010
0000
0200
,
0000
0300
0000
0000
;

//---------------dance-single - ----------------
#NOTEDATA:;
#CHARTNAME:;
#STEPSTYPE:dance-single;
#DESCRIPTION:;
#CHARTSTYLE:;
#DIFFICULTY:Medium;
#METER:7;
#RADARVALUES:0.288093,0.297755,0.162633,0.119264,0.075896,186.000000,171.000000,15.000000,11.000000,0.000000,0.000000,0.000000,0.000000,0.000000,0.288093,0.297755,0.162633,0.119264,0.075896,186.000000,171.000000,15.000000,11.000000,0.000000,0.000000,0.000000,0.000000,0.000000;
#CREDIT:;
#NOTES:
0000
0000
0000
0000
0000
0000
0000
0000
0000
0000
0000
0000
0001
0000
0000
1000
,
0000
0000
0001
0000
0000
0000
0100
0000
0010
0000
0000
0000
1000
0000
0000
0001
,
0000
0000
1000
0000
0000
0000
0000
0000
0001
0000
0000
0000
1001
0000
0000
0001
,
0000
0100
0000
0000
0010
0000
0110
0000
,
0110
0100
0010
0101
,
1000
0000
0000
0001
0000
0000
0000
0000
1000
0000
0000
0000
0001
0000
0000
0000
,
0100
0010
1000
0001
,
1000
0000
0000
0100
0000
0000
0000
0000
1000
0000
0000
0000
1001
0000
0000
0000
,
0011
0000
0000
0000
0100
0010
0100
0000
,
0001
0000
0000
1000
0000
0000
0100
0000
0010
0000
0000
0000
0001
0000
0000
0000
,
1000
0000
0000
0010
0000
0000
0000
0000
0100
0000
0000
0000
0110
0000
0000
0000
,
0010
0000
1001
0000
0001
1000
0000
0000
,
0001
0100
0000
0001
0100
0000
0101
0000
,
0001
0000
0000
0100
0000
0000
0001
0000
1000
0000
0000
0000
0100
0000
0000
0000
,
0010
0000
0000
0001
0000
0000
0000
0000
1000
0000
0000
0000
0100
0000
0000
0000
,
0100
1000
0010
0010
,
0100
0000
0000
0100
0001
0000
0110
0000
,
0100
0001
1000
0001
,
1000
0000
0000
0001
0000
0000
0000
0000
0100
0000
0000
0000
0001
0000
0000
0000
,
0010
0100
1000
0100
,
0000
0000
0000
0000
0022
0000
0000
0000
0033
0000
0000
0000
1000
0000
0000
0001
,
0000
0000
0100
0000
0000
0000
0000
0000
0001
0000
0000
0100
0000
0000
0000
0000
,
0010
0000
0000
0100
0000
0000
0000
0000
0020
0000
0000
0000
0130
0000
0000
0100
,
0000
0001
0000
0000
0001
0000
1000
0001
,
1000
0001
0000
0000
0200
0000
0301
0000
,
1001
0000
0001
0000
1000
0001
1000
0000
,
0001
0020
0000
0030
0001
0000
1000
0000
,
0010
0000
0100
0000
0010
0100
0000
0000
,
0100
0002
0000
0000
1003
0000
1001
0000
,
0010
0000
0100
0000
0100
0010
1000
0000
,
0010
0200
0000
0300
0001
0000
1000
0000
,
0100
0001
0100
1000
,
0010
0100
0010
0000
0100
0010
0100
0000
,
0000
0010
0100
0100
,
0002
0100
0000
0000
0103
0000
0110
0000
,
0010
1000
0001
0100
,
0010
0200
0000
0300
0010
0000
0110
0000
,
0010
0000
0010
0000
1000
0010
1000
0000
,
0002
1000
0000
0000
1003
0000
0100
0000
,
0001
0100
0010
0001
,
0000
0000
0001
0000
0000
0000
0100
0010
,
0000
0000
0010
0100
0000
0010
0020
0000
,
0000
0030
0000
0000
;

//---------------dance-single - ----------------
#NOTEDATA:;
#CHARTNAME:;
#STEPSTYPE:dance-single;
#DESCRIPTION:;
#CHARTSTYLE:;
#DIFFICULTY:Hard;
#METER:11;
#RADARVALUES:0.439884,0.430030,0.108422,0.195160,0.260213,284.000000,274.000000,10.000000,18.000000,0.000000,0.000000,0.000000,0.000000,0.000000,0.439884,0.430030,0.108422,0.195160,0.260213,284.000000,274.000000,10.000000,18.000000,0.000000,0.000000,0.000000,0.000000,0.000000;
#CREDIT:;
#NOTES:
// measure 0
0000
0000
0000
0000
0000
0000
0000
0000
0000
0000
0000
0000
0001
0000
1000
0001
,  // measure 1
0000
0000
1000
0000
0000
0000
0100
0000
0010
0001
0010
0002
0000
0003
1000
0000
,  // measure 2
0000
0000
0001
0000
0000
0000
0100
0000
0010
0100
0010
0200
0000
0000
0301
0000
,  // measure 3
0000
0000
0101
0000
0000
0000
0010
0000
1000
0100
1000
0100
2000
0000
0000
0000
,  // measure 4
3010
0000
0000
0000
0100
0000
0100
0000
0010
0000
0000
0000
0011
0000
0001
0010
,  // measure 5
0001
0000
0000
0001
1000
0000
0001
1000
0000
0000
0001
0000
1001
0000
0000
0010
,  // measure 6
0100
0000
0000
0100
0000
0000
1000
0000
0100
0000
0010
0000
0001
0000
0000
0000
,  // measure 7
1000
0000
0000
0010
0100
0000
0010
0000
1000
0000
0100
0000
0010
0000
0001
0000
,  // measure 8
0010
0200
0000
0300
1000
0010
0100
0001
,  // measure 9
1000
0000
0000
0001
1000
0000
0100
0010
0000
0000
0001
0000
1000
0000
0000
0001
,  // measure 10
1000
0000
0000
0010
0000
0000
0100
0000
0100
0000
0010
0000
0010
0000
0000
0000
,  // measure 11
1000
0000
0000
0100
0010
0000
0100
0000
0001
0000
0100
0000
0000
0000
1000
0000
,  // measure 12
0100
0000
0010
0000
0000
0001
0100
0000
0001
0100
0001
0000
0101
0000
0000
0000
,  // measure 13
0001
0000
0000
0000
0100
0000
0000
0010
1000
0000
0010
0000
1000
0000
0200
0000
,  // measure 14
0310
0001
0000
0001
0010
0100
0110
0010
,  // measure 15
0100
0100
0000
1000
0010
0200
0300
0010
,  // measure 16
0100
0000
0002
0000
0000
0000
0103
0000
0001
0000
0100
0010
0100
0000
0000
0000
,  // measure 17
0100
0000
0000
0100
0001
0000
0000
0000
1000
0000
0100
0000
0001
0000
0001
0000
,  // measure 18
0000
0100
0000
1000
0100
0001
0000
0001
,  // measure 19
0100
1000
0000
0010
1000
0010
0000
0100
,  // measure 20
0010
0000
0100
0000
0000
0010
0200
0000
0010
0000
0310
0000
0110
0000
0000
0001
,  // measure 21
0000
1000
0001
0000
0000
0000
0001
0000
0010
0000
0000
0100
0000
0100
0000
1000
,  // measure 22
0000
0010
0000
0200
0000
0000
0000
0000
0301
0000
0100
0000
0001
0000
0000
0100
,  // measure 23
0000
0001
0100
0000
0000
0000
0001
0000
1000
0000
0000
0001
0000
0000
0001
0000
,  // measure 24
0001
2000
0000
0001
3001
0000
0001
0000
,  // measure 25
1001
0000
0001
0100
0010
0100
0010
1000
,  // measure 26
0002
0000
0000
0000
0000
0000
0003
0000
1000
0001
1000
0001
0000
0000
0000
0000
,  // measure 27
0100
0000
0010
0100
0010
0110
0000
0100
,  // measure 28
0100
0000
0001
0000
0000
0000
0001
0000
1000
0001
0000
0001
1000
0000
0000
0000
,  // measure 29
0010
0000
0010
0100
0001
1000
0010
1000
,  // measure 30
0200
0000
0000
0000
0000
0000
0300
0000
0010
0001
0010
0001
0000
0000
0000
0000
,  // measure 31
0100
0000
0001
1000
0001
0200
0300
0010
,  // measure 32
0100
0000
0100
0010
0000
0100
0010
0000
0100
0000
0010
0100
0010
0000
0000
0000
,  // measure 33
1000
0000
0001
0010
0100
0010
0001
1000
,  // measure 34
0001
0000
0200
0000
0300
0000
0000
0000
0010
0100
0010
0100
0010
0000
0000
0000
,  // measure 35
0110
0000
1000
0001
0100
0010
0100
0010
,  // measure 36
1000
0200
0000
0310
0001
0001
0100
0000
,  // measure 37
0010
0000
0020
0000
1030
0010
0000
0010
,  // measure 38
1000
0000
0002
0000
0003
0000
0000
0000
1000
0100
1000
0100
1000
0000
0000
0000
,  // measure 39
0001
0001
0100
0000
0010
0100
0001
0001
,  // measure 40
0100
0000
0100
0000
0001
0000
0000
0100
0001
0000
0100
0000
0020
0000
0000
0000
,  // measure 41
0030
0000
0010
0100
0000
0010
0110
0000
;
