#TITLE:Bumper;
#SUBTITLE:;
#ARTIST:Arshad;
#TITLETRANSLIT:;
#SUBTITLETRANSLIT:;
#ARTISTTRANSLIT:;
#GENRE:;
#CREDIT:;
#BANNER:;
#BACKGROUND:;
#LYRICSPATH:;
#CDTITLE:;
#MUSIC:Arshad Bumper-_Audio-Only_.ogg;
#OFFSET:-0.429000;
#SAMPLESTART:6.848000;
#SAMPLELENGTH:17.100000;
#SELECTABLE:YES;
#BPMS:0.000000=140.000000
;
#STOPS:
;
#BGCHANGES:;
#KEYSOUNDS:;
#ATTACKS:;

//---------------dance-single - ----------------
#NOTES:
     dance-single:
     :
     Beginner:
     3:
     0.153276,0.224939,0.084705,0.075293,0.000000,114.000000,105.000000,9.000000,8.000000,0.000000,0.000000,0.153276,0.224939,0.084705,0.075293,0.000000,114.000000,105.000000,9.000000,8.000000,0.000000,0.000000:
0000
0000
0000
0000
,
0000
0000
0000
2000
,
0000
0000
0000
0002
,
3000
0000
0000
2000
,
0003
0000
0000
3001
,
0000
0100
0000
0001
,
0000
1000
0000
0100
,
0000
0010
0000
0001
,
0000
0001
0000
1000
,
0000
1000
0000
0001
,
0000
0100
0000
0010
,
0000
1000
0001
1000
,
0000
0001
0000
0000
,
0000
1000
0000
0100
,
0000
1000
0000
0000
,
0000
0100
0000
0001
,
0000
0100
0000
0000
,
0000
0100
0000
0001
,
0000
1000
0000
0000
,
0000
0020
0000
0130
,
0000
0001
0000
1000
,
0000
1000
0000
0001
,
0000
0100
0000
0010
,
0000
0000
0000
0110
,
0000
0110
0000
0000
,
0000
1000
0000
0001
,
0000
1001
0000
0001
,
0000
0100
0000
0010
,
0000
0010
0000
1000
,
0000
0000
0000
1000
,
0000
0001
0000
0001
,
0000
0100
0000
0001
,
0000
1000
0000
0001
,
0000
0100
0000
0100
,
0000
0010
0000
0010
,
0000
0000
0000
1001
,
0000
1001
0000
1001
,
0000
0000
0000
0110
,
0000
0110
0000
0110
,
0000
0000
0000
0002
,
0000
1003
0000
1000
,
0000
0001
0000
2000
,
0000
3001
0000
0100
,
0000
0020
0000
1030
,
0000
0001
0000
0100
,
0000
0000
0000
0100
,
0000
0001
0000
1000
,
0000
0000
0000
1000
,
0000
0010
0000
0100
,
0000
0000
0000
0001
,
0000
0100
0000
0010
,
0000
0000
0000
2000
,
0000
3001
0000
0100
,
0100
0100
0000
0001
,
0000
1000
0000
0010
,
0010
0010
0000
1000
,
0000
0001
0000
1000
,
0010
1000
0000
0001
,
0000
0100
0000
0010
,
0100
0010
0000
0100
;

//---------------dance-single - ----------------
#NOTES:
     dance-single:
     :
     Easy:
     7:
     0.334787,0.393643,0.319997,0.112940,0.000000,249.000000,215.000000,34.000000,12.000000,0.000000,0.000000,0.334787,0.393643,0.319997,0.112940,0.000000,249.000000,215.000000,34.000000,12.000000,0.000000,0.000000:
0000
0000
0000
0000
,
0000
0000
0000
0000
,
0000
0000
0000
0000
,
0000
0000
0000
1000
,
0001
0100
0010
1000
,
0001
2000
3002
1003
,
0010
0100
0010
1000
,
0100
0020
0032
1003
,
1000
0001
0001
0100
,
0010
0100
0010
0110
,
1000
0001
0001
1000
,
1000
0001
0100
0101
,
0101
0001
0000
1000
,
0100
0010
0001
1100
,
1100
1000
0000
0001
,
0100
0010
0000
0010
,
1000
0001
0100
0110
,
0010
1000
1001
0001
,
0100
0101
0001
1000
,
0010
0200
0000
0301
,
0000
1000
0000
0000
0001
0000
1000
0000
,
0001
0000
1001
0000
1000
0100
1000
0000
,
0000
0001
0000
0000
1000
0000
0010
0000
,
0100
0000
0001
0010
0001
0000
0101
0000
,
0000
0001
0000
0000
1000
0000
0100
0000
,
0010
0000
0011
0000
0001
0100
0001
0000
,
0000
1000
0000
0000
0010
0000
0100
0000
,
0001
2000
3000
1001
,
0001
0100
0010
1000
,
0001
0000
0100
0000
0010
0100
0010
0000
,
1000
0001
0001
1000
,
0001
0101
0001
1001
,
1000
0010
0100
0101
,
0001
1010
0100
0002
,
1003
1000
0001
0101
,
0010
1000
0001
1001
,
1001
0100
0010
1000
,
1001
0101
0001
1000
,
0010
0100
0110
0101
,
0001
0010
0100
1100
,
0110
0001
1000
1001
,
0101
0001
1000
1010
,
0101
0001
1000
0101
,
1010
0002
0000
1003
,
0000
0001
0100
0000
0001
0000
1000
0000
,
0010
0000
0100
0000
0001
0010
0001
0000
,
0000
1000
0001
0000
0100
0000
0010
0000
,
1000
0002
2003
3001
,
0000
0100
0010
0000
1000
0000
0001
0000
,
0001
0000
1000
0000
1000
0001
1000
0000
,
0000
0001
0100
0000
0010
0000
1000
0000
,
0001
2000
0000
3001
,
0000
0100
0000
0000
0010
0000
1000
0000
,
0001
1001
0000
0001
,
0000
0100
0000
0000
0010
0000
1000
0000
,
0010
2010
0000
3001
,
0000
0100
0000
0000
0001
0000
1000
0000
,
0010
0101
0000
0100
,
0000
0010
0000
0000
1000
0000
0001
0100
,
0001
0000
1000
0000
0010
1000
0010
0000
;

//---------------dance-single - ----------------
#NOTES:
     dance-single:
     :
     Medium:
     11:
     0.537810,0.562348,0.442349,0.244704,0.000000,400.000000,353.000000,47.000000,26.000000,0.000000,0.000000,0.537810,0.562348,0.442349,0.244704,0.000000,400.000000,353.000000,47.000000,26.000000,0.000000,0.000000:
// measure 0
0000
0000
0000
0000
,  // measure 1
0000
0000
0000
0000
0000
0000
1000
0001
,  // measure 2
0100
0000
0001
0100
0010
0000
1000
0100
,  // measure 3
0010
0001
2000
0000
3002
0000
0103
0000
,  // measure 4
0110
0000
1000
0001
0000
0001
0100
0010
,  // measure 5
1000
0001
0101
1001
,  // measure 6
1000
0000
0010
1000
0000
0010
0100
0001
,  // measure 7
1000
0001
0101
1010
,  // measure 8
0100
0000
0001
0100
0000
0100
0001
1000
,  // measure 9
0010
1000
0101
1001
,  // measure 10
0001
0000
0100
0010
0000
0100
0010
1000
,  // measure 11
0001
1000
0002
0000
0103
0000
0010
0000
,  // measure 12
0010
1000
0001
0000
0100
0100
0010
1000
,  // measure 13
1000
0001
0100
0000
0001
0000
0110
0000
,  // measure 14
1000
0100
0010
0000
0010
0001
0001
1000
,  // measure 15
0100
0001
0100
0000
1000
0000
0101
0000
,  // measure 16
0001
0100
0001
0000
1000
1000
1000
0001
,  // measure 17
0100
0001
0010
0000
0100
0000
1100
0000
,  // measure 18
0100
0010
0001
0000
1000
1000
0001
0100
,  // measure 19
0100
0010
0200
0000
0000
0000
0310
0000
,  // measure 20
1000
0100
0011
0000
0001
0010
0100
0010
,  // measure 21
0001
0000
1100
0000
0010
0010
0200
0000
,  // measure 22
0301
0100
0101
0000
1000
0010
0100
0001
,  // measure 23
1000
1000
0001
0010
0001
0010
0120
0000
,  // measure 24
1030
0001
0100
0000
0001
0001
0100
0010
,  // measure 25
2000
0000
3001
0000
0100
0010
0210
0000
,  // measure 26
0301
1000
1001
0000
0100
0010
1000
0001
,  // measure 27
0100
0001
2000
0000
0000
0000
3001
0100
,  // measure 28
0001
0100
1010
0000
0100
0001
0010
0100
,  // measure 29
1000
0001
1001
0000
0100
0010
0100
0001
,  // measure 30
1000
0010
0101
0001
1000
0010
0110
0100
,  // measure 31
0001
1000
0100
0010
0001
0001
1001
0001
,  // measure 32
0200
0310
0000
0010
0100
0100
0001
1000
,  // measure 33
0002
0000
1003
0100
0001
0100
1000
0010
,  // measure 34
0200
0301
0000
1000
1000
1000
0002
0000
,  // measure 35
0203
0000
0310
0010
0100
0000
1010
0000
,  // measure 36
0101
0000
1010
0000
0101
0001
0101
0000
,  // measure 37
1010
0000
0001
0100
0001
1000
2010
0000
,  // measure 38
3002
0000
0103
0000
0110
0100
1001
0000
,  // measure 39
0101
0000
0110
0000
1100
0100
0120
0000
,  // measure 40
0032
0000
1003
0000
0101
0001
1001
0000
,  // measure 41
0100
0010
0100
0000
0001
0100
0102
0000
,  // measure 42
2003
0000
3010
0000
0101
0010
0101
0000
,  // measure 43
0000
2000
0000
3001
,  // measure 44
1000
0010
0100
0001
0100
0001
1000
0010
,  // measure 45
0100
0000
0101
0000
0001
0001
2000
0000
,  // measure 46
3010
0100
0101
0000
0001
0100
0010
1000
,  // measure 47
0001
0100
0010
0100
0001
1000
0002
0000
,  // measure 48
0103
0010
0101
0000
1000
0100
2000
0000
,  // measure 49
3100
0010
0001
0000
0100
0010
1001
0000
,  // measure 50
0100
0001
1000
0001
0100
0001
0001
1000
,  // measure 51
0010
0100
0010
0100
0001
1000
1001
0000
,  // measure 52
0001
0100
0010
1000
0000
0001
0000
0100
,  // measure 53
0100
0000
0010
0000
1000
0100
0101
0001
,  // measure 54
0001
1000
0100
0000
0010
0001
0100
0010
,  // measure 55
1000
1000
0002
0000
1003
0000
1000
0001
,  // measure 56
0100
0010
1000
0100
0010
0001
0001
1000
,  // measure 57
0100
1000
0010
0010
0100
0100
0101
0001
,  // measure 58
1000
0010
0101
0000
1000
0001
0100
0100
,  // measure 59
0010
1000
0200
0000
0310
0100
0010
0000
;

//---------------dance-single - ----------------
#NOTES:
     dance-single:
     :
     Hard:
     15:
     0.723355,0.759169,0.517642,0.216469,0.362350,538.000000,483.000000,55.000000,23.000000,0.000000,0.000000,0.723355,0.759169,0.517642,0.216469,0.362350,538.000000,483.000000,55.000000,23.000000,0.000000,0.000000:
0000
0000
0000
0000
,
0000
0000
0000
0000
0000
0000
1001
1000
,
0001
0000
0100
0000
0010
0000
1000
0000
0001
0000
0010
0000
0100
0010
0001
0100
,
0001
1000
0001
1000
0010
1000
0001
0100
0001
1000
0010
0100
1001
0000
0000
0000
,
0011
0000
0110
1000
0000
0001
0101
0000
,
1010
0000
0100
0000
0001
0000
1000
0001
0100
0000
0001
0010
0001
0000
0000
0000
,
1001
0001
1000
0010
0100
0001
0101
0100
,
0102
0000
0000
0000
1003
0000
0010
0100
0001
1000
0100
0010
0001
0000
1000
0000
,
0001
0000
0100
0000
0010
0000
0000
0100
0000
0000
0001
0000
1001
0000
0100
0000
,
1100
0000
0010
0000
0011
0000
0001
0010
0100
0000
1000
0100
0010
0000
0001
0000
,
0100
0000
0010
0000
1001
0000
0000
1000
0000
0000
0001
0000
0100
0000
0001
0000
,
1001
0100
1001
0110
1010
0000
0001
0000
,
0100
0010
1000
0000
0001
0001
1100
0010
,
0100
0001
1000
0001
0011
0000
0110
0000
,
1000
0100
0010
0000
0001
0100
1000
0001
,
0010
0000
1000
0000
1000
0000
0001
0000
0100
0001
0100
0001
1000
0000
0000
0000
,
0001
0000
0100
0000
0010
0000
0000
0100
0010
0000
1000
0000
1000
0000
0001
0000
,
0001
0000
0100
0000
0110
0000
0000
0000
1000
0000
0001
0000
0100
0000
0001
0010
,
0001
1000
0100
0010
0001
1000
1100
0100
,
0100
0010
0002
0000
2003
0000
3010
0000
,
0100
0010
1000
0000
0001
0100
0020
0000
,
1030
0001
0200
0000
0301
0001
0101
0000
,
1000
0010
0100
0001
0010
1000
0010
0001
,
1000
0000
1000
0000
0010
0000
0100
0000
0001
1000
0001
0100
0001
0000
0000
0000
,
1000
0010
0100
0001
0001
0010
0010
0100
,
0010
0010
0001
0000
1000
0010
2000
0000
,
3001
0010
0100
0000
0100
0010
0001
1000
,
0001
0000
0100
0000
0001
0000
0000
1000
0000
0000
0001
0000
1001
0000
0100
0000
,
0010
1000
0011
0000
0001
0100
0010
1000
,
0001
0000
0100
0000
1001
0000
0001
0100
0001
0000
1000
0010
0100
0000
0001
0000
,
1000
0010
0100
0001
1000
0010
0101
0001
,
1000
1000
0010
0100
0001
0100
0101
0001
,
1001
0000
1000
0000
0100
0000
0010
0000
0100
0010
0001
0000
1000
0000
0100
0000
,
1000
0000
0001
0000
0100
0000
0001
0010
0100
0000
1000
0100
0010
0000
0001
0000
,
0010
0001
1000
0100
0001
0100
1100
0000
,
0010
0000
0110
0110
1001
0000
0202
0303
,
2020
3030
0001
0100
0001
1000
1100
0000
,
0101
0000
0000
0000
0010
0000
0001
0000
1000
0000
0100
0000
0010
0000
0001
0010
,
0002
0000
0000
0000
1003
0000
0100
0010
0001
0000
1000
0000
0001
0010
0001
0000
,
1000
0000
0001
0100
0010
0000
1000
0000
0001
0000
0100
0000
0210
0000
0000
0000
,
0310
0000
1000
0001
1000
0000
0001
0010
0100
1000
0001
0010
0001
0000
1000
0000
,
0001
0010
0001
0100
0010
1000
0100
0010
0100
0000
1000
0000
0101
0000
0001
0010
,
0002
0000
0000
0000
1003
0100
0010
0100
1000
0000
0001
0000
0100
0001
1000
0010
,
0100
0000
0001
0000
1000
0100
0010
0001
0100
0010
0100
0010
1000
0000
0000
0000
,
0001
0000
0010
0000
1010
0000
0100
0000
0001
0000
0100
0000
0001
0000
1000
0100
,
0010
0000
0011
0000
0110
1000
0210
0000
,
0301
0000
0010
0000
0001
0000
1000
0000
0100
1000
0001
1000
0001
0000
0100
0000
,
0010
0100
0001
1000
0100
0010
0012
0000
,
1003
0000
0010
0000
0100
0010
1000
0000
0001
0010
0001
0000
1000
0000
0100
0000
,
0200
0300
0110
0000
0011
0001
1002
0000
,
1003
0000
0010
0000
0100
0000
0001
0000
0100
0001
1000
0000
0010
0100
0001
0000
,
1000
0100
1000
0001
1000
0000
0000
0000
0001
0000
1000
0000
0002
0000
0000
0000
,
0103
0000
0010
0100
0010
0000
1000
0100
1000
0000
0001
0010
0100
0000
1000
0010
,
0100
0000
0001
0010
0001
0100
0002
0000
0000
0000
0003
0000
1100
0000
0010
0000
,
0011
0000
0100
0000
1010
0000
0100
0000
0101
0000
1000
0001
1000
0000
0010
0100
,
0010
0000
0100
0000
0002
0000
0000
0000
0203
0000
0000
0000
0310
0000
0100
0001
,
0100
0000
0010
1000
0010
0000
1000
0100
0010
0000
0001
0010
0100
0000
1000
0010
,
0100
0000
0001
0100
0020
0000
0000
0000
1030
0000
0001
0000
0101
0000
0001
0000
,
1001
0000
0100
0000
0110
0000
0001
0000
0011
0000
0001
0010
0100
0000
0010
0100
,
1000
0000
0100
0000
0020
0000
0000
0000
0031
0010
0001
0010
0001
0000
0000
0000
;
