#VERSION:0.83;
#TITLE:Bukiyou ni koishiteru;
#SUBTITLE:;
#ARTIST:Megumi Tatsumi featured by Hiroaki Sano;
#TITLETRANSLIT:;
#SUBTITLETRANSLIT:;
#ARTISTTRANSLIT:;
#GENRE:;
#ORIGIN:;
#CREDIT:from pop n music 20;
#BANNER:20140805020321!20_MUNE_KYUN_MARBLE.png;
#BACKGROUND:;
#PREVIEWVID:;
#JACKET:;
#CDIMAGE:;
#DISCIMAGE:;
#LYRICSPATH:;
#CDTITLE:;
#MUSIC:Bukiyou_ni_koishiteru.ogg;
#OFFSET:-0.435000;
#SAMPLESTART:73.004997;
#SAMPLELENGTH:16.100000;
#SELECTABLE:YES;
#BPMS:0.000=136.000;
#STOPS:;
#DELAYS:;
#WARPS:;
#TIMESIGNATURES:0.000=4=4;
#TICKCOUNTS:0.000=4;
#COMBOS:0.000=1;
#SPEEDS:0.000=1.000=0.000=0;
#SCROLLS:0.000=1.000;
#FAKES:;
#LABELS:0.000=Song Start;
#BGCHANGES:;
#KEYSOUNDS:;
#ATTACKS:
;

//---------------dance-single - ----------------
#NOTEDATA:;
#CHARTNAME:;
#STEPSTYPE:dance-single;
#DESCRIPTION:;
#CHARTSTYLE:;
#DIFFICULTY:Beginner;
#METER:2;
#RADARVALUES:0.097982,0.129745,0.036580,0.036580,0.000000,75.000000,71.000000,4.000000,4.000000,0.000000,0.000000,0.000000,0.000000,0.000000,0.097982,0.129745,0.036580,0.036580,0.000000,75.000000,71.000000,4.000000,4.000000,0.000000,0.000000,0.000000,0.000000,0.000000;
#CREDIT:;
#NOTES:
0000
0000
0000
0000
,
0000
0000
0000
0000
,
0000
0000
0000
0000
,
0000
0000
0000
0000
,
0000
1000
0000
0000
,
0000
1000
0000
0000
,
0000
1000
0000
0000
,
0000
0000
0000
0000
,
0000
1001
0000
0000
,
0000
0001
0000
0100
,
0000
0001
0000
0000
,
0000
1000
0000
0100
,
0000
1000
0000
0000
,
0000
0001
0000
0100
,
0000
0010
0000
0000
,
0000
1000
0000
0010
,
0000
0100
0000
0000
,
0000
1001
0000
0000
,
0000
1000
0000
0000
,
0000
1000
0000
1000
,
0000
1000
0000
0000
,
0000
0001
0000
0001
,
0000
0001
0000
0000
,
0000
0100
0000
0100
,
0000
0100
0000
0000
,
0000
0010
0000
0000
,
0000
0010
0000
0010
,
0000
0010
0000
0000
,
0000
0100
0000
0100
,
0000
0100
0000
0000
,
0000
0001
0000
0100
,
0000
0010
0000
1000
,
0000
0001
0000
0000
,
0000
0100
0000
0000
,
0000
0010
0000
0000
,
0000
0100
0000
0000
,
0000
0110
0000
0000
,
0000
0000
0000
0000
,
0000
1001
0000
0000
,
0000
1000
0000
0000
,
0000
2000
0000
0000
,
3000
0001
0000
0001
,
0000
0100
0000
0010
,
0000
0010
0000
1000
,
0000
0001
0000
1000
,
0000
0010
0000
0010
,
0000
1000
0000
0001
,
0000
1000
0000
0000
,
0000
0002
0000
0003
,
0000
2000
0000
3000
,
0000
0001
0000
0001
,
0000
0001
0000
0000
,
0000
0100
0000
0010
,
0000
0100
0000
0000
,
0000
0001
0000
1000
,
0000
0001
0000
0000
,
0000
2000
0000
3000
;

//---------------dance-single - ----------------
#NOTEDATA:;
#CHARTNAME:;
#STEPSTYPE:dance-single;
#DESCRIPTION:;
#CHARTSTYLE:;
#DIFFICULTY:Easy;
#METER:5;
#RADARVALUES:0.222094,0.323734,0.146320,0.064015,0.000000,170.000000,154.000000,16.000000,7.000000,0.000000,0.000000,0.000000,0.000000,0.000000,0.222094,0.323734,0.146320,0.064015,0.000000,170.000000,154.000000,16.000000,7.000000,0.000000,0.000000,0.000000,0.000000,0.000000;
#CREDIT:;
#NOTES:
0000
0000
0000
0000
,
0000
0000
0000
0000
,
0000
0000
0000
0000
,
0000
0000
0000
0000
,
0000
1000
0010
0100
,
0001
1000
0010
0110
,
0000
1001
0000
1000
,
0001
0100
0010
0100
,
0001
1001
1001
0110
,
0100
0001
1000
0100
,
0010
0001
1000
1100
,
1100
1000
0001
0100
,
0010
1000
0001
0101
,
0010
1000
0100
0110
,
0001
0010
0100
1000
,
0001
1000
0001
0010
,
0110
0000
0000
0000
,
0000
1001
1000
1000
,
1000
0001
0001
0001
,
0001
1000
1000
0100
,
0000
1000
0000
0010
,
0000
0100
0000
0001
,
0010
0001
0100
0010
,
1000
0100
0100
0010
,
0010
0001
0000
0000
,
0000
1010
0000
1000
,
1000
0100
0010
0010
,
0100
0010
0000
0000
,
0001
0100
0000
0100
,
0010
0100
0000
0001
,
1000
0100
0000
0100
,
0000
0010
0000
1000
,
0000
0000
0010
0010
,
0010
0100
0000
0100
,
0000
0001
0000
1001
,
0000
0100
0010
0100
,
0000
0000
0001
2000
,
3000
0000
0001
0200
,
0300
0001
0000
1000
,
0000
2000
0000
3000
,
0000
2000
0000
0000
,
3000
0001
0100
0101
,
0000
0100
0010
0100
,
0000
0010
0100
1010
,
0000
0001
0100
0010
,
0000
0010
1000
0010
,
0100
0001
1000
0001
,
0000
0000
0000
0100
,
0000
0002
1000
1003
,
0000
0001
0100
0010
,
0100
0001
0000
1000
,
0010
0100
0001
1000
,
0000
0100
0010
0101
,
0000
0100
0001
1000
,
0010
0100
0010
0010
,
0000
0000
0000
0100
,
0000
0000
0000
0020
,
0000
0030
0000
0000
,
2000
0000
0000
0000
,
3000
0000
0000
0000
;

//---------------dance-single - ----------------
#NOTEDATA:;
#CHARTNAME:;
#STEPSTYPE:dance-single;
#DESCRIPTION:;
#CHARTSTYLE:;
#DIFFICULTY:Medium;
#METER:9;
#RADARVALUES:0.378866,0.405525,0.128030,0.246916,0.000000,290.000000,276.000000,14.000000,27.000000,0.000000,0.000000,0.000000,0.000000,0.000000,0.378866,0.405525,0.128030,0.246916,0.000000,290.000000,276.000000,14.000000,27.000000,0.000000,0.000000,0.000000,0.000000,0.000000;
#CREDIT:;
#NOTES:
0000
0000
0000
0000
,
0000
0000
0000
0000
,
0000
0000
0000
0000
,
0000
0000
0000
0000
,
0000
0000
1000
0010
0100
0010
0100
0000
,
0010
1000
0000
0001
0100
0010
1000
0000
,
0001
0200
0000
0300
0010
2000
0000
3001
,
0000
0200
0000
0310
0100
0001
0020
0000
,
0030
0000
1100
0000
0010
1000
0100
0000
,
0010
0002
0003
0000
1000
0010
0100
0000
,
0001
2000
3000
0000
0010
1000
0001
0000
,
0010
2000
3000
0000
0010
0001
0100
0000
,
0000
0220
0000
0000
0330
0000
1000
0000
,
0001
0100
0010
0000
1000
0010
0100
0000
,
0001
0010
1000
0000
0001
0100
0010
0000
,
0001
0100
1000
0000
0100
0001
0010
0000
,
0000
2001
0000
0000
3001
0100
0010
1000
,
0001
2000
0000
3000
0000
0001
0100
0010
,
0000
1001
0000
1000
0100
1000
0100
0000
,
0000
1000
0001
0100
0000
0000
0000
0010
,
0000
0200
0300
0001
0010
0100
1000
0001
,
1000
0002
0003
0000
0000
1000
0010
0100
,
0001
0100
0000
0010
0200
0000
0000
0000
,
0301
0000
0100
0010
1000
0001
0100
0010
,
0100
0020
0030
1000
0001
1000
0001
0100
,
0001
2000
0000
3000
0000
0010
0100
0001
,
0000
1001
0000
0010
0100
1000
0010
0100
,
0000
0101
0000
0010
2000
0000
3000
0000
,
0001
0100
0000
0010
0100
0010
0100
0000
,
0001
1000
0000
1000
0001
0100
0001
0100
,
0000
0010
0000
1000
0010
0100
0000
0001
,
0100
0010
0000
0000
1000
0100
0010
0001
,
1000
0002
0000
0003
0000
0100
0010
0100
,
0010
0100
0000
0010
0000
1000
0000
0001
,
0000
0100
0000
0010
1000
0001
0100
0000
,
0000
0110
0000
0001
0000
0100
0000
0010
,
0100
0010
0000
1000
0001
1000
0001
0000
,
0000
0001
0000
1000
0001
1000
0001
0000
,
0000
0101
0000
0001
0000
0100
0000
0010
,
0000
1001
0000
0010
0100
0002
0000
0000
,
0000
0003
0000
0000
,
0000
0000
0100
0010
0100
0001
0010
0000
,
0001
1000
0000
1000
0001
0100
0010
0000
,
0000
1000
0100
0010
0100
1000
0100
0000
,
1000
1000
0000
0001
0100
0010
0100
0000
,
0000
0000
0010
0100
0010
1000
0100
0000
,
1000
0001
0000
0100
0010
0100
0001
0000
,
1000
0002
0000
1000
0000
1000
0000
1003
,
0000
1000
0000
0010
0100
0002
0000
0000
,
0003
0000
1000
0010
0100
0001
0100
0000
,
0001
0010
0000
0001
0010
0001
0010
0000
,
0000
0001
0100
0010
1000
0001
0100
0000
,
0100
0001
0000
0001
1000
0010
0100
0000
,
0000
0000
0100
0010
1000
0010
0100
0000
,
0100
0001
0000
0001
1000
0001
0010
0000
,
0010
0200
0000
0300
0100
2000
0000
3002
,
0000
0103
0000
0010
0100
0010
0200
0000
,
0300
1001
0000
1100
0000
1010
0000
0011
,
0000
0202
0000
0000
0000
0000
0000
0000
,
0000
0303
0000
0000
0000
0000
0000
0000
;

//---------------dance-single - ----------------
#NOTEDATA:;
#CHARTNAME:;
#STEPSTYPE:dance-single;
#DESCRIPTION:;
#CHARTSTYLE:;
#DIFFICULTY:Hard;
#METER:12;
#RADARVALUES:0.506896,0.596027,0.283496,0.320076,0.169183,388.000000,357.000000,31.000000,35.000000,0.000000,0.000000,0.000000,0.000000,0.000000,0.506896,0.596027,0.283496,0.320076,0.169183,388.000000,357.000000,31.000000,35.000000,0.000000,0.000000,0.000000,0.000000,0.000000;
#CREDIT:;
#NOTES:
// measure 0
0000
0000
0000
0000
,  // measure 1
0000
0000
0000
0000
,  // measure 2
0000
0000
0000
0000
,  // measure 3
0000
0000
0000
0000
,  // measure 4
0000
0000
1000
0010
0100
0010
2000
3000
,  // measure 5
0001
2000
3000
0001
0100
0010
1000
0000
,  // measure 6
0001
1000
0010
1000
0010
2000
0000
3002
,  // measure 7
0003
2002
3003
0100
0010
1000
0022
0003
,  // measure 8
0030
0000
0000
0000
0011
0000
0001
1000
0010
0000
0000
1000
0100
0000
0000
0000
,  // measure 9
0001
0000
0022
0000
0033
0000
0000
0001
1000
0000
0000
0000
0110
0000
0000
0000
,  // measure 10
1000
0000
2200
0000
3300
0000
0000
0010
0100
0000
0001
0000
0100
0000
0000
0000
,  // measure 11
0010
0000
2020
0000
3030
0000
0000
0001
0010
0000
0001
0000
0100
0001
0100
0001
,  // measure 12
0100
0001
0200
0000
0300
0000
0000
0010
0100
0000
0000
0000
1001
0000
0000
0000
,  // measure 13
0100
0010
0200
0000
0300
0000
0000
0010
1000
0000
0000
0000
0001
0000
1000
0001
,  // measure 14
0100
0000
0020
0000
0030
0000
0000
0100
0010
0000
0000
0000
1000
0000
0001
0100
,  // measure 15
0001
0000
0200
0000
0000
0300
0000
0001
1000
0000
0000
0000
0001
0100
0001
0100
,  // measure 16
0001
0200
0300
0001
0000
1000
0010
0100
,  // measure 17
0001
2000
0000
3000
0001
0100
0010
0100
,  // measure 18
0000
0100
0010
0000
0000
0000
0100
0000
0010
0000
1000
0000
0001
0000
1000
0001
,  // measure 19
0100
0001
1000
0010
0000
0000
0100
0010
,  // measure 20
0000
0010
0100
0000
0000
0000
0001
0000
0010
0000
0100
0000
1000
0000
0001
0000
,  // measure 21
0100
0101
0000
0001
1000
0010
0100
0010
,  // measure 22
1000
0000
0001
0000
0000
0000
0100
0001
0100
0000
0000
0000
0010
0000
1000
0000
,  // measure 23
0010
0001
0010
1000
0100
0010
0001
0010
,  // measure 24
0100
1000
0000
0001
0100
0010
0100
0010
,  // measure 25
1000
0010
0200
0000
0300
0000
0000
0000
0000
0000
0001
0000
0100
0000
0010
0000
,  // measure 26
0100
0010
0000
0100
0110
0010
0010
1001
,  // measure 27
0000
1001
0000
0001
0200
0000
0300
0000
,  // measure 28
0010
0100
0000
1000
0010
0100
0000
0000
,  // measure 29
0001
0100
0000
0001
0010
1000
0000
0001
,  // measure 30
0000
1001
0000
0010
0100
0110
0000
0001
,  // measure 31
1000
0110
0000
1000
0001
0110
0000
0100
,  // measure 32
0010
0202
0000
0303
0000
1000
0001
0001
,  // measure 33
0100
0010
0000
0100
0010
0100
0001
1000
,  // measure 34
0000
0000
0001
0000
0000
0000
1000
0000
0001
0000
0000
0100
0010
0000
0000
0000
,  // measure 35
0100
0010
0000
0010
0001
1000
0100
0010
,  // measure 36
0100
0000
0001
0000
0000
0000
1000
0001
0100
0000
0001
0000
0100
0000
0010
0000
,  // measure 37
0100
0110
0000
0001
1000
0010
2000
3000
,  // measure 38
0000
0101
0000
0110
0000
2000
0000
3001
,  // measure 39
0000
0011
0000
1000
0010
0100
0020
0000
,  // measure 40
0000
0000
0000
0000
0030
0000
1000
0100
1000
0100
1000
0100
1000
0100
1000
0100
,  // measure 41
1000
0000
0000
0000
1001
0000
0100
0000
0010
0000
0100
0000
0010
0000
0100
0001
,  // measure 42
0100
0000
0010
0000
0000
0000
1000
0000
0001
0000
0100
0000
0001
0000
0100
0010
,  // measure 43
0100
0001
1000
0100
1000
0010
0001
0010
,  // measure 44
1000
0002
0003
1000
0100
0010
0001
1000
,  // measure 45
1001
0000
0001
0100
0010
1000
0100
0010
,  // measure 46
0100
1000
0000
0001
0010
0100
0010
0100
,  // measure 47
1000
0000
1001
0000
0000
0000
0100
0001
0100
0000
0010
0000
1000
0000
0001
0000
,  // measure 48
0000
0101
0000
0001
0100
0001
0000
0000
,  // measure 49
1100
0000
0100
0000
0010
0000
0100
0000
1000
0000
0001
0100
0001
0000
0000
0000
,  // measure 50
1000
0001
0000
0100
0010
1000
0001
0000
,  // measure 51
1000
0010
0010
0100
0001
0100
0100
0000
,  // measure 52
0001
0100
0010
0100
0100
0001
1000
0100
,  // measure 53
1001
0000
0000
0000
0001
0000
0100
0000
0010
0000
1000
0001
1000
0000
0000
0000
,  // measure 54
0001
1000
0010
1000
0001
0100
0010
0100
,  // measure 55
0110
0000
0220
0000
0000
0000
0330
0000
0001
1000
0002
0000
0000
0000
1003
0000
,  // measure 56
0000
0120
0000
0100
0130
0001
0200
0000
,  // measure 57
0310
0000
0110
0000
0000
0000
1000
0100
1000
0000
0002
0000
0003
0000
0100
0001
,  // measure 58
0010
0002
0000
0000
0000
0000
0000
0000
,  // measure 59
0000
0003
0000
0000
;
