#VERSION:0.83;
#TITLE:Bitter Sweets;
#SUBTITLE:;
#ARTIST:THREEP;
#TITLETRANSLIT:;
#SUBTITLETRANSLIT:;
#ARTISTTRANSLIT:;
#GENRE:;
#ORIGIN:;
#CREDIT:from pop n music 11 AC;
#BANNER:CS9_GIRLS_BAND_2.png;
#BACKGROUND:;
#PREVIEWVID:;
#JACKET:;
#CDIMAGE:;
#DISCIMAGE:;
#LYRICSPATH:;
#CDTITLE:;
#MUSIC:THREEP - Bitter Sweets.ogg;
#OFFSET:-0.101000;
#SAMPLESTART:7.236000;
#SAMPLELENGTH:16.500000;
#SELECTABLE:YES;
#DISPLAYBPM:165.000000:170.000000;
#BPMS:0.000=168.106,
38.500=172.000,
40.000=171.998,
48.500=168.106,
50.000=160.000,
51.500=165.000,
52.000=165.101,
53.000=165.000,
54.000=166.000,
59.000=160.000,
60.000=167.101,
77.000=174.000,
78.125=172.000,
78.500=170.000,
92.000=169.788,
93.000=168.000,
99.000=167.001,
99.500=168.001,
105.000=160.000,
107.000=168.001,
129.000=167.788,
129.250=170.000,
129.500=169.000,
144.000=167.000,
164.000=167.101,
164.500=165.101,
165.000=168.001,
187.000=172.000,
196.000=168.001,
198.000=171.000,
199.500=165.000,
200.000=168.000,
215.000=166.000,
215.125=165.000,
220.000=160.000,
220.750=167.101,
231.000=165.000,
236.000=168.000,
252.000=168.778,
259.000=174.000,
260.000=168.501,
260.250=167.788,
284.000=169.000,
298.500=174.000,
303.000=167.788,
303.500=168.000,
316.000=165.000,
324.000=167.001,
327.000=166.501,
327.750=165.001;
#STOPS:;
#DELAYS:;
#WARPS:;
#TIMESIGNATURES:0.000=4=4;
#TICKCOUNTS:0.000=4;
#COMBOS:0.000=1;
#SPEEDS:0.000=1.000=0.000=0;
#SCROLLS:0.000=1.000;
#FAKES:;
#LABELS:0.000=Song Start;
#BGCHANGES:;
#KEYSOUNDS:;
#ATTACKS:
;

//---------------dance-single - ----------------
#NOTEDATA:;
#CHARTNAME:;
#STEPSTYPE:dance-single;
#DESCRIPTION:;
#CHARTSTYLE:;
#DIFFICULTY:Beginner;
#METER:2;
#RADARVALUES:0.117534,0.160991,0.015378,0.061513,0.000000,107.000000,105.000000,2.000000,8.000000,0.000000,0.000000,0.000000,0.000000,0.000000,0.117534,0.160991,0.015378,0.061513,0.000000,107.000000,105.000000,2.000000,8.000000,0.000000,0.000000,0.000000,0.000000,0.000000;
#CREDIT:;
#DISPLAYBPM:160.000000:170.000000;
#NOTES:
0000
0000
0000
0000
,
0000
0000
0000
0000
,
0000
0000
0000
0000
,
0000
0000
0000
0000
,
0000
0000
0000
0000
,
1000
0000
0000
0000
,
0010
0000
0000
0000
,
0100
0000
0000
0000
,
0001
0000
0000
0000
,
0001
0000
0000
0000
,
1000
0000
0000
0000
,
1000
0000
0000
0000
,
0001
0000
0000
0000
,
1000
0000
0000
0000
,
0001
0000
0000
0000
,
1000
0000
0000
0000
,
0000
0000
0000
0000
,
2000
0000
3000
0000
,
0001
0000
0001
0000
,
0001
0000
1000
0000
,
1000
0000
0000
0000
,
2000
0000
3000
0000
,
0010
0000
0010
0000
,
0010
0000
0100
0000
,
0100
0000
0000
0000
,
0002
0000
0003
0000
,
1000
0000
0000
0000
,
0001
0000
1000
0000
,
0001
0000
0000
0000
,
1000
0000
0001
0000
,
1000
0000
0000
0000
,
0001
0000
0001
0000
,
0001
0000
1000
0000
,
1000
0000
0000
0000
,
0002
0000
0003
0000
,
1000
0000
1000
0000
,
0100
0000
0000
0000
,
0100
0000
0100
0000
,
0010
0000
0000
0000
,
0010
0000
0010
0000
,
0001
0000
0000
0000
,
0001
0000
0000
0000
,
1000
0000
0000
0000
,
1001
0000
0000
0000
,
0001
0000
1000
0000
,
0001
0000
0000
0000
,
1000
0000
0001
0000
,
1000
0000
0000
0000
,
0100
0000
0010
0000
,
0100
0000
0000
0000
,
0010
0000
0100
0000
,
0010
0000
0000
0000
,
0001
0000
0000
0000
,
1000
0000
0000
0000
,
0001
0000
0000
0000
,
1000
0000
0000
0000
,
0010
0000
0000
0000
,
0100
0000
0000
0000
,
0001
0000
0000
0000
,
1000
0000
1000
0000
,
1000
0000
0000
0000
,
2000
0000
3000
0000
,
0001
0000
0001
0000
,
0001
0000
1000
0000
,
1000
0000
0000
0000
,
0002
0000
0003
0000
,
1000
0000
1000
0000
,
1000
0000
0001
0000
,
0001
0000
0000
0000
,
0110
0000
0000
0000
,
0001
0000
0001
0000
,
0001
0000
1000
0000
,
1000
0000
0000
0000
,
1000
0000
1000
0000
,
1000
0000
0001
0000
,
0001
0000
0000
0000
,
0100
0000
0010
0000
,
0100
0000
0000
0000
,
0010
0000
0100
0000
,
0010
0000
0000
0000
,
0200
0000
0300
0000
,
0100
0000
0000
0000
,
0100
0000
0100
0000
,
0200
0000
0000
0300
;

//---------------dance-single - ----------------
#NOTEDATA:;
#CHARTNAME:;
#STEPSTYPE:dance-single;
#DESCRIPTION:;
#CHARTSTYLE:;
#DIFFICULTY:Easy;
#METER:5;
#RADARVALUES:0.237264,0.290648,0.099958,0.176850,0.000000,216.000000,203.000000,13.000000,23.000000,0.000000,0.000000,0.000000,0.000000,0.000000,0.237264,0.290648,0.099958,0.176850,0.000000,216.000000,203.000000,13.000000,23.000000,0.000000,0.000000,0.000000,0.000000,0.000000;
#CREDIT:;
#DISPLAYBPM:160.000000:170.000000;
#NOTES:
0000
0000
0000
0000
,
0000
0000
0000
0000
,
0000
0000
0000
0000
,
0000
0000
0000
0000
,
0000
0000
0000
0000
,
1000
0000
1000
0000
,
0010
0000
0010
0000
,
0100
0000
0100
0000
,
0001
0000
0001
0000
,
2000
0000
3001
0000
,
1000
0000
0100
0000
,
1000
0000
0100
0000
,
0010
0000
0001
0000
,
1000
0000
0100
0000
,
1000
0000
0010
0000
,
1000
0000
0100
0000
,
0010
0000
0001
0000
,
2000
0001
3001
0000
,
0001
1000
0001
0000
,
0001
0100
1000
0100
,
0001
0000
0100
0000
,
0200
0010
0310
0000
,
0010
1000
0010
0000
,
0100
0001
0100
0000
,
0100
0010
0100
0001
,
2000
0000
3001
0000
,
2000
3000
0000
0000
,
0001
0001
1000
0000
,
0100
0100
0010
0000
,
0001
1000
1000
0100
,
0100
0100
0010
0000
,
0011
0000
0001
0100
,
0001
0000
0010
0000
,
1000
0000
0100
0000
,
0002
0003
0010
0000
,
1000
0000
1000
0100
,
0200
0300
0010
0001
,
0002
0000
0103
0010
,
0200
0000
0301
1000
,
0010
0000
0010
0100
,
0100
0000
0001
1000
,
1001
0000
1000
0100
,
0010
0100
1000
0000
,
1100
0000
1000
0100
,
0001
0100
1000
0000
,
0100
0010
0001
0100
,
0010
0000
0100
0010
,
1001
0000
1000
0100
,
0100
0010
0010
0001
,
0100
0000
0010
0100
,
0010
0100
0001
0100
,
0020
0000
0030
0000
,
0202
0000
0303
0000
,
1000
0001
1000
0001
,
1000
0000
0001
0000
,
1001
0000
0100
0010
,
0100
0000
0010
0000
,
0202
0000
0303
0000
,
1001
0000
1100
0000
,
1000
0100
1000
0000
,
2000
0001
3001
0000
,
2000
0100
3100
0000
,
0002
0000
0103
0000
,
0010
0000
1000
0000
,
2000
0010
3010
0000
,
0200
0001
0301
0000
,
1000
0001
1000
0000
,
1001
0000
0010
0000
,
0100
0000
0010
0000
,
0110
0000
0001
0000
,
0001
1000
0001
0000
,
1001
0000
1000
0000
,
1000
0100
0010
0001
,
0001
0000
1000
0001
,
1000
0000
0010
0100
,
0020
0000
0030
0000
,
0100
0000
0010
0000
,
0200
0000
0300
0000
,
0010
1000
0001
0000
,
0110
0000
0001
0100
,
0002
0000
0003
0000
,
0100
0010
0100
0000
,
0100
0010
0100
0010
,
0200
0000
0000
0000
,
0300
0000
0000
0000
;

//---------------dance-single - ----------------
#NOTEDATA:;
#CHARTNAME:;
#STEPSTYPE:dance-single;
#DESCRIPTION:;
#CHARTSTYLE:;
#DIFFICULTY:Medium;
#METER:9;
#RADARVALUES:0.389948,0.481531,0.176850,0.161471,0.000000,355.000000,332.000000,23.000000,21.000000,0.000000,0.000000,0.000000,0.000000,0.000000,0.389948,0.481531,0.176850,0.161471,0.000000,355.000000,332.000000,23.000000,21.000000,0.000000,0.000000,0.000000,0.000000,0.000000;
#CREDIT:;
#DISPLAYBPM:165.000000:170.000000;
#NOTES:
0000
0000
0000
0000
,
0000
0000
0000
0000
,
0000
0000
0000
0000
,
0000
0000
0000
0000
,
0000
0000
0000
0000
,
1000
0100
1000
0100
0000
0100
1000
0100
,
0000
1000
0000
0010
0000
0100
0001
0100
,
0000
0010
0100
0001
0000
0100
0000
0010
,
0100
0100
0010
0100
,
2002
0000
3003
0000
,
1000
0100
0000
1100
0000
0010
0000
0000
,
0002
0000
0003
0000
0010
0100
0010
0100
,
0000
0100
0000
0000
0200
0000
0000
0300
,
0020
0000
0000
0030
0100
0000
0000
0000
,
0010
0100
0000
0010
0000
0100
0000
0000
,
1001
0010
0100
0100
,
0010
0000
1000
0000
0100
1000
0100
0000
,
1000
0000
0001
0000
0100
0010
0100
0000
,
0001
0000
1000
0000
0001
1000
0001
0000
,
0100
0110
1000
0100
,
0010
0001
0100
0010
,
0200
0000
0010
0000
0310
0000
1000
0010
,
1000
0000
1000
0000
0100
0000
0010
0001
,
0100
0000
0000
0110
0000
0000
0000
0100
,
0000
0010
0000
0100
0000
0010
0000
0000
,
2000
0001
3001
0001
,
2002
3003
0000
0100
,
0110
0010
1000
0100
,
0100
0000
0100
0000
0010
0000
0001
0010
,
0100
1000
1000
0100
,
0100
0000
0010
0000
0001
0000
1000
0100
,
0010
0000
0100
0100
,
0100
0000
0000
0000
1000
0000
0100
0100
,
1000
0000
0100
0010
,
0001
0000
0010
0100
,
1000
0000
0000
0000
1000
0000
0100
1000
,
0100
0000
0010
0000
0001
0010
0001
0000
,
2000
0100
0100
3100
,
0010
0001
1000
1000
,
0110
0001
0010
0100
,
0100
0000
1000
0000
0001
0000
1000
0100
,
1000
0000
0001
0100
0001
0000
0100
0000
,
0010
0000
0100
0010
0100
0000
0110
0000
,
0010
0010
1000
1000
,
0100
0010
0100
0000
1000
0000
0100
0000
,
0100
0010
0100
0000
1000
0000
0001
0000
,
0010
0001
0010
0001
,
1100
0100
1000
0100
,
0110
0010
0001
0100
,
0101
0010
0100
0001
,
0100
0000
0001
0100
0001
0000
0100
0001
,
0020
0001
0031
0001
,
0200
0010
0310
1000
,
0001
1000
0001
0000
1000
0001
1000
0000
,
0002
0100
0103
0010
,
2001
0000
0001
0000
3100
0000
0010
0001
,
0010
0000
0100
1000
0100
0000
1000
0100
,
1000
0000
0001
0010
0001
0000
1000
0100
,
1000
0000
0001
0010
0001
0000
0000
0000
,
1000
0000
0010
0000
1000
0100
1000
0000
,
2000
0000
3010
0000
,
0100
1000
0100
0000
0100
0100
0010
0000
,
0001
0010
0001
0000
0200
0000
0300
0000
,
0010
0100
0001
0000
1000
0000
0000
0000
,
0002
0000
0013
0000
,
0200
0000
1300
0000
,
1000
0010
1000
0000
,
1010
0100
0010
0000
,
0100
0000
0010
0000
0010
0100
0010
0000
,
0110
0000
0001
0000
1000
0000
0010
1000
,
0010
0000
0100
0000
0001
0000
0100
0001
,
1000
0010
1001
0001
,
1100
0000
0100
0000
0010
0000
0001
1000
,
0001
0000
1000
0000
1000
0000
0100
1000
,
0100
0000
1000
0100
0010
0001
1000
0000
,
0020
0000
0130
0000
,
0100
0000
0010
0000
0010
0000
0100
0001
,
0200
0000
0301
0101
,
0110
0000
1001
0000
1000
0100
1000
0100
,
1000
0001
0010
0100
,
0010
0000
0001
0000
0100
0000
0001
0100
,
0001
0000
0010
0100
0010
0000
0001
0100
,
0001
1100
0110
0011
,
0020
0000
0030
0000
;

//---------------dance-single - this song has really weird sync----------------
#NOTEDATA:;
#CHARTNAME:;
#STEPSTYPE:dance-single;
#DESCRIPTION:this song has really weird sync;
#CHARTSTYLE:;
#DIFFICULTY:Hard;
#METER:12;
#RADARVALUES:0.477823,0.581297,0.146093,0.130715,0.030756,435.000000,416.000000,19.000000,17.000000,0.000000,0.000000,0.000000,0.000000,0.000000,0.477823,0.581297,0.146093,0.130715,0.030756,435.000000,416.000000,19.000000,17.000000,0.000000,0.000000,0.000000,0.000000,0.000000;
#CREDIT:;
#DISPLAYBPM:160.000000:170.000000;
#NOTES:
// measure 0
0000
0000
0000
0000
,  // measure 1
0000
0000
0000
0000
,  // measure 2
0000
0000
0000
0000
,  // measure 3
0000
0000
0000
0000
,  // measure 4
0000
0000
0000
0000
,  // measure 5
1000
0100
1000
0100
0000
0100
1000
0100
,  // measure 6
0000
0010
0000
0001
0000
0100
0001
0100
,  // measure 7
0010
0100
0010
1000
0000
0100
0010
0001
,  // measure 8
0100
0000
0100
0010
0001
0000
0100
0000
,  // measure 9
2000
0001
3001
0001
,  // measure 10
1000
0100
0000
1100
0000
0010
0000
0000
,  // measure 11
0002
0000
0003
0000
0000
0010
0100
0010
,  // measure 12
0100
0010
0000
0000
0200
0000
0300
0000
,  // measure 13
0020
0030
0100
0000
,  // measure 14
0010
0100
0000
0010
0000
0100
0000
0000
,  // measure 15
1001
0000
0100
0010
,  // measure 16
1010
0000
1000
0100
0010
1000
0010
0000
,  // measure 17
1000
0001
0000
0001
0100
0010
0100
0001
,  // measure 18
0000
1000
0010
0100
0000
0100
0010
0001
,  // measure 19
0010
0100
0001
1000
0000
0010
0100
0010
,  // measure 20
0000
0001
0000
0010
0000
0010
0000
0000
,  // measure 21
0000
0100
0010
0100
0000
1000
0000
0001
,  // measure 22
0000
0010
1000
0010
0000
0100
0000
0001
,  // measure 23
0000
0000
0100
0000
0010
0000
0100
0000
0000
0000
0010
0000
0000
0100
0010
0000
,  // measure 24
0000
0010
0100
0000
0000
0100
0010
0000
0000
0010
0100
0000
0000
0000
0000
0000
,  // measure 25
0100
0000
0001
0010
0001
0000
0010
0001
,  // measure 26
0020
0030
0000
0100
,  // measure 27
0110
0010
0010
0010
0000
1000
1000
1000
,  // measure 28
0000
0001
0100
0001
0010
0001
0100
0010
,  // measure 29
0101
0001
0001
0001
0000
1000
1000
0100
,  // measure 30
0000
0010
0001
0010
0001
0000
0011
0000
,  // measure 31
0001
1000
0100
1000
0010
1000
0100
1000
,  // measure 32
0001
0000
0000
0100
0000
0010
0100
0001
,  // measure 33
1000
0010
0010
0010
0000
0100
0000
0010
,  // measure 34
0100
0000
0010
0000
0010
0010
0010
0000
,  // measure 35
1000
0000
0100
0100
1000
0000
0100
1000
,  // measure 36
0100
0010
0000
0001
0000
0010
0001
0010
,  // measure 37
2000
0001
0001
3001
,  // measure 38
0010
0001
0010
0000
1000
0100
1000
0000
,  // measure 39
0110
0000
0001
0000
0010
0001
0100
0000
,  // measure 40
0100
0010
0000
0100
0000
0001
1000
0100
,  // measure 41
1000
0000
0101
0000
0001
0100
0100
0000
,  // measure 42
0010
0100
0010
0010
0100
0100
0100
0000
,  // measure 43
0010
1000
0010
1000
0000
0001
0010
0001
,  // measure 44
0000
0010
0100
0001
0000
0100
1000
0010
,  // measure 45
0000
0010
0100
0010
0000
0100
0000
0001
,  // measure 46
0010
0001
0010
0001
0010
0001
0000
0000
,  // measure 47
1000
0100
0100
0100
0000
1000
0010
0100
,  // measure 48
0000
0010
0100
0001
0000
0010
0001
0100
,  // measure 49
0000
0001
1000
0100
0000
0010
0001
1000
,  // measure 50
0000
0001
0000
0100
0000
0001
0000
0000
,  // measure 51
0020
0001
0031
0001
,  // measure 52
0200
0000
0001
0000
0301
0000
0001
1000
,  // measure 53
0010
1000
0010
0001
0000
0010
1000
0000
,  // measure 54
0002
0010
0013
0010
,  // measure 55
0022
0000
0000
0000
0033
0000
0010
0001
,  // measure 56
0010
0000
0100
1000
0100
0000
1000
0100
,  // measure 57
1000
0100
0000
0000
0001
0000
0010
0000
0001
0010
0000
0000
1000
0000
0100
0000
,  // measure 58
1000
0100
0000
0010
0001
0000
0010
0000
0001
0000
0010
0000
0001
0000
0000
0000
,  // measure 59
1100
0000
0010
0000
1000
0100
1000
0010
,  // measure 60
2000
0000
0000
0001
3000
0001
0000
0000
,  // measure 61
0100
0010
0100
0000
0100
0010
0100
0000
,  // measure 62
0001
0100
0001
0010
0200
0000
1300
0000
,  // measure 63
0110
0000
0001
0100
0001
0000
0100
1000
,  // measure 64
0200
0000
0000
0010
0300
0010
0000
0000
,  // measure 65
0100
0100
0100
0010
,  // measure 66
1000
0000
0010
0000
1000
0000
0000
0100
,  // measure 67
0000
1010
0000
0100
0010
0100
0000
0001
,  // measure 68
0000
0100
0010
0001
0000
0010
0000
1000
,  // measure 69
0000
0100
0010
0001
0000
0001
0000
1000
,  // measure 70
0000
0100
0000
0010
0000
0001
0100
0000
,  // measure 71
1001
0001
0010
0100
0000
1000
0000
0001
,  // measure 72
0000
1100
0100
0100
0000
0010
0000
0001
,  // measure 73
0000
1000
0100
1000
0100
0010
0100
1000
,  // measure 74
0000
0100
0010
0100
0001
0200
0000
0000
,  // measure 75
1300
0000
1000
0100
1000
0100
1000
0000
,  // measure 76
0010
0010
0010
0100
,  // measure 77
0200
0001
0301
0101
,  // measure 78
0110
0000
1100
0000
1000
0100
1000
0100
,  // measure 79
1000
0000
0001
0000
0010
0001
0100
0001
,  // measure 80
0010
0000
0001
0000
0100
0001
0010
0001
,  // measure 81
0100
0000
0010
0100
0000
0001
0100
0000
,  // measure 82
0001
0100
0110
0010
0110
0000
0010
0000
,  // measure 83
0020
0000
0000
0000
,  // measure 84
0030
0000
0000
0000
;
