#TITLE:Better Off (E & M Club Mix);
#SUBTITLE:;
#ARTIST:Camen;
#TITLETRANSLIT:;
#SUBTITLETRANSLIT:;
#ARTISTTRANSLIT:;
#GENRE:Electro;
#CREDIT:;
#BANNER:;
#BACKGROUND:;
#LYRICSPATH:;
#CDTITLE:;
#MUSIC:Camen_-_Better_Off__KD_NRG_Boy_Edit__135m.ogg;
#OFFSET:-0.442000;
#SAMPLESTART:16.444000;
#SAMPLELENGTH:17.100000;
#SELECTABLE:YES;
#BPMS:0.000000=134.882996
,68.000000=134.983002
,72.000000=134.882996
;
#STOPS:
;
#BGCHANGES:;
#KEYSOUNDS:;
#ATTACKS:;

//---------------dance-single - ----------------
#NOTES:
     dance-single:
     :
     Beginner:
     3:
     0.126959,0.166339,0.094377,0.031459,0.000000,113.000000,101.000000,12.000000,4.000000,0.000000,0.000000,0.126959,0.166339,0.094377,0.031459,0.000000,113.000000,101.000000,12.000000,4.000000,0.000000,0.000000:
0000
0000
0000
0000
,
0000
0000
0000
0110
,
0000
0000
0000
1001
,
0000
0000
0000
0110
,
0000
0000
0000
0000
,
1001
0000
0000
0000
,
0001
0000
0001
0000
,
1000
0000
0000
0000
,
1000
0000
0001
0000
,
1001
0000
0000
0000
,
1000
0000
0001
0000
,
0100
0000
0000
0000
,
0100
0000
0001
0000
,
1000
0000
0000
0000
,
0001
0000
0100
0000
,
0001
0000
0000
0000
,
0001
0000
1000
0000
,
0010
0000
0000
0000
,
0100
0000
0000
0000
,
0001
0000
0000
0000
,
1000
0000
0000
0000
,
0001
0000
0000
0000
,
1000
0000
0000
0000
,
0010
0000
0000
0000
,
0000
0000
0100
0000
,
0000
0000
0002
0000
,
0003
0000
1001
0000
,
0000
0000
0100
0000
,
0100
0000
0100
0000
,
0100
0000
0001
0000
,
1000
0000
0001
0000
,
0000
0000
1000
0000
,
1000
0000
0010
0000
,
0010
0000
0100
0000
,
0000
0000
0100
0000
,
0000
0000
0001
0000
,
0010
0000
0100
0000
,
1000
0000
0100
0000
,
0010
0000
0001
0000
,
1000
0000
0001
0000
,
0000
0000
0200
0000
,
0000
0000
0310
0000
,
0000
0000
0110
0000
,
0100
0000
0001
0000
,
1000
0000
1000
0000
,
0001
0000
0001
0000
,
0100
0000
0100
0000
,
0010
0000
0010
0000
,
0000
0000
1000
0000
,
0001
0000
0100
0000
,
0010
0000
1010
0000
,
1000
0000
0001
0000
,
0000
0000
0001
0000
,
0010
0000
0100
0000
,
0010
0000
0001
0000
,
0000
0000
1000
0000
,
0001
0000
0100
0000
,
0010
0000
1000
0000
,
0001
0000
1001
0000
,
0000
0000
0100
0000
,
0000
0000
0101
0000
,
0000
0000
0001
0000
,
1000
0000
1001
0000
,
0000
0000
0010
0000
,
0000
0000
1000
0000
,
0000
0000
0100
0000
,
0010
0000
0022
0000
,
0033
0000
1000
0000
,
0000
0000
0001
0000
,
0100
0000
0001
0000
,
1000
0000
0010
0000
;

//---------------dance-single - ----------------
#NOTES:
     dance-single:
     :
     Easy:
     6:
     0.258412,0.333858,0.133700,0.117971,0.000000,230.000000,213.000000,17.000000,15.000000,0.000000,0.000000,0.258412,0.333858,0.133700,0.117971,0.000000,230.000000,213.000000,17.000000,15.000000,0.000000,0.000000:
0000
0000
0000
0000
,
0000
0000
0000
1001
,
0000
0100
0000
0010
,
0000
1000
0000
1001
,
0001
0001
0000
1000
,
1100
1000
0100
0000
,
0100
0010
0001
0000
,
0001
0100
0010
1000
,
0002
0000
0203
0300
,
0110
0010
0100
0010
,
1000
0001
0100
0001
,
0100
0100
0010
0010
,
1000
0001
1000
0000
,
0002
0000
1003
1000
,
0001
0100
0001
0001
,
0100
0010
0001
0010
,
0100
0001
1000
0100
,
0001
0000
0100
0000
,
1000
0000
0010
0000
,
1000
0000
0001
0000
,
0100
0000
0010
1000
,
1001
0001
1000
0000
,
0010
0010
0100
0000
,
0100
0000
0001
0000
,
1000
0000
0010
0000
,
0100
0000
0002
0000
,
0203
0300
0110
0100
,
0010
0100
0010
1000
,
0001
0001
0010
0100
,
1000
0100
0010
0001
,
1000
1000
0100
0010
,
0001
0100
0110
0010
,
1000
0001
1001
1001
,
1000
0000
0101
0101
,
0001
0000
2000
0000
,
3001
0000
0100
0001
,
0100
0010
1000
0000
,
0001
0000
0010
0100
,
0010
0100
1000
0000
,
0001
0000
0110
0000
,
1000
0000
0001
0001
,
0100
0000
0100
0100
,
0001
0000
0101
0001
,
0001
1000
1000
0010
,
0100
0001
1000
0000
,
0100
0010
0001
1000
,
0100
0010
0001
0001
,
0001
1000
0100
0100
,
0100
1000
0010
0010
,
0010
0100
0001
0100
,
0201
0000
0301
1000
,
0010
0100
0001
0001
,
1000
0010
0100
0001
,
0001
1000
0010
0100
,
0010
0100
0100
0001
,
0100
0001
0100
0100
,
0010
1000
0001
0001
,
1000
0001
0100
0100
,
0010
0010
1001
0000
,
0100
0000
0110
0000
,
0001
0000
1001
0000
,
1000
0000
0100
0000
,
0200
0000
0310
0000
,
0010
0000
0001
0000
,
1000
0000
0100
0100
,
0010
0010
0001
0001
,
1000
0010
0200
0300
,
0000
0000
0002
0003
,
0000
0000
2000
3000
,
0020
0030
0002
0003
,
0020
0030
0200
0300
;

//---------------dance-single - ----------------
#NOTES:
     dance-single:
     :
     Medium:
     10:
     0.386495,0.418797,0.149430,0.165159,0.153362,344.000000,325.000000,19.000000,21.000000,0.000000,0.000000,0.386495,0.418797,0.149430,0.165159,0.153362,344.000000,325.000000,19.000000,21.000000,0.000000,0.000000:
0000
0000
0000
0000
,
0000
0000
0000
0100
,
0100
0001
1000
0001
,
0100
0001
0001
0110
,
0010
1000
0001
0100
,
0110
0000
0000
0000
0000
1000
0000
0000
0001
0000
0000
0100
0000
0000
0010
0000
,
1000
0000
0001
0000
0000
0100
0000
0000
0010
0000
0000
0010
0000
0000
1000
0000
,
0001
0000
0100
0000
0000
0010
0000
0000
0010
0000
0000
1000
0000
0000
0001
0000
,
0100
0000
0010
0000
0000
0100
0000
0000
0010
0000
0000
0100
0000
0000
0010
0000
,
0110
1000
0001
0101
,
0010
0000
0000
0000
1000
0000
0000
0000
0001
0000
0000
0100
0000
0000
0100
0000
,
0001
0000
0000
0000
1001
0000
0000
0000
0100
0000
0000
0010
0000
0000
0010
0000
,
1000
0000
0000
0000
1010
0000
0000
0000
0100
0000
0000
0001
0000
0000
0001
0000
,
0100
0110
0000
0000
0010
0000
1010
0000
,
0100
0001
0100
0000
0001
0010
0001
0000
,
1000
0100
1000
0000
0010
0001
0010
0000
,
0100
0001
1000
0000
0001
0100
0010
0000
,
2000
3010
0200
0301
,
0020
0130
0002
1003
,
0010
0001
0100
0001
,
0101
0000
0000
0000
0000
0000
0001
0000
0000
0000
0000
0000
0100
0000
0000
0010
0000
0000
0000
0100
0000
0000
0000
0000
,
0001
1000
0000
1000
0000
0000
0100
0000
,
0110
0000
0000
0000
0000
0000
0001
0000
0000
0000
0000
0000
1000
0000
0000
0010
0000
0000
0000
0100
0000
0000
0000
0001
,
0000
1000
0000
0000
0001
0000
0000
0000
,
0100
0000
0000
0010
0000
0000
0100
0000
0010
0000
0000
0100
0000
0000
0020
0000
,
0000
2030
0000
0000
3001
0000
0000
0000
,
0000
0100
1001
0200
,
0000
0310
0100
0010
0100
0002
0000
0000
,
0003
0000
0000
0000
1000
0000
0000
0000
0001
0000
0100
0000
0000
0010
0000
0100
,
0000
0001
1000
0001
0100
0000
0000
0010
,
0000
0200
0000
0300
0100
0010
0000
1000
,
0001
0000
0100
0001
0100
0010
0000
0000
,
1000
0001
0100
0001
0100
0010
0000
0100
,
0010
0000
0000
0100
0000
0000
0010
0000
1000
0000
0000
0000
0001
0000
0000
0100
,
0000
0100
0001
0000
2000
0000
0000
0000
,
3001
0100
0001
0100
,
1000
0000
0100
0000
0001
0000
0000
1000
,
0000
0010
0100
0001
,
1000
0000
0010
0000
0200
0000
0000
0301
,
0000
0000
0100
0000
0000
0001
0000
0000
0100
0000
0000
0000
0010
0000
0000
0000
,
1000
0000
0000
0001
0000
0000
1000
0000
0001
0000
0000
0000
0001
0000
1000
0000
,
0000
1000
2001
0000
,
3001
0000
0200
0000
0310
0000
0100
0001
,
0000
1000
0000
0020
0000
0000
0130
0001
,
0000
1000
0000
1000
0001
0000
0100
0010
,
0100
0001
0000
0010
0000
0100
0000
1000
,
0000
0000
0001
0000
0000
0000
0000
0000
0100
0000
0010
0000
0000
0100
0000
0000
,
0010
0000
1000
0000
0010
0000
1000
0000
0001
0000
0100
0000
0000
0001
0000
0000
,
0100
0000
0001
0000
1000
0000
0001
0000
0100
0000
0010
0000
0000
0100
0000
0000
,
0010
1000
0000
0001
0000
1000
0001
1000
,
0002
0000
0000
0000
1003
0000
0001
0100
,
0000
0010
0000
2000
0000
0000
0000
3001
,
0100
0002
0000
0003
0100
0000
0100
0001
,
1000
0010
0000
0100
0000
0001
0000
1000
,
0000
0000
0010
0000
0000
0000
0100
0000
0001
0000
1000
0000
0000
0001
0000
0000
,
1000
0000
0001
0000
1000
0000
0010
0000
1000
0000
0010
0000
0000
0100
0000
0000
,
0001
0000
1000
0000
0000
0001
0000
0000
1000
0000
0000
0001
0000
0000
0100
0000
,
0020
0000
0030
0100
0110
0000
0101
0000
,
1010
0000
1001
0000
0001
0100
0010
0000
,
0010
0000
0000
1000
0000
0000
0001
0000
0100
0000
0000
0000
0100
0000
0000
0000
,
0010
0010
0101
0001
,
1000
0000
0000
0001
0000
0000
1000
0000
0001
0000
0000
0000
0101
0000
0000
0000
,
0010
0000
0000
0010
0000
0000
0001
0000
2000
0000
0000
0000
3001
0000
0000
0000
,
0001
0000
0000
1000
0000
0000
0001
0000
1000
0000
0000
0000
1000
0000
0000
0000
,
0101
0001
0100
0100
,
0010
0000
0000
0010
0000
0000
1000
0000
0001
0000
0000
0000
1000
0000
0000
0000
,
0001
0000
0000
0001
0000
0000
1000
0000
0002
0000
0000
0000
0000
0000
0000
0000
,
0003
0000
0000
1000
0000
0000
0001
0000
0100
0000
0010
0000
0000
0000
0000
0000
,
0000
0000
0000
0010
0000
0000
1000
0000
0001
0000
1000
0000
0000
0001
0000
0000
,
1000
0000
0000
0001
0000
0000
0001
0000
1000
0000
0000
0000
0001
0000
0000
0000
,
1000
0010
0200
0000
,
0300
0000
0000
0000
;

//---------------dance-single - ----------------
#NOTES:
     dance-single:
     :
     Hard:
     14:
     0.595472,0.670075,0.133700,0.094377,0.546598,530.000000,513.000000,17.000000,12.000000,0.000000,0.000000,0.595472,0.670075,0.133700,0.094377,0.546598,530.000000,513.000000,17.000000,12.000000,0.000000,0.000000:
// measure 0
0000
0000
0000
0000
,  // measure 1
0000
0000
0000
0000
0000
0000
0100
0001
,  // measure 2
0100
0001
0000
0000
1000
0000
0000
0010
0000
1000
0001
0000
1000
0000
0100
0010
,  // measure 3
0100
0010
0001
0000
1000
0000
0000
0001
0000
0100
0010
0000
0110
0000
0000
0000
,  // measure 4
0010
1000
0000
0000
1000
0000
0000
0001
0000
0001
1000
0000
0100
0000
0000
0000
,  // measure 5
0110
0000
0010
0000
0000
0001
0000
0000
1000
0000
0000
0100
0000
0010
0100
0000
,  // measure 6
1000
0000
0001
0000
0000
0100
0000
0000
0010
0000
0000
0100
0000
0000
0001
0000
,  // measure 7
1000
0000
0100
0000
0010
0001
0000
0000
0010
0000
0001
1000
0000
0001
1000
0000
,  // measure 8
0100
0000
0010
0000
0000
0001
0000
0000
0010
0000
0000
0100
0000
1000
0010
0000
,  // measure 9
0110
0000
0100
0000
0001
1000
0000
0000
0001
0000
0000
0100
0000
0100
0001
0000
,  // measure 10
0010
0000
0001
0000
1000
0100
0000
0000
0010
0000
0000
0100
0000
0000
1000
0000
,  // measure 11
0010
0000
1000
0000
0001
0100
0000
0000
0100
0000
0000
0010
0000
0010
0100
0000
,  // measure 12
0001
0000
1000
0000
0010
0100
0000
0000
0001
0000
0000
1000
0000
0001
1000
0000
,  // measure 13
0001
0000
0200
0000
0000
0310
0000
0000
0010
0000
0000
0100
0000
0001
0100
0000
,  // measure 14
0001
0000
1000
0000
0100
1000
0000
0000
0001
0000
0000
0100
0000
0001
1000
0000
,  // measure 15
0001
0000
1000
0000
0100
1000
0000
0000
0001
0000
0000
0100
0000
0000
0001
0000
,  // measure 16
0100
0000
0001
0000
1000
0001
0000
0000
1000
0000
0000
0010
0000
0010
1000
0000
,  // measure 17
0001
0000
0100
0000
0010
0100
0000
0000
0010
0000
0100
0000
0001
1000
0000
0000
,  // measure 18
0001
0000
1000
0000
0010
0100
0000
0000
1000
0000
0010
0000
0100
0001
0000
0000
,  // measure 19
0010
0001
0100
0001
,  // measure 20
0110
0000
0000
0010
0000
0010
0000
0000
1000
0000
0010
0100
0010
0000
0000
0000
,  // measure 21
1000
0000
0001
1000
0000
0001
0000
0000
1000
0000
0001
0000
0100
0000
0000
0000
,  // measure 22
0010
0000
1000
0000
0001
0000
0000
0000
1000
0000
0010
0100
0000
0010
0000
0000
,  // measure 23
1000
0001
0100
0000
0001
0010
0100
0000
,  // measure 24
1000
0010
0100
0000
0020
0000
0000
0030
,  // measure 25
2000
0000
0000
0000
0000
0000
3000
0000
0001
0100
0001
0100
0001
0100
0000
0000
,  // measure 26
0010
1000
0010
1000
0010
1000
0000
0000
1001
0000
0001
0000
0100
0000
0010
0000
,  // measure 27
0010
0000
0000
0000
1000
0000
0001
0000
1000
0000
0001
0000
0100
0000
0000
0010
,  // measure 28
0000
1000
0001
0100
0101
0000
0010
0000
,  // measure 29
1000
0001
1000
0000
0010
0100
0010
0000
,  // measure 30
1000
0100
0010
0001
0100
1000
0001
0010
,  // measure 31
0100
0000
0100
0001
0010
1000
0001
0100
,  // measure 32
0010
0000
0000
0000
0001
0000
1000
0000
1001
0000
0000
0000
0010
0000
0000
0100
,  // measure 33
0000
0000
0010
0000
0000
0000
0010
0000
1010
0000
0000
0000
0001
0000
0000
0100
,  // measure 34
0000
0000
0001
0000
0000
0000
1000
0000
1001
0000
0000
0000
0001
0100
0000
0000
,  // measure 35
0001
0000
0000
1000
0000
0001
0000
0000
0100
0000
0010
0000
0100
0010
0000
0000
,  // measure 36
1000
0000
0000
0001
0000
1000
0000
0000
0001
0000
0000
0000
1000
0000
0100
0000
,  // measure 37
0010
0000
0000
0001
0000
1000
0001
0000
1000
0000
0001
0000
0100
0000
0010
0000
,  // measure 38
0010
0000
0000
1000
0000
0001
1000
0000
0020
0000
0000
0000
0000
0000
0130
0000
,  // measure 39
0000
0000
0001
0000
0000
0001
0000
0000
0100
0000
0000
0000
0010
0000
1000
0000
,  // measure 40
0010
0000
0000
1000
0000
0000
0001
0000
0100
0000
0000
0000
0001
0000
1000
0000
,  // measure 41
0001
0000
1000
0000
0001
0000
0100
0000
0010
0000
0100
0000
0110
0000
0000
1000
,  // measure 42
0000
0001
0101
0000
0010
0000
0100
0001
,  // measure 43
1000
0000
0001
0100
0000
0000
0010
0000
1000
0000
0000
0000
0100
0000
0010
0000
,  // measure 44
0001
0000
0000
1000
0000
0000
1000
0000
0001
0000
0100
0000
0010
0100
0000
0000
,  // measure 45
0001
1000
0001
0010
0001
0010
0100
1000
,  // measure 46
0001
0000
0100
0000
0001
0000
0000
0000
0100
0000
0010
0000
1000
0001
0000
0100
,  // measure 47
0010
0000
0100
0010
0000
0000
1000
0000
0100
0000
0010
0000
0001
1000
0000
0001
,  // measure 48
1000
0000
0010
0100
0000
0000
0001
0000
1000
0000
0010
0000
0100
0010
0000
0100
,  // measure 49
0010
0000
1000
0001
0000
0000
1000
0000
0010
0000
1000
0000
0001
0000
0100
0000
,  // measure 50
0001
0000
0101
0000
1000
0000
0001
0100
,  // measure 51
0010
0000
1000
0001
0000
0000
1000
0000
0010
0000
0100
0000
0001
0010
0000
0000
,  // measure 52
0001
1000
0100
0000
0010
0001
0100
1000
,  // measure 53
0001
0010
1000
0100
0001
0010
1000
0100
,  // measure 54
0010
0000
0000
0000
0001
0000
0100
0000
0001
0000
1000
0000
0001
0100
0000
0000
,  // measure 55
0001
0000
0000
1000
0000
0001
1000
0000
0010
0000
0100
0000
0001
0100
0000
0000
,  // measure 56
0010
0000
1000
0000
0000
0001
0000
0000
1000
0000
0000
0001
0000
0000
0100
0000
,  // measure 57
0020
0000
0000
0000
0130
0000
0000
0000
1001
0000
0001
0000
0100
0010
0100
0010
,  // measure 58
0100
0000
0000
0001
0000
0001
1000
0000
1001
0000
1001
0000
0000
0000
0000
0000
,  // measure 59
0100
0000
0010
0100
0000
0010
0100
0000
0001
0000
1000
0000
0001
0010
0001
0010
,  // measure 60
0001
0000
0000
1000
0000
1000
0001
0000
1000
0000
0001
0000
1000
0100
0010
0001
,  // measure 61
1000
0000
0000
0010
0000
0100
0001
0000
1000
0000
0001
0000
1000
0010
0100
0010
,  // measure 62
1000
0000
0000
0001
0000
0100
0001
0000
0101
0000
0101
0000
0000
0000
0000
0000
,  // measure 63
0010
0000
0001
1000
0000
1000
0001
0000
0200
0000
0320
0000
1030
0001
1000
0001
,  // measure 64
1000
0000
0000
0001
0000
0000
1000
0000
0010
0000
0100
0000
0010
0100
0010
1000
,  // measure 65
0001
0000
0000
1000
0000
0001
1000
0000
0001
0000
0100
0000
0001
0100
0010
1000
,  // measure 66
0010
0000
0000
0100
0000
0100
0010
0000
0200
0000
0000
0000
0301
0010
0001
0010
,  // measure 67
0001
0000
0000
1000
0000
0000
0001
0000
1000
0000
0010
0000
1000
0100
1000
0100
,  // measure 68
1000
0000
0000
0001
0000
0100
0001
0000
1000
0000
0010
0100
0001
0100
0001
0100
,  // measure 69
0001
1000
0010
1000
0010
0000
0100
0000
0002
0000
1003
0000
0001
0000
0100
0000
,  // measure 70
0002
1003
0020
0030
0200
0000
0000
0000
,  // measure 71
0300
0000
0000
0000
;
