#TITLE:Betrayed (The Day After);
#SUBTITLE:;
#ARTIST:Simon Le Grec;
#TITLETRANSLIT:;
#SUBTITLETRANSLIT:;
#ARTISTTRANSLIT:;
#GENRE:;
#CREDIT:;
#BANNER:;
#BACKGROUND:;
#LYRICSPATH:;
#CDTITLE:;
#MUSIC:Betrayed - The-Day-After.ogg;
#OFFSET:-0.462000;
#SAMPLESTART:29.538000;
#SAMPLELENGTH:19.799999;
#SELECTABLE:YES;
#BPMS:0.000000=129.985992
;
#STOPS:
;
#BGCHANGES:;
#KEYSOUNDS:;
#ATTACKS:;

//---------------dance-single - ----------------
#NOTES:
     dance-single:
     :
     Beginner:
     1:
     0.055050,0.076748,0.000000,0.025690,0.000000,45.000000,45.000000,0.000000,3.000000,0.000000,0.000000,0.055050,0.076748,0.000000,0.025690,0.000000,45.000000,45.000000,0.000000,3.000000,0.000000,0.000000:
0000
0000
0000
0000
,
0000
0000
0000
0000
,
0000
0000
0000
0000
,
0000
0000
0000
0100
,
0000
0000
0000
0001
,
0000
0000
0000
1000
,
0000
0000
0000
0010
,
0000
0000
0000
0100
,
0000
0000
0000
0001
,
0000
0000
0000
1000
,
0000
0000
0000
0001
,
0000
0000
0000
0100
,
0000
0000
0000
0001
,
0000
0000
0000
1000
,
0000
0000
0000
1000
,
0000
0000
0000
0001
,
0000
0000
0000
0000
,
0000
0000
0000
2000
,
0000
0000
0000
0000
,
0000
3000
0000
0001
,
0000
0000
0000
0010
,
0000
0000
0000
0001
,
0000
0000
0000
0200
,
0000
0000
0000
0300
,
0000
0000
0000
0000
,
0000
0000
0000
0002
,
0000
0000
0000
0000
,
0000
0003
0000
1000
,
0000
0000
0000
1000
,
0000
0000
0000
0001
,
0000
0000
0000
0001
,
0000
0000
0000
0100
,
0000
0000
0000
0010
,
0000
0000
0000
1000
,
0000
0000
0000
0001
,
0000
0000
0000
0100
,
0000
0000
0000
0000
,
0000
0000
0000
0010
,
0000
0000
0000
0010
,
0000
0000
0000
1000
,
0000
0000
0000
0000
,
0000
0000
0000
0001
,
0000
0000
0000
0100
,
0000
0000
0000
0100
,
0000
0000
0000
0000
,
0000
0000
0000
0010
,
0000
0000
0000
0001
,
0000
0000
0000
0001
,
0000
0000
0000
0000
,
0000
0000
0000
1000
,
0000
0000
0000
0100
,
0000
0000
0000
1000
,
0000
0000
0000
0000
,
0000
0000
0000
0001
,
0000
0000
0000
0000
,
0000
0000
0000
0100
,
0000
0000
0000
0000
,
0000
0000
0000
0010
,
0000
0000
0000
1000
,
0000
0000
0000
0001
;

//---------------dance-single - ----------------
#NOTES:
     dance-single:
     :
     Easy:
     3:
     0.134565,0.208087,0.042816,0.171265,0.000000,110.000000,105.000000,5.000000,20.000000,0.000000,0.000000,0.134565,0.208087,0.042816,0.171265,0.000000,110.000000,105.000000,5.000000,20.000000,0.000000,0.000000:
0000
0000
0000
0000
,
0000
0000
0000
0000
,
0000
0000
0000
0000
,
0000
0000
0000
0200
,
0000
0301
0000
0001
,
0000
1000
0000
0020
,
0000
0130
0000
0001
,
0000
0000
0000
1001
,
0000
0001
0000
1000
,
0000
0100
0000
0200
,
0000
0300
0000
0020
,
0000
0030
0000
0001
,
0000
0100
0000
0010
,
0000
1000
0000
0002
,
0000
1003
0000
0020
,
0000
0130
0000
0001
,
1000
0100
0000
1000
,
0000
0001
0000
0200
,
0000
0310
0000
2000
,
0000
3001
0000
0100
,
0001
0100
0000
0001
,
0000
1000
0000
0002
,
0000
0103
0000
2000
,
0000
3001
0000
0100
,
0010
0100
0000
0000
,
0000
0010
0000
0100
,
0001
1000
0000
0001
,
1000
0001
0000
1001
,
0000
0100
0000
0001
,
0000
1000
0000
0001
,
0100
0010
0000
1000
,
0100
0010
0000
0001
,
0000
0001
0000
0001
,
0000
0100
0000
0010
,
0000
0010
0000
0010
,
0000
1001
0000
2000
,
0000
3000
0000
0001
,
0000
0101
0000
0002
,
0000
0003
0000
2000
,
0000
3000
0000
0010
,
0000
0100
0000
0001
,
0000
1001
0000
1000
,
0000
0010
0000
1000
,
0000
0010
0000
0200
,
0000
0300
0000
0001
,
0000
0100
0000
0001
,
0000
0100
0000
0010
,
0000
0100
0000
0002
,
0000
1003
0000
0001
,
0000
1000
0000
0001
,
0100
0001
0000
1000
,
0100
1000
0000
0002
,
0000
0003
0000
0100
,
0000
0000
0000
0200
,
0000
0300
0000
0020
,
0000
0030
0000
2000
,
0000
0000
0000
0000
,
3000
0000
0000
0001
,
0000
0000
0000
0001
,
0000
0000
0000
0002
,
0000
0000
0000
0003
;

//---------------dance-single - ----------------
#NOTES:
     dance-single:
     :
     Medium:
     7:
     0.242218,0.312131,0.102759,0.162702,0.000000,198.000000,186.000000,12.000000,19.000000,0.000000,0.000000,0.242218,0.312131,0.102759,0.162702,0.000000,198.000000,186.000000,12.000000,19.000000,0.000000,0.000000:
0000
0000
0000
0000
,
0000
0000
0000
0000
,
0000
0000
0000
0000
,
0000
0000
0000
0100
,
0000
0000
1001
0000
0000
0000
0010
0100
,
0000
0000
0101
0000
0000
0000
1000
0100
,
0000
0000
1100
0000
0000
0002
0000
0000
,
0000
0003
0000
0101
,
0000
0000
0100
0000
0010
1000
0010
0000
,
0010
0100
0001
0102
,
0000
0000
1003
0000
0100
0010
0002
0000
,
0000
1003
0000
0010
,
0000
0000
0001
0000
1000
0001
1000
0000
,
0000
0010
0100
0020
,
0000
0000
1030
0000
0100
0010
2000
0000
,
0000
3001
0000
0101
,
0000
0000
0010
0000
0100
1000
0100
0000
,
0000
0010
0001
0200
,
0000
0000
0301
0000
1000
0100
0020
0000
,
0000
0000
0031
0000
0000
0000
0100
0010
,
0100
0000
0001
0000
1000
0100
1000
0000
,
0001
0000
0100
0000
0010
0100
0020
0000
,
0000
0000
1030
0000
0001
0100
0002
0000
,
0000
1003
0010
0100
,
0001
1001
1000
0100
,
0010
0000
0001
0000
1000
0100
2000
0000
,
0000
0000
3001
0000
0001
0100
0020
0000
,
0000
0000
1030
0000
0000
0000
0001
0100
,
0001
0000
0000
1000
0000
0000
0001
0000
,
0000
0100
0000
0000
0010
0100
0001
0000
,
1000
0000
0001
1000
0000
0000
0001
0000
,
0000
0100
0000
0010
0000
0000
1001
0000
,
1001
0000
0000
1000
0000
0001
0100
0000
,
0000
0001
0000
0000
1000
0000
0010
0100
,
0010
0000
0000
0100
0000
0001
0100
0000
,
0000
0010
0000
0000
1000
0010
2000
0000
,
3000
0000
1001
0000
0001
0100
0001
0000
,
0000
1000
0000
0000
0001
0000
0110
0000
,
0100
0000
0000
0100
0000
0000
0010
0000
,
0000
0010
0000
0000
1000
0000
0002
0000
,
1003
0000
0001
0100
0000
0000
0020
0000
,
0000
1030
0000
0000
0010
0000
0100
0000
,
0001
0100
0001
0000
0000
0000
1000
0000
,
0010
1000
0010
0000
0100
0000
0001
0000
,
1000
0100
0010
0000
0000
0000
0001
0000
,
0010
0100
1000
0000
0100
0000
0010
0000
,
0001
0010
0001
0000
0100
0000
0110
0000
,
0010
1000
0010
0000
0100
0000
0001
0000
,
1000
0100
1000
0000
0010
0000
0100
0001
,
1000
0000
0001
0000
0000
0000
0001
0100
,
0001
0100
0000
0010
,
0000
0100
0000
0000
0000
0000
0001
0000
,
0001
0001
1000
0000
,
0000
0000
0000
2000
,
0000
3000
0000
0200
,
0000
0300
0000
0020
,
0000
0030
0000
0000
,
0000
0000
0000
0002
,
0000
0000
0003
1000
,
0000
0000
0000
2000
,
0000
0000
0000
3000
;

//---------------dance-single - ----------------
#NOTES:
     dance-single:
     :
     Hard:
     8:
     0.276471,0.364152,0.017127,0.239771,0.000000,226.000000,224.000000,2.000000,28.000000,0.000000,0.000000,0.276471,0.364152,0.017127,0.239771,0.000000,226.000000,224.000000,2.000000,28.000000,0.000000,0.000000:
// measure 0
0000
0000
0000
0000
,  // measure 1
0000
0000
0000
0000
,  // measure 2
0000
0000
0000
0000
,  // measure 3
0000
0000
0000
0000
0000
0000
0200
0001
,  // measure 4
0000
0000
0301
0000
0010
0100
0010
0100
,  // measure 5
0000
0000
1000
0000
0000
0000
0001
0100
,  // measure 6
0000
0000
0001
0000
0001
2000
0000
0000
,  // measure 7
0000
0000
0010
0000
3000
0000
0010
0100
,  // measure 8
0001
0100
0010
0000
1000
0100
0010
0100
,  // measure 9
1000
0100
0010
0002
,  // measure 10
0000
0000
0103
0000
0001
0010
0100
1000
,  // measure 11
0100
2000
0000
3010
,  // measure 12
0100
0010
0100
0000
0010
0100
0010
0010
,  // measure 13
0100
0000
0001
0000
0100
0001
2000
0000
,  // measure 14
0000
0000
3001
0000
0100
0010
0200
0000
,  // measure 15
0300
0000
0202
0000
0303
0000
0100
0010
,  // measure 16
1000
0010
1000
0000
0001
0010
0100
0010
,  // measure 17
0100
0000
1000
0000
0010
0100
0002
0000
,  // measure 18
0000
0000
1003
0000
0001
0010
0100
1000
,  // measure 19
0001
0000
0100
0000
0010
0000
0010
0100
,  // measure 20
0010
0000
0110
0000
0001
0100
0001
0100
,  // measure 21
0001
1000
0001
2000
,  // measure 22
0000
0000
3010
0000
0010
0100
0002
0000
,  // measure 23
0000
0000
0103
0000
0010
0100
0001
0000
,  // measure 24
1000
0000
0010
0000
0010
0100
0001
1000
,  // measure 25
0001
0000
1000
0000
0010
1000
0020
0000
,  // measure 26
0000
0000
0130
0000
0001
1000
0200
0000
,  // measure 27
0000
0000
0310
0000
0000
0000
0001
0100
,  // measure 28
0010
0000
0100
0010
0000
0000
0100
0000
,  // measure 29
0001
0100
0000
0000
0100
0010
1000
0010
,  // measure 30
0100
0000
0001
0100
0000
0000
0100
0000
,  // measure 31
0001
0010
0000
0001
0000
0000
0100
0010
,  // measure 32
1000
0000
0001
1000
0000
0000
0001
0000
,  // measure 33
1000
0001
0000
0000
1000
0000
0010
0100
,  // measure 34
0001
0000
1000
0100
0000
0100
1000
0000
,  // measure 35
0000
0100
0000
0000
0010
0001
0020
0000
,  // measure 36
0030
0000
0001
1000
0001
0000
0200
0000
,  // measure 37
0300
0020
0000
0030
1000
0001
0100
0010
,  // measure 38
0100
0000
0001
0010
0000
0001
0100
0000
,  // measure 39
0000
0010
0000
0000
1000
0000
0200
0000
,  // measure 40
0310
0000
0000
0001
0000
0001
2000
0000
,  // measure 41
3000
0020
0000
0030
0000
0000
0100
0010
,  // measure 42
0100
0000
0010
0100
0000
0000
0010
0000
,  // measure 43
0000
1000
0000
0000
0001
1000
0002
0000
,  // measure 44
0003
1000
0000
0002
,  // measure 45
0003
2000
0000
3000
0001
0100
0001
0000
,  // measure 46
1000
0100
1000
0000
0001
0010
0100
0000
,  // measure 47
0000
0100
1000
0000
0001
0000
0002
0000
,  // measure 48
0000
0103
0000
0010
,  // measure 49
0000
0010
1000
0000
0000
0000
0100
0010
,  // measure 50
0001
0000
1000
0100
0000
0000
0100
0000
,  // measure 51
0000
0010
0000
0000
0000
0000
0002
0000
,  // measure 52
0000
0000
0103
0100
,  // measure 53
0000
0000
0000
0000
0000
0010
0100
0000
,  // measure 54
0000
0000
0010
0000
0000
1000
0001
0000
,  // measure 55
0000
0000
0000
0000
0000
0001
0200
0000
,  // measure 56
0000
0300
0000
0010
,  // measure 57
0000
0000
0000
0000
0000
0100
0020
0000
,  // measure 58
0000
0000
0030
0000
0000
1000
0002
0000
,  // measure 59
0000
0003
0000
0200
,  // measure 60
0000
0000
0000
0300
;
