#TITLE:Bergamot kumikyoku;
#SUBTITLE:;
#ARTIST:Yu Tokiwa;
#TITLETRANSLIT:;
#SUBTITLETRANSLIT:;
#ARTISTTRANSLIT:;
#GENRE:;
#CREDIT:from pop n music 22 Lapistoria;
#BANNER:LT_Bergamot_kumikyoku.png;
#BACKGROUND:;
#LYRICSPATH:;
#CDTITLE:;
#MUSIC:Bergamot_Kumikyoku.ogg;
#OFFSET:-0.392000;
#SAMPLESTART:13.559000;
#SAMPLELENGTH:17.000000;
#SELECTABLE:YES;
#BPMS:0.000000=182.000000
;
#STOPS:
;
#BGCHANGES:;
#KEYSOUNDS:;
#ATTACKS:;

//---------------dance-single - ----------------
#NOTES:
     dance-single:
     :
     Beginner:
     3:
     0.144823,0.207730,0.018103,0.072411,0.000000,112.000000,110.000000,2.000000,8.000000,0.000000,0.000000,0.144823,0.207730,0.018103,0.072411,0.000000,112.000000,110.000000,2.000000,8.000000,0.000000,0.000000:
0000
0000
0000
0000
,
0000
0000
0000
0000
,
0000
0000
0000
0000
,
1000
0000
0001
0000
,
0100
0000
0010
0000
,
1000
0000
0100
0000
,
1000
0000
0100
0000
,
0010
0000
0001
0000
,
1000
0000
0001
0000
,
0010
0000
0100
0000
,
0000
0000
1000
0000
,
0000
0001
0000
0000
,
0000
0000
0100
0000
,
0010
0000
0100
0000
,
0000
0000
0001
0000
,
1000
0000
0010
0000
,
0000
0000
0010
0000
,
0000
0000
1000
0000
,
0001
0000
1000
0000
,
0000
0100
0100
0000
,
0000
0010
0010
0000
,
0000
0001
0001
0000
,
0000
0000
2000
0000
,
3000
0000
0002
0000
,
0003
0000
0200
0000
,
0300
0000
0020
0000
,
0030
0000
1000
0000
,
0000
0000
1000
0000
,
0001
0000
1000
0000
,
0000
0000
0010
0000
,
0100
0000
0010
0000
,
0000
0000
1000
0000
,
0100
0000
0010
0000
,
0000
0000
0010
0000
,
0001
0000
1000
0000
,
0000
0000
1000
0000
,
0100
0000
0010
0000
,
0000
0000
0100
0000
,
0010
0000
0001
0000
,
0000
0000
1000
0000
,
0000
0000
0010
0000
,
0000
0000
0100
0000
,
0000
0000
0001
0000
,
1000
0000
0001
0000
,
1000
0000
0001
0000
,
1000
0000
0010
0000
,
0000
0000
0200
0000
,
0300
0000
0020
0000
,
0030
0000
0000
0000
,
0000
0000
0000
0000
,
0000
0000
1000
0000
,
1000
0000
1000
0000
,
1000
0000
1000
0000
,
0001
0000
0100
0000
,
0001
0000
0010
0000
,
0001
0000
1000
0000
,
0000
0000
1000
0000
,
0001
0000
0010
0000
,
0001
0000
1000
0000
,
0001
0000
1000
0000
,
0000
0000
2000
0000
,
3000
0000
0002
0000
,
0003
0000
0100
0000
,
0100
0000
0100
0000
,
0000
0000
0010
0000
,
0010
0000
0010
0000
,
0000
0000
1000
0000
,
0000
0000
0001
0000
,
0000
0000
1001
0000
,
1000
0000
1000
0000
,
0000
0000
1001
0000
,
0001
0000
0001
0000
,
0000
0000
0100
0000
,
0010
0000
0100
0000
,
0010
0000
1000
0000
,
0100
0000
0010
0000
,
0001
0000
1000
0000
;

//---------------dance-single - ----------------
#NOTES:
     dance-single:
     :
     Easy:
     8:
     0.345247,0.456700,0.253440,0.298697,0.000000,267.000000,239.000000,28.000000,33.000000,0.000000,0.000000,0.345247,0.456700,0.253440,0.298697,0.000000,267.000000,239.000000,28.000000,33.000000,0.000000,0.000000:
0000
0000
0000
0000
,
0000
0000
0000
0000
,
0000
0000
1001
0000
,
1000
0100
0001
0010
,
0100
1000
0001
0010
,
1000
0100
0010
0001
,
1000
0100
0001
0010
,
0100
1000
0001
0100
,
0001
0010
0001
0100
,
0010
1000
0010
0000
,
1000
0000
0000
2000
0000
0000
0001
3000
,
0001
0000
0000
0100
0000
0010
0000
0100
,
0000
0000
0000
0002
0000
0003
1000
0000
,
0010
0000
0000
1000
0000
0001
0000
1000
,
0000
0000
0000
0002
0000
0000
0103
0000
,
0100
0000
0000
0220
0000
0330
0000
0200
,
0000
0300
0000
0020
0000
0030
0000
0000
,
1000
0000
1000
0100
0000
0000
0010
0000
,
0001
0000
1000
0000
2100
0000
0000
3100
,
0000
0000
0100
0000
0012
0000
0000
0013
,
0000
0000
0010
0000
0002
0000
0000
1003
,
0000
0010
0100
0001
,
0010
0000
1000
0000
0100
0000
0000
0010
,
0000
0000
0000
0000
0002
0000
0000
0100
,
0003
0000
1010
1000
,
0010
1000
0001
0010
,
0011
0001
1000
0000
,
0100
0010
0001
0000
,
0001
0010
0100
0000
,
1000
0010
0100
0001
,
0100
0010
0110
0000
,
1000
0000
0100
2000
0000
3000
0010
0000
,
0100
0001
0202
0303
,
0100
0010
0000
0200
0000
0000
0300
0000
,
0001
0100
1001
0100
,
1000
0010
0101
0001
,
0010
0100
1100
0001
,
0100
0000
0010
0200
0000
0000
0300
0000
,
0010
0100
1001
0000
,
0001
0100
0011
0000
,
0001
1000
1100
0000
,
1000
0010
0100
0001
,
0100
0000
0010
0000
2000
0000
0000
3000
,
0001
0000
0000
0000
0002
0000
0000
0003
,
0100
0000
0010
0100
,
0001
0010
0100
0000
,
0010
0100
0001
0010
,
0100
0000
1001
1001
,
0110
1001
2002
3003
,
0000
0100
0020
0000
,
1030
0100
0020
0000
,
0031
1000
0200
0000
,
0310
0000
0001
0200
0000
0000
0301
0000
,
0001
0000
0000
2000
0000
0000
3000
0000
,
0001
0000
0000
0100
0000
0000
0010
0000
,
1000
0000
0000
0001
0000
0000
0100
0000
,
0010
0000
0000
1000
0000
0000
0001
0000
,
0010
0000
0000
0001
0000
0000
1000
0000
,
0100
0000
0000
2000
0000
3000
0000
0002
,
0000
0003
0000
0200
0000
0300
0000
0020
,
0000
0030
0000
0000
1000
0000
0000
0000
,
0100
0000
0010
0000
,
0001
0000
1000
0100
,
1010
0100
0010
0001
,
1000
0000
0001
0010
,
1001
0100
1000
0001
,
0100
0000
0010
0100
,
0010
0100
1001
0000
,
0100
0010
0110
0010
,
0010
0100
0100
1001
,
1001
0001
1001
1000
,
0100
0010
0110
0001
,
1000
0001
1001
0001
,
0001
0001
1000
0100
,
0010
0100
0010
0001
,
2000
0100
3200
0010
,
0320
0000
0030
0002
0000
0000
0000
0000
,
0000
0000
0000
0000
0000
0003
0000
0000
;

//---------------dance-single - ----------------
#NOTES:
     dance-single:
     :
     Medium:
     11:
     0.501707,0.518476,0.253440,0.389211,0.000000,388.000000,360.000000,28.000000,43.000000,0.000000,0.000000,0.501707,0.518476,0.253440,0.389211,0.000000,388.000000,360.000000,28.000000,43.000000,0.000000,0.000000:
0000
0000
0000
0000
,
0000
0000
0000
0000
,
0000
0000
0000
0000
1001
0000
1000
0100
,
2000
3200
0320
0032
,
0103
0010
1000
0000
1001
0000
0010
0001
,
1000
0011
0010
1001
,
1000
0100
0010
0000
1001
0000
0010
0100
,
1000
0000
1000
0000
1001
0000
0100
0001
,
0010
0000
0010
0001
0100
0000
0100
0010
,
1000
0000
1000
0010
0100
0000
0001
0000
,
1000
0001
1000
0002
0000
0000
0103
0000
,
0001
0100
0000
0001
0000
0010
0000
0100
,
0000
0010
0000
0002
0000
1003
0200
0000
,
0010
0301
1000
0001
,
1000
0100
1000
0200
0000
0000
1300
0000
,
0010
0001
0000
2001
0000
0010
0000
3001
,
0000
0100
0010
0200
0000
0300
0010
0000
,
1000
0100
0000
0010
0000
0001
0010
0000
,
0001
0010
0100
1000
0200
0000
0310
0001
,
0010
0000
0001
1000
0020
0000
0130
0010
,
0100
0000
0010
0001
0010
0000
1000
0100
,
1000
0000
0010
0000
0100
0001
0100
0000
,
0001
0010
0001
0000
0100
0010
0100
0000
,
0001
0100
0001
0000
1000
0100
0010
0001
,
1000
0010
1010
1000
,
0100
0010
0000
0002
0000
0000
0013
0000
,
0001
0000
1000
0000
1000
0010
1000
0200
,
0000
0000
0310
0000
0001
0010
0001
0020
,
0000
0000
0130
0000
1000
0010
1000
0200
,
0000
0000
0310
0000
0001
0010
0100
0020
,
0000
0130
1001
1000
,
1000
0100
0000
2200
0000
3300
0010
0000
,
0100
0001
0100
0000
0012
0000
0013
0000
,
0100
0010
0000
0001
1000
0000
1000
0100
,
0000
0010
0001
0000
1001
0000
0010
0100
,
0001
0010
0000
0001
0100
0000
0001
1000
,
0100
0000
0100
1000
0020
0000
0100
0030
,
0100
0010
0000
0100
0010
0000
1000
0010
,
0000
0100
0001
0000
1001
0000
1000
0002
,
0000
0003
0100
0000
0001
0010
0100
1000
,
0000
1000
0001
0000
1100
0000
0100
2000
,
0000
3000
0010
0000
0100
0000
0001
0100
,
0000
0000
0110
0000
2020
0000
0000
3030
,
0001
0100
0012
0010
,
0013
0000
0001
0000
0010
0100
1000
0000
,
0001
0010
0001
0000
1000
0100
0010
0000
,
0001
0010
0001
0000
0002
0000
0003
0000
,
0200
0300
1001
0110
,
0100
0010
0000
0100
0020
0000
0000
1030
,
0000
1000
0100
0010
0002
0000
0000
1003
,
0000
0001
0100
0010
2000
0000
0000
3000
,
0001
0100
0001
0000
1000
0010
1000
0000
,
0010
0100
0001
0200
0000
0000
0301
0000
,
0001
2000
0000
3200
0000
0000
0310
0000
,
0001
0100
0001
0020
0000
0030
0100
0000
,
1000
0100
0000
0022
0000
0000
0033
0000
,
0010
0100
0010
0002
0000
0000
1003
0000
,
0010
0100
0000
0110
0000
1000
0000
0010
,
0100
0010
0000
2002
0000
3003
0001
0100
,
0000
0000
0010
0100
0000
0000
0001
2000
,
0000
3000
0000
0000
1000
0000
0000
0010
,
0100
0000
0010
0100
,
0001
1000
1001
0010
,
2000
3200
0000
0300
0010
0000
0001
1000
,
0001
0000
1000
0000
0001
0000
0010
0100
,
0000
0100
1000
0000
1000
0000
0001
0010
,
0000
0010
0100
0000
0100
0000
1000
0000
,
0001
0100
0000
0001
1000
0000
0100
0000
,
0010
0001
0010
0000
0001
0000
0011
0000
,
0010
0000
0101
0000
0100
0010
1000
0000
,
1001
0001
1100
1000
,
0010
1000
0001
0000
0101
0000
0001
1000
,
0001
0000
1000
0001
1000
0000
0001
0000
,
0001
0000
1000
0100
0000
0010
0001
0010
,
0000
0100
1000
0100
0000
0010
0001
0010
,
0000
0001
0010
0100
0000
0010
0001
0010
,
0000
0010
0100
1000
0000
0000
0000
0000
;

//---------------dance-single - ----------------
#NOTES:
     dance-single:
     :
     Hard:
     14:
     0.662046,0.737747,0.334902,0.371108,0.181028,512.000000,475.000000,37.000000,41.000000,0.000000,0.000000,0.662046,0.737747,0.334902,0.371108,0.181028,512.000000,475.000000,37.000000,41.000000,0.000000,0.000000:
// measure 0
0000
0000
0000
0000
,  // measure 1
0000
0000
0000
0000
,  // measure 2
0000
0000
0000
0000
1000
0100
1000
0100
,  // measure 3
0020
0031
0200
0302
,  // measure 4
0103
0000
0010
0000
1000
0000
0001
1000
0001
0000
1000
0000
0010
0000
0100
0000
,  // measure 5
1000
0100
0001
0000
1000
0100
0001
0100
,  // measure 6
0010
0000
0100
0000
0010
0000
0001
0100
0001
0000
0000
0000
1000
0000
0001
0000
,  // measure 7
0100
0010
0001
0010
1000
0000
0100
0010
,  // measure 8
0011
0000
0010
0001
0100
0010
0110
0010
,  // measure 9
1000
1000
1000
0001
0200
0000
0301
0000
,  // measure 10
1000
0010
0100
0020
0000
0030
0100
0000
,  // measure 11
0001
0100
0010
0001
0000
0010
0100
1000
,  // measure 12
0100
0010
0000
1000
0000
1000
2100
0000
,  // measure 13
0010
0000
3001
0000
1000
0010
0001
0010
,  // measure 14
1000
0000
0100
1000
0100
0000
2000
0000
0000
0000
0000
0000
3010
0000
0000
0000
,  // measure 15
0010
1001
0000
0201
0000
0010
0000
0301
,  // measure 16
0010
0000
0100
0000
0010
0000
0002
0000
0000
0000
1003
0000
0010
0000
1000
0100
,  // measure 17
1000
0100
0010
0002
0003
0001
0010
0000
,  // measure 18
1000
0100
0100
1000
0200
0000
0310
0001
,  // measure 19
0001
0010
0001
0000
0200
0000
0310
0100
,  // measure 20
0010
1000
0001
1000
0020
0000
1030
0100
,  // measure 21
1100
0100
0100
0010
0011
0001
0100
0001
,  // measure 22
0010
0100
0010
0100
1001
0100
0010
1000
,  // measure 23
0100
0100
0001
0000
0100
1000
0010
0100
,  // measure 24
1001
0010
0001
0001
1001
0001
0100
0010
,  // measure 25
1000
0000
0001
0000
0000
0000
0100
0010
0100
0000
0010
0000
0100
0000
0001
0010
,  // measure 26
0001
0000
1000
0000
0100
1000
0100
1000
0010
0000
0000
0000
1000
0000
0002
0000
,  // measure 27
0000
0103
0010
0200
0000
0310
1000
0002
,  // measure 28
0000
1003
0100
0020
0000
0031
1000
0200
,  // measure 29
0000
0310
0010
0001
1000
1000
0100
0010
,  // measure 30
0010
0001
0100
0010
1001
0000
1010
0000
,  // measure 31
1000
0000
1100
0000
0000
0000
0210
0000
0000
0000
0310
0000
0001
0000
0000
0100
,  // measure 32
0001
0100
0010
0000
1010
0000
0110
0000
,  // measure 33
0100
0000
0010
0000
0100
0000
0002
0000
0003
0000
1000
0000
0100
0000
0000
0010
,  // measure 34
0001
0010
0100
0010
0101
0000
0010
0100
,  // measure 35
0010
0000
1001
0000
0000
0000
0001
0000
0100
0000
0001
0000
0001
0000
0000
1000
,  // measure 36
0100
1000
0010
1000
0120
0000
0130
0000
,  // measure 37
0001
0000
0010
0000
0100
0000
2000
0000
3000
0000
0001
0000
1000
0000
0000
0010
,  // measure 38
0100
0000
0000
0000
0001
0100
0001
0000
0100
0000
0000
0000
0010
0000
2000
0000
,  // measure 39
0000
3000
0100
0010
0002
0000
0103
0200
,  // measure 40
0000
0310
1000
0000
0100
0000
1000
0200
,  // measure 41
0000
0300
0010
0000
0100
0000
0010
0001
,  // measure 42
0100
0000
0110
0000
2000
0000
3010
0200
,  // measure 43
0000
0300
0010
0000
0020
0000
0130
0020
,  // measure 44
0000
0030
0100
0000
0001
0000
1000
0000
,  // measure 45
0101
0000
0011
0000
1000
0010
0100
0001
,  // measure 46
0010
0010
0000
0001
2000
0000
0010
0000
,  // measure 47
0001
0000
0100
3000
1001
0000
0100
0010
,  // measure 48
0100
0000
0020
0000
0030
0000
0000
0000
1001
0000
0000
0000
0001
0000
1000
0100
,  // measure 49
1000
0000
0000
0001
0000
0000
0100
0010
0100
0000
0000
0001
0000
0000
0100
0010
,  // measure 50
1000
0000
0000
0001
0000
0000
0100
0010
1000
0000
0000
0010
1000
0000
0000
0000
,  // measure 51
0001
0100
0010
0000
0100
0000
0000
0000
0001
0000
1000
0010
1000
0000
0000
0000
,  // measure 52
0010
0100
0010
0210
0000
0000
0301
0000
,  // measure 53
1000
0100
0010
0002
0000
0000
0103
0000
,  // measure 54
0001
0100
1000
0200
0000
0000
0310
0000
,  // measure 55
1000
0100
0000
0012
0000
0000
0013
0000
,  // measure 56
1000
0100
0100
2000
0000
0000
3010
0000
,  // measure 57
0010
0000
0100
0000
0010
0000
0110
0000
0000
0000
1000
0000
0001
0000
0010
0001
,  // measure 58
0100
0000
0010
0000
1000
0000
0200
0000
1300
0000
0001
0100
0010
0000
0100
0000
,  // measure 59
0001
0000
0100
0001
0100
0000
0010
0000
1000
0000
0001
0000
0100
0000
0020
0000
,  // measure 60
0000
1030
0000
0000
1000
0000
0000
0010
,  // measure 61
0100
0001
0010
0000
0010
0000
0101
0000
,  // measure 62
0001
0010
0100
0010
0001
0000
1000
0100
,  // measure 63
0010
0100
0010
0000
0010
0000
0001
0010
,  // measure 64
0100
0010
0001
0010
0200
0000
1300
0100
,  // measure 65
0010
0001
0000
0000
0100
0010
1000
0100
,  // measure 66
0010
0000
0001
0000
0000
0000
0000
0000
1000
0000
0001
0010
0001
0000
1000
0000
,  // measure 67
0100
1000
0100
1000
0100
0000
0000
0000
0011
0000
0000
0000
0000
0000
0000
0000
,  // measure 68
0001
0010
0001
0010
0001
0000
0000
0000
0101
0000
0000
0000
0010
0000
0100
0000
,  // measure 69
0110
0000
1000
0000
0100
0000
1000
0100
,  // measure 70
1010
0000
0001
0010
0011
0000
0001
0100
,  // measure 71
0110
0000
0001
0100
0101
0000
0001
0010
,  // measure 72
0101
0000
0000
0000
1000
0000
0010
1000
0010
0000
0000
0000
1000
0000
0010
1000
,  // measure 73
0001
0000
0000
0000
0010
0000
0001
0010
0001
0000
0000
0000
0100
0000
0001
0010
,  // measure 74
0001
0000
0000
0000
0010
0000
0001
0010
0001
0000
0000
0000
0010
0000
0001
0100
,  // measure 75
0010
0000
0000
0000
1000
0000
0000
0000
1100
0000
0000
0000
0010
0100
0010
0100
,  // measure 76
0001
1000
0010
0000
1000
0000
0002
0000
0000
0000
0000
0000
0000
0000
0000
0000
,  // measure 77
0000
0000
0000
0000
0000
0003
0000
0000
;
