#VERSION:0.83;
#TITLE:AutoTune;
#SUBTITLE:;
#ARTIST:Jason Chen;
#TITLETRANSLIT:;
#SUBTITLETRANSLIT:;
#ARTISTTRANSLIT:;
#GENRE:;
#ORIGIN:;
#CREDIT:;
#BANNER:;
#BACKGROUND:;
#PREVIEWVID:;
#JACKET:;
#CDIMAGE:;
#DISCIMAGE:;
#LYRICSPATH:;
#CDTITLE:;
#MUSIC:Jason Chen - AutoTune.ogg;
#OFFSET:-0.090000;
#SAMPLESTART:35.858002;
#SAMPLELENGTH:17.200001;
#SELECTABLE:YES;
#BPMS:0.000=165.985;
#STOPS:;
#DELAYS:;
#WARPS:;
#TIMESIGNATURES:0.000=4=4;
#TICKCOUNTS:0.000=4;
#COMBOS:0.000=1;
#SPEEDS:0.000=1.000=0.000=0;
#SCROLLS:0.000=1.000;
#FAKES:;
#LABELS:0.000=Song Start;
#BGCHANGES:;
#KEYSOUNDS:;
#ATTACKS:
;

//---------------dance-single - ----------------
#NOTEDATA:;
#CHARTNAME:;
#STEPSTYPE:dance-single;
#DESCRIPTION:;
#CHARTSTYLE:;
#DIFFICULTY:Beginner;
#METER:3;
#RADARVALUES:0.135998,0.167636,0.075554,0.067999,0.000000,126.000000,116.000000,10.000000,9.000000,0.000000,0.000000,0.000000,0.000000,0.000000,0.135998,0.167636,0.075554,0.067999,0.000000,126.000000,116.000000,10.000000,9.000000,0.000000,0.000000,0.000000,0.000000,0.000000;
#CREDIT:;
#NOTES:
// measure 0
0000
0000
0000
0000
,  // measure 1
0000
0000
0000
0000
,  // measure 2
0000
0000
0000
0100
,  // measure 3
0000
0000
0000
0001
,  // measure 4
0000
0000
0000
1000
,  // measure 5
0000
0000
0000
0001
,  // measure 6
0000
0000
0000
1000
,  // measure 7
0000
0000
0000
0010
,  // measure 8
0000
0000
0000
0100
,  // measure 9
0000
0010
0000
0100
,  // measure 10
0000
0000
0000
0001
,  // measure 11
0000
1000
0000
0010
,  // measure 12
0000
0000
0000
1001
,  // measure 13
0000
0001
0000
1000
,  // measure 14
0000
0000
0000
1000
,  // measure 15
0000
0001
0000
1000
,  // measure 16
0000
0000
0000
0010
,  // measure 17
0000
0100
0000
0010
,  // measure 18
0000
0000
0000
0100
,  // measure 19
0000
0001
0000
1000
,  // measure 20
0000
0000
0000
1000
,  // measure 21
0000
0001
0000
0100
,  // measure 22
0000
0001
0000
1000
,  // measure 23
0000
0010
0000
1000
,  // measure 24
0000
0000
0000
1001
,  // measure 25
0000
0000
0000
0001
,  // measure 26
0000
0000
0000
0100
,  // measure 27
0000
0001
0000
0200
,  // measure 28
0000
0300
0000
0010
,  // measure 29
0000
1000
0000
0010
,  // measure 30
0000
1000
0000
0002
,  // measure 31
0000
0003
0000
2000
,  // measure 32
0000
3000
0000
1001
,  // measure 33
0000
0001
0000
0100
,  // measure 34
0000
0000
0000
0100
,  // measure 35
0000
0001
0000
0001
,  // measure 36
0000
0000
0000
2000
,  // measure 37
0000
3000
0000
0002
,  // measure 38
0000
0003
0000
0200
,  // measure 39
0000
0300
0000
0010
,  // measure 40
0000
0000
0000
0100
,  // measure 41
0000
0000
0000
0000
,  // measure 42
0000
0000
0000
0000
,  // measure 43
0000
0000
0000
0000
,  // measure 44
0000
0000
0000
0001
,  // measure 45
0000
0000
0000
0001
,  // measure 46
0000
0000
0000
1000
,  // measure 47
0000
0000
0000
1000
,  // measure 48
0000
0000
0000
0001
,  // measure 49
0000
0001
0000
0001
,  // measure 50
0000
0000
0000
1000
,  // measure 51
0000
1000
0000
1000
,  // measure 52
0000
0000
0000
0001
,  // measure 53
0000
0100
0000
0001
,  // measure 54
0000
0100
0000
0002
,  // measure 55
0000
0000
0003
0000
,  // measure 56
0000
0000
0000
1001
,  // measure 57
0000
1000
0000
0001
,  // measure 58
0000
0000
0000
0001
,  // measure 59
0000
0100
0000
0100
,  // measure 60
0000
0000
0000
0010
,  // measure 61
0000
0000
0000
1001
,  // measure 62
0000
0000
0000
0100
,  // measure 63
0000
0001
0000
0100
,  // measure 64
0000
0010
0000
0100
,  // measure 65
0000
0000
0000
0110
,  // measure 66
0000
0000
0000
1010
,  // measure 67
0000
0000
0000
0001
,  // measure 68
0000
0001
0000
0001
,  // measure 69
0000
0000
0000
1000
,  // measure 70
0000
1000
0000
1000
,  // measure 71
0000
0000
0000
0001
,  // measure 72
0000
1000
0000
0001
,  // measure 73
0000
1000
0000
0001
,  // measure 74
0000
0000
0000
1000
,  // measure 75
0000
0010
0000
1000
,  // measure 76
0000
0010
0000
0100
,  // measure 77
0000
0000
0000
0101
,  // measure 78
0000
0000
0000
0001
,  // measure 79
0000
0100
0000
0010
,  // measure 80
0000
0000
0000
0110
,  // measure 81
0000
0000
0000
1010
,  // measure 82
0000
0000
0000
1000
,  // measure 83
0000
0100
0000
1000
,  // measure 84
0000
0001
0000
0010
,  // measure 85
0000
0001
0000
2000
,  // measure 86
0000
3000
0000
0002
,  // measure 87
0000
0003
0000
0100
,  // measure 88
0000
0010
0000
0100
;

//---------------dance-single - ----------------
#NOTEDATA:;
#CHARTNAME:;
#STEPSTYPE:dance-single;
#DESCRIPTION:;
#CHARTSTYLE:;
#DIFFICULTY:Easy;
#METER:5;
#RADARVALUES:0.205076,0.270485,0.052888,0.151109,0.000000,190.000000,183.000000,7.000000,20.000000,0.000000,0.000000,0.000000,0.000000,0.000000,0.205076,0.270485,0.052888,0.151109,0.000000,190.000000,183.000000,7.000000,20.000000,0.000000,0.000000,0.000000,0.000000,0.000000;
#CREDIT:;
#NOTES:
0000
0000
0000
0100
,
0000
0000
0000
0010
,
0000
0000
0000
0110
,
0000
0000
0000
2000
,
0000
3000
0000
0002
,
0000
0000
0000
0103
,
0000
0100
0010
1000
,
0000
1000
0000
0001
,
0000
0100
0000
0010
,
0100
0001
0000
1000
,
0100
1000
0000
0001
,
0000
0001
0000
0001
,
0000
1000
0000
1001
,
0000
0001
0000
1000
,
0010
1000
0000
0010
,
1000
0010
0000
0010
,
0100
0001
0000
2000
,
0000
3001
0000
0001
,
0000
0000
0000
0200
,
0000
0310
0000
0010
,
0000
0000
0000
1000
,
0001
1000
0001
0100
,
0000
0010
0000
0100
,
0010
0100
0010
1000
,
0000
0001
0000
1001
,
0000
0001
1000
0010
,
0000
1000
0100
0010
,
0000
0001
0010
0001
,
0000
0000
0000
1000
,
0000
0001
0000
0100
,
0000
0100
0000
1000
,
0000
0000
0000
0001
,
0000
0000
0000
1000
,
0000
1000
1000
0001
,
0000
0001
0100
0010
,
0000
1000
0100
0010
,
0000
0001
0000
2000
,
0000
3010
0000
0002
,
0000
0103
0000
2000
,
0000
3001
0000
0100
,
0000
0010
0000
0200
,
0000
0000
0000
0000
,
0000
0000
0000
0000
,
0000
0000
0300
0000
,
0000
0000
0000
0010
,
0000
0000
0000
0000
,
0000
0000
0000
1000
,
0002
0000
0003
1000
,
0000
0010
0000
0100
,
0002
0000
0003
0000
,
1000
0000
0110
0000
,
0001
2000
0000
3000
,
0010
0100
0000
0001
,
0000
0010
0000
0100
,
0000
1000
0000
0200
,
0000
0320
0000
0032
,
0000
0003
0000
1001
,
0000
1000
0010
1000
,
0000
0001
0100
0001
,
0000
1000
0100
0010
,
0000
0000
0000
0001
,
0000
1000
0000
0110
,
0000
0001
0000
2000
,
0000
3000
0000
0001
,
0000
0100
0001
0100
,
0000
0010
1000
0010
,
0000
0010
1000
0010
,
0000
1000
0100
0010
,
0000
0001
0000
2000
,
0000
3000
0000
0002
,
0000
0003
0000
0100
,
0000
0010
0000
1000
,
0000
0001
0000
1001
,
0000
0100
0010
0100
,
0000
0001
1000
0001
,
0000
1000
0001
0100
,
0000
0100
0000
0001
,
1000
0001
0000
1000
,
0000
0001
0000
0100
,
0000
0010
0000
0100
,
0000
0010
0010
0010
,
0000
1000
0100
0010
,
0000
0100
0100
0100
,
0000
1000
0001
1000
,
0000
0001
0000
0200
,
0000
0310
0000
0020
,
0000
0130
0000
0001
,
0000
1000
0000
0001
,
0000
1000
0000
0002
,
0000
0000
0003
0000
;

//---------------dance-single - ----------------
#NOTEDATA:;
#CHARTNAME:;
#STEPSTYPE:dance-single;
#DESCRIPTION:;
#CHARTSTYLE:;
#DIFFICULTY:Medium;
#METER:9;
#RADARVALUES:0.343233,0.405727,0.067999,0.241774,0.000000,318.000000,309.000000,9.000000,32.000000,0.000000,0.000000,0.000000,0.000000,0.000000,0.343233,0.405727,0.067999,0.241774,0.000000,318.000000,309.000000,9.000000,32.000000,0.000000,0.000000,0.000000,0.000000,0.000000;
#CREDIT:;
#NOTES:
0000
0000
0000
0100
,
0000
0010
0000
1000
0000
0000
0010
0000
,
0000
0100
0000
0001
0000
0000
1000
0000
,
0000
0001
0000
1000
0000
0000
0001
1000
,
0001
0000
0000
1000
0000
0000
0002
0000
,
0100
0000
0000
0100
0000
0000
0103
0000
,
0020
0100
1030
0002
,
0100
0000
0000
1000
0000
0000
1003
0000
,
0000
0010
0100
0010
,
0100
0000
0001
0100
0001
0000
1000
0000
,
0100
1000
0100
0000
0000
0000
0010
0000
,
0000
0001
1000
0001
,
0000
1000
0010
1010
,
0100
0001
1000
0010
,
0010
0000
1000
0000
1000
0000
0001
0100
,
0001
0000
0010
0000
0000
0000
0001
0010
,
0001
0000
0100
0000
0000
0000
0001
0100
,
0001
0000
0010
0000
0000
0000
0001
0100
,
0001
0000
1000
0000
0000
0000
0010
0100
,
0010
0000
0100
0000
0000
0000
0100
0010
,
0100
0010
0000
1000
,
0001
1000
0001
0100
,
0010
0110
0000
0100
,
0010
1000
0001
0100
,
0000
0020
0000
1030
,
0001
0100
0001
0000
1000
0000
0010
0000
,
0000
0000
0100
0001
1000
0000
0010
0000
,
0100
0001
0010
0100
,
0000
0000
0000
1000
,
0100
0001
0000
0100
,
1000
0010
0000
0100
,
0001
1010
0000
0001
,
0100
0020
0000
1030
,
0001
0100
0001
0000
1000
0000
0001
0000
,
0000
0000
0001
0100
0001
0000
1000
0000
,
0010
1000
0100
0010
,
0001
0000
0000
0001
0000
0000
2000
0000
,
0000
3020
0000
0000
0000
0230
0000
0000
,
0000
0302
0000
0000
0000
2003
0000
0000
,
0000
0000
3001
0000
0100
0010
1000
0000
,
0001
0100
0001
0000
0000
0200
0000
0000
,
0000
0000
0000
0010
,
0000
0010
0000
0000
0300
0020
0000
0000
,
0000
0030
0000
1000
,
0000
0001
0000
0000
0000
2000
0000
0000
,
0001
0000
3000
0001
0000
0000
2000
0000
,
0000
0000
3000
0000
0100
0010
0001
0000
,
0001
0000
0000
0010
0000
0000
0100
0000
,
1000
0010
0100
0001
,
0010
0000
0000
0001
0000
0000
0002
0000
,
0000
0003
1000
0010
,
0100
0001
0000
2100
,
0000
3020
0030
0012
,
0000
0000
0103
0000
0000
0000
0010
0100
,
0010
0000
1000
0001
1000
0000
0001
0000
,
0100
0000
0001
0100
0001
0000
0200
0000
,
0000
0300
0010
0000
0100
0000
1001
0000
,
1000
0000
0010
0000
0100
0010
0100
0000
,
0000
0001
1000
0010
,
0010
1000
0100
0010
,
0001
0010
0001
0000
1000
0000
0010
0000
,
1000
0000
0100
0010
0100
0000
1000
0000
,
0001
0000
0010
0100
0010
0000
0001
0000
,
0000
1000
0000
0000
0001
0000
0100
0000
,
0010
0000
0100
0010
0100
0000
0110
0000
,
0001
0000
1000
0000
0001
0010
0100
0000
,
0000
1000
0100
0010
,
0001
1000
0001
0000
0100
0000
0020
0000
,
0000
0130
0010
2000
,
0000
0002
3000
0000
0000
0203
0000
0000
,
0000
0320
0000
0000
0000
0230
0000
0000
,
0000
0310
0000
1000
,
0001
0100
0010
1010
,
1000
0010
0100
0000
0010
0000
0100
0000
,
0000
0000
0001
0100
0001
0000
0001
0000
,
1000
0100
1000
0000
0010
0000
0100
0000
,
0010
0100
0010
0000
0100
0000
0001
0000
,
1000
0001
1000
1100
,
0000
0100
0010
0001
,
0000
1000
0000
0000
0010
0000
0100
0000
,
0010
0000
0100
0001
0100
0000
0010
0000
,
1000
0100
0010
0000
0001
0000
0100
0000
,
0000
0000
0010
0100
0010
0000
0100
0000
,
0001
1000
0001
0000
1000
0000
2000
0000
,
0000
3001
0100
0020
,
0000
0230
0000
0000
0000
0302
0000
0000
,
0000
2003
0000
0000
0000
3002
0000
0000
,
0000
1003
0001
1000
,
0010
0100
0010
0000
0000
0020
0000
0000
,
0000
0000
0030
0000
;

//---------------dance-single - ----------------
#NOTEDATA:;
#CHARTNAME:;
#STEPSTYPE:dance-single;
#DESCRIPTION:;
#CHARTSTYLE:;
#DIFFICULTY:Hard;
#METER:11;
#RADARVALUES:0.471675,0.473348,0.105776,0.287107,0.000000,437.000000,423.000000,14.000000,38.000000,0.000000,0.000000,0.000000,0.000000,0.000000,0.471675,0.473348,0.105776,0.287107,0.000000,437.000000,423.000000,14.000000,38.000000,0.000000,0.000000,0.000000,0.000000,0.000000;
#CREDIT:;
#NOTES:
0000
0000
0000
0100
,
0000
0010
0000
1000
0001
0000
0010
0000
,
0001
0100
0000
0010
1000
0100
0010
0000
,
0010
0001
0000
0001
0100
0000
0001
1000
,
0001
0100
0000
1000
0000
0100
0020
0000
,
0001
0000
0000
0001
0030
0000
0010
0000
,
1000
0010
0100
0010
1000
0001
0200
0000
,
0010
0000
0000
0310
0000
0000
1000
0000
,
1000
0010
0000
0010
0100
0000
0010
0000
,
0100
0000
0001
0100
0001
0000
1000
0000
,
0010
0100
0001
0000
1000
0020
0000
0030
,
0000
0100
0001
0000
1000
0002
0000
0003
,
0000
0000
1000
0010
0100
0010
1000
0000
,
0100
0000
0010
0000
0001
0000
0010
0100
,
0010
0100
1000
0000
1000
0000
0001
0100
,
0000
0001
0000
0000
0000
0000
0001
0010
,
0001
0010
0000
0001
1000
0000
0001
0000
,
1000
0010
0000
0100
0000
0001
0000
0000
,
0001
0100
0000
0000
0010
1000
0010
0000
,
0010
0100
0000
0010
0000
0020
0000
0000
,
0100
0000
1030
0000
0000
0001
1001
0000
,
0001
1000
0000
1000
0000
0010
0000
0100
,
0010
0100
0000
0000
0000
0010
0100
0000
,
0010
1000
1010
0001
,
0000
0100
0010
1000
0001
0000
1010
0000
,
0001
0010
0100
0010
0001
0000
0010
0000
,
0000
0001
0100
0010
1000
0000
0010
0000
,
0100
0010
0100
0000
0001
0010
0001
0000
,
1000
0100
0000
0100
0010
0000
0001
0010
,
0001
0000
0001
0000
0010
0001
0010
0000
,
0100
1000
0100
0010
0001
0000
0200
0000
,
0300
0020
0000
0030
1000
0000
0001
0100
,
0000
0100
0010
1000
0010
0000
1001
0000
,
0001
0010
0100
0000
0100
0000
0010
0000
,
0000
0001
1000
1000
0010
0000
1000
0000
,
0010
0100
0001
0000
0100
0000
0020
0000
,
0130
0010
0000
0010
1000
0000
0200
0000
,
0310
0002
0000
0003
1000
0200
0000
0300
,
0010
0002
0000
0003
1000
0200
0000
0300
,
1000
0000
0001
0000
0100
0010
1000
0000
,
0001
0100
0000
0000
0100
0001
0000
0000
,
0100
0000
0010
0000
1000
0000
0001
0100
,
0010
0100
0010
0100
0002
0000
0003
0000
,
1000
0010
1000
1000
,
0100
0020
0000
0030
0010
0002
0000
0003
,
1000
0001
0000
0001
0000
1000
0002
0000
,
0000
0000
0003
0100
0010
0100
0000
0000
,
0001
0100
0000
0001
1000
0100
1000
0000
,
0100
0020
0000
0030
0001
2000
0000
3000
,
0010
0100
0000
0100
0001
0000
0002
0000
,
1000
0000
0103
0000
1000
0010
0100
0000
,
0010
0100
0001
1100
,
0010
0011
0001
0210
,
0310
0010
0000
0100
0010
0000
2000
0000
,
3010
0000
1000
0100
1000
0001
1000
0000
,
0100
0010
0000
0010
0001
0000
0200
0000
,
0300
0010
0100
0010
1000
0000
1001
0000
,
0001
0010
0100
0000
0100
0000
1000
0000
,
0000
1000
0001
1000
0010
0000
0010
0000
,
0100
0001
1000
0000
0100
0000
0010
0000
,
0001
0010
0000
0001
0010
0000
0001
1000
,
0010
0000
0100
0000
0010
1000
0001
0000
,
1000
0100
0010
0001
0010
0000
0002
0000
,
0000
2003
0000
0000
3010
0000
0000
0100
,
0000
0010
0100
0010
0100
0000
0110
0000
,
0001
1000
0001
0000
0001
0000
0101
0000
,
0000
1000
0010
1000
0100
0000
1100
0000
,
0010
0001
1000
0000
0100
0000
0020
0000
,
0031
0001
0000
1000
0001
0000
1000
0000
,
0010
0200
0000
0300
0010
0200
0000
0300
,
0001
0020
0000
0030
0100
2000
0000
3000
,
0010
0000
0100
0000
0001
0100
0001
0000
,
0001
0000
0100
0010
1000
0000
1010
0000
,
1000
0010
0100
0000
0010
0000
0110
0000
,
0000
0001
0100
0001
0100
0000
0001
0000
,
1000
0100
0010
0000
0001
0010
0100
0000
,
0010
0100
0000
0100
1000
0000
0001
1000
,
0001
0000
0010
0000
0100
0010
0100
0000
,
1000
0001
0001
0100
0010
0000
0100
0000
,
0010
0200
0000
0300
0010
0000
0000
0100
,
0000
0010
1000
0001
0100
0000
0110
0000
,
0100
0001
1000
0000
0001
0000
0100
0000
,
0000
0001
0010
0100
1000
0000
0100
0000
,
0010
0001
0010
0000
1000
0000
0020
0000
,
0000
0000
0030
0000
0001
0100
0020
0000
,
0130
0002
0000
0003
0001
2000
0000
3000
,
0010
0200
0000
0300
0001
1000
0000
0000
,
0001
0000
1000
0000
0001
1000
0100
0000
,
0010
0002
0000
0003
1000
0020
0000
0000
,
0000
0000
0030
0000
;
