#TITLE:蒼い弓箭;
#SUBTITLE:;
#ARTIST:m@sumi feat.TAKMA;
#TITLETRANSLIT:Aoi kyuusen;
#SUBTITLETRANSLIT:;
#ARTISTTRANSLIT:;
#GENRE:;
#CREDIT:from pop n music 22 Lapistoria;
#BANNER:LT_Aoi_kyuusen.png;
#BACKGROUND:;
#LYRICSPATH:;
#CDTITLE:;
#MUSIC:Aoi_kyuusen.ogg;
#OFFSET:-0.297000;
#SAMPLESTART:34.667000;
#SAMPLELENGTH:17.100000;
#SELECTABLE:YES;
#BPMS:0.000000=164.000000
;
#STOPS:
;
#BGCHANGES:;
#KEYSOUNDS:;
#ATTACKS:;

//---------------dance-single - ----------------
#NOTES:
     dance-single:
     :
     Beginner:
     4:
     0.210912,0.259843,0.151856,0.109674,0.000000,175.000000,157.000000,18.000000,13.000000,0.000000,0.000000,0.210912,0.259843,0.151856,0.109674,0.000000,175.000000,157.000000,18.000000,13.000000,0.000000,0.000000:
0000
0000
0000
0000
,
0000
0000
0000
0000
,
0000
0000
0220
0000
,
0330
0000
2000
0000
,
3002
0000
0103
0000
,
0010
0000
1000
0000
,
1001
0000
0001
0000
,
0010
0000
0100
0000
,
1000
0000
0100
0010
,
0001
0000
1000
0000
,
0010
0000
0100
0000
,
0001
0000
1000
0000
,
0010
1000
0100
0000
,
0010
0000
0002
0000
,
1003
0000
1001
0000
,
0001
0100
0001
0000
,
0100
0000
0100
0010
,
0100
0000
0110
0000
,
1001
0000
0001
1000
,
0001
0000
1000
0000
,
0010
0000
0101
0000
,
1010
0000
0001
0000
,
0100
0000
0010
0100
,
0010
0000
1000
0000
,
0001
0000
0100
0100
,
0100
0000
0001
0000
,
1000
0000
0010
0000
,
0110
0000
0001
0000
,
1000
0000
0010
0010
,
0010
0000
0100
0000
,
0010
0000
1001
0000
,
1000
0000
1100
0000
,
0100
0000
0001
0001
,
0001
0000
1000
0000
,
0001
0000
0100
0000
,
0010
0000
0110
0000
,
1000
0000
0001
0001
,
0001
0000
1000
0000
,
0010
0000
0100
0000
,
0001
0000
2000
0000
,
0000
3000
0002
0000
,
0000
0003
0100
0000
,
0010
0000
1001
0000
,
0000
0000
0101
0000
,
0001
0000
0100
0000
,
0001
0000
1000
0000
,
1000
0000
1000
1000
,
1000
0000
0001
0000
,
0000
0000
0101
0000
,
0000
0000
0010
0000
,
1000
0000
0001
0000
,
0100
0000
0001
0000
,
0101
0000
0001
0000
,
1001
0000
1000
0000
,
0001
0000
1000
0000
,
0001
0000
0000
0000
,
0200
0000
0000
0300
,
0020
0000
0000
0030
,
1000
0000
1000
0000
,
0001
0001
0001
0001
,
0001
0000
1000
0000
,
0010
0000
0100
0000
,
0010
0000
1000
0000
,
1001
0000
1000
0000
,
0001
0000
1000
1000
,
1000
0000
0001
0000
,
0100
0000
0001
0100
,
0001
0000
1000
0000
,
0001
0000
1000
0001
,
1000
0000
0002
0000
,
0103
0000
0020
0000
,
1030
0000
1001
0000
,
0000
0000
1000
0000
,
2000
0000
3200
0000
,
0300
0000
1000
1000
,
1000
1000
0001
0000
,
0001
0000
0100
0000
,
0010
0000
0000
0000
;

//---------------dance-single - ----------------
#NOTES:
     dance-single:
     :
     Easy:
     8:
     0.339869,0.421560,0.244658,0.185602,0.000000,282.000000,253.000000,29.000000,22.000000,0.000000,0.000000,0.339869,0.421560,0.244658,0.185602,0.000000,282.000000,253.000000,29.000000,22.000000,0.000000,0.000000:
0000
0000
0200
0000
,
0000
0300
0020
0000
,
2030
0000
3001
0100
,
0001
1000
0010
1000
,
0001
0000
2000
0000
,
3000
0000
0100
0000
,
0000
0000
1000
0001
,
0100
0010
0100
0001
,
1001
0000
1000
0100
,
0010
0001
1001
1000
,
1001
0100
0001
0100
,
0010
1000
1010
0010
,
1000
0001
0100
0010
,
0010
1000
2002
3003
,
0000
0000
0100
0010
,
1000
0000
0000
0000
0001
0000
0100
0001
,
0000
0100
0001
1000
,
0010
0100
0101
0101
,
0101
0000
0001
1000
,
1000
0000
0010
0000
0010
0000
0100
0001
,
0000
0101
0101
0000
,
1000
0000
0001
0000
0100
0000
0000
0100
,
0100
0000
0110
0000
,
1000
0000
0001
1000
,
0010
0000
1000
0000
0001
0100
0001
0100
,
0001
0000
1000
1001
,
0001
0101
1000
0001
,
1000
0001
1000
0100
,
0010
0001
1001
0110
,
1001
0000
0000
0000
0001
0000
0000
0100
,
0010
0000
0000
1000
0001
0000
1000
0000
,
0001
0100
0010
1000
,
0001
0000
0100
0000
0010
0100
0010
0100
,
0010
1000
0001
0100
,
0001
1000
1100
1100
,
1100
0000
0001
1000
,
0001
0000
0100
0000
0010
0100
0010
0100
,
0010
0000
0000
0000
2000
0000
3000
0010
,
0200
0000
0300
0001
0020
0000
0031
0000
,
0001
1000
1000
0000
,
0100
0000
0010
0000
,
0001
0000
1000
0000
,
0010
0100
0110
0000
,
0101
0000
0000
0000
0001
1000
0001
0000
,
1000
1001
1001
0001
,
0100
0000
0001
0100
0001
0000
1000
0000
,
1000
0000
0010
1000
0010
0000
0100
0000
,
0100
0000
0010
0000
,
0000
0000
0000
0000
1000
0000
0000
0010
,
0000
0100
0010
0000
,
1000
0000
0000
0000
0001
0100
0001
0100
,
0001
0000
1001
0000
,
1100
0000
0000
0000
1000
0000
0000
0100
,
0000
1000
1000
0000
,
0100
0000
0010
0000
,
0002
0003
0000
0000
,
1000
0000
0000
0010
0100
0000
0000
0000
,
0001
1000
0001
0100
0001
0000
0000
0000
,
2000
0000
3200
0000
,
0320
0000
0032
0000
,
0103
0000
0010
0000
,
1000
0010
0100
0010
1000
0000
0000
0000
,
0002
0000
0203
0000
,
0320
0000
1030
0000
,
0001
0000
1000
0000
0010
0100
0010
0100
,
0001
1000
1000
0001
,
0001
0100
0110
0000
,
0101
0000
1000
0010
,
0100
0000
0001
0000
1000
0001
0100
0001
,
1000
0000
0001
0100
,
0100
0100
0010
0010
,
0010
0000
1000
0000
0002
0000
0003
0100
,
0020
0000
0130
0000
,
0200
0000
0302
0000
,
1003
0001
1001
0100
,
1001
0000
0000
0000
0200
0000
0000
0300
,
0010
0000
0000
0000
1000
0000
0010
0100
;

//---------------dance-single - ----------------
#NOTES:
     dance-single:
     :
     Medium:
     11:
     0.532703,0.616126,0.345895,0.329022,0.097019,442.000000,401.000000,41.000000,39.000000,0.000000,0.000000,0.532703,0.616126,0.345895,0.329022,0.097019,442.000000,401.000000,41.000000,39.000000,0.000000,0.000000:
0000
0000
0200
0000
,
0000
0020
0300
0000
1030
0000
1001
0000
,
0200
0000
0000
0300
0010
0000
1000
0000
,
0001
0100
0001
0000
1000
0010
1000
0001
,
0100
0010
0200
0000
,
0300
0000
0020
0000
,
0030
0000
2000
0001
,
0001
0000
3001
0000
0100
0000
0000
0010
,
1000
0010
1000
0001
0100
0010
2000
0000
,
0100
0000
0100
0000
3001
0000
0001
0100
,
0001
0010
0001
1000
0200
0000
0010
0000
,
0010
0000
0301
0000
0100
0000
0000
0001
,
0010
0100
0010
0001
1000
0100
0020
0000
,
0000
0031
2002
3003
,
0100
0000
0110
0100
,
0001
0100
0010
1000
0010
0000
1000
0100
,
0000
0100
1000
0001
0100
0000
0010
0000
,
0100
0010
0100
0000
0001
0100
0001
1000
,
0002
0000
0000
0003
1000
0100
0010
0000
,
0010
0001
1000
0000
0002
0000
0103
0010
,
0000
0010
1000
0001
1001
0000
0100
0010
,
0110
0000
0000
0100
0000
0000
0010
0000
0110
0000
0000
1010
0000
0000
1001
0000
,
1001
0000
0000
0000
0100
0010
0100
0001
,
1000
0000
0100
0000
1000
0000
0000
0000
0001
0000
0000
0100
0000
0000
0010
0000
,
1010
0000
0000
1000
0000
0000
0000
0000
0010
0000
0100
0000
0010
0000
0100
0000
,
0001
0000
0010
0100
1000
0000
0010
0100
,
0010
1000
0100
0000
0001
0100
0010
0001
,
1000
0000
0100
0000
0001
0000
0100
0000
0010
0000
0000
0001
0000
0000
1000
0000
,
1001
0000
0000
0001
0000
0000
0000
0000
1001
0000
0100
0000
0010
0000
0100
0000
,
0010
0000
1000
0100
0020
0000
0031
1000
,
0100
0000
1000
0100
1000
0000
0001
1000
,
0100
0000
1000
0100
0010
0100
0010
0001
,
1000
0000
0000
0001
0000
0000
0000
0000
1000
0000
0010
0000
0100
0000
0001
0000
,
1000
0000
0001
0010
0011
0000
1001
0000
,
0100
0010
0100
0001
1001
0000
1010
0000
,
0001
0000
0100
0000
0010
0000
0000
0000
1000
0000
0000
0001
0000
0000
0100
0000
,
0101
0000
0000
0001
0000
0000
0000
0000
1000
0000
0010
0000
1000
0000
0010
0000
,
0110
0000
0010
1000
0002
0000
0103
0010
,
0200
0000
0300
0001
0001
0000
2000
0000
,
3020
0000
0230
0000
0302
0000
0000
2003
,
0000
0000
0000
3000
1001
0000
0010
0100
,
0010
0100
0102
0100
,
0103
0010
2000
0001
,
3001
0000
0000
0000
0110
0000
0010
0100
,
0010
0100
0001
0010
0100
1000
0100
0010
,
0002
0003
1000
0000
1100
0000
1000
0010
,
0100
0000
1000
0010
0100
0000
0001
0010
,
0100
0000
0001
0100
0010
0000
0001
0010
,
0100
0000
0001
0100
0010
1000
0001
1000
,
0000
1000
0100
0010
0001
0000
1000
0100
,
1000
0000
0000
0001
0000
0000
0100
0000
0101
0000
0000
0000
0101
0000
0000
0000
,
0220
0000
0330
0000
0110
0000
0010
1000
,
0100
0000
0100
0010
0100
1000
0001
0100
,
0000
0100
0010
0100
0110
0000
0001
0100
,
0101
0000
0000
0001
0000
0000
1000
0000
0010
0000
0000
1000
0000
0000
1001
0000
,
1001
0000
0100
0000
,
0010
0000
0000
0100
0000
0000
0001
0000
1000
0000
0000
0001
0000
0000
0100
0000
,
0010
1000
0010
0100
0020
0000
0100
0000
,
1030
0200
0001
0310
,
2000
0100
3001
0100
,
0110
0000
0000
0100
0000
0000
0010
0000
0110
0000
0000
0100
0000
0000
0010
0000
,
1000
0001
0010
0100
1000
0100
0010
0001
,
0100
0010
0100
0010
0200
0000
0300
0000
,
0011
0000
0000
0000
0000
0000
0000
0000
0000
0000
0000
0000
1000
0000
0000
0000
0001
0000
0000
0000
1000
0000
0000
0000
0001
0000
0000
0000
0000
0000
0000
0000
0000
0100
0000
0000
0000
0000
0000
0000
0000
0000
0010
0000
0000
0000
0000
0000
,
1000
0000
0000
0001
0000
0000
0100
0000
0010
0000
0100
0000
0010
0000
0100
0000
,
1001
0000
0010
0100
1001
0000
1000
0000
,
0010
0000
0000
0100
0000
0000
0001
0000
0100
0000
1000
0000
0100
0000
0001
0000
,
1000
0000
0100
0000
0001
0000
0100
0000
1000
0000
0000
0001
0000
0000
1000
0000
,
1001
0000
0000
0001
0000
0000
0100
0000
0110
0000
0010
0000
1000
0000
0100
0000
,
1010
0000
0001
0100
0020
0000
0100
0000
,
0031
0000
1000
0100
0010
0000
0002
0000
,
2003
0000
3010
0000
0200
0000
0000
0310
,
0020
0000
0000
0030
0200
0000
0000
0300
,
0102
0000
0000
0000
1003
0000
0010
0100
,
0110
0000
0010
0100
1010
0000
0001
0100
,
0020
0100
0001
1030
,
0002
0000
1000
0000
0103
0000
0010
0100
;

//---------------dance-single - ----------------
#NOTES:
     dance-single:
     :
     Hard:
     16:
     0.899087,0.907975,0.523061,0.202475,0.725536,746.000000,684.000000,62.000000,24.000000,0.000000,0.000000,0.899087,0.907975,0.523061,0.202475,0.725536,746.000000,684.000000,62.000000,24.000000,0.000000,0.000000:
// measure 0
0000
0000
2000
0000
,  // measure 1
3000
0000
0100
0000
0000
0101
0000
0000
0201
0000
0000
0000
0301
0000
1000
0000
,  // measure 2
0010
0000
0000
0000
1000
0000
0000
0000
0001
0000
0000
0000
1000
0000
0000
0000
0010
0000
0000
0000
1000
0000
0000
0000
0001
0000
0000
0000
0000
0000
0100
0000
0000
0001
0000
0000
0200
0000
0000
0000
0000
0000
0300
0000
0000
0000
0000
0000
,  // measure 3
0110
0000
0010
1000
0020
0030
0000
0000
1001
0000
0001
1000
0001
0000
1000
0100
,  // measure 4
0010
0000
0001
0000
0010
0100
1000
0100
0010
0000
0000
0000
0001
0000
1000
0000
,  // measure 5
0020
0000
0000
0000
0030
0000
0100
0010
0200
0000
0000
0000
0300
0000
0000
0000
,  // measure 6
1010
1010
1001
0000
0101
0000
0001
0010
,  // measure 7
0100
0000
0000
0000
1000
0000
0100
0000
0010
0000
0001
1000
0001
0000
0100
0000
,  // measure 8
0010
0000
0100
0000
1000
0000
0100
0000
0001
0000
1000
0100
0010
0000
0001
0000
,  // measure 9
1001
0000
0100
0010
0100
0000
0010
0000
1000
0000
0001
0000
0100
0000
0001
0000
,  // measure 10
0010
0000
0100
0000
0010
0000
0001
0000
1000
0000
0010
0100
0001
0000
1000
0000
,  // measure 11
0010
0000
0100
0001
0100
0000
0010
0000
1000
0000
0001
0000
0100
0000
0010
0000
,  // measure 12
1000
0100
0010
0100
1000
0001
0100
1000
,  // measure 13
0100
0010
1000
0001
0200
0000
0310
0100
,  // measure 14
0010
1000
0010
1000
0010
0000
0100
0000
0101
0000
0101
0000
0001
0000
1000
0000
,  // measure 15
1100
1100
0010
0001
1000
0010
0100
0101
,  // measure 16
0000
0001
0100
0010
1000
0001
0100
1000
,  // measure 17
0100
0001
1000
0010
1010
0100
0101
0100
,  // measure 18
0101
0000
0000
0000
0110
0110
0010
1000
,  // measure 19
0101
0000
0101
0000
0001
0000
1000
0010
1000
0000
0000
0000
0001
0000
0100
0000
,  // measure 20
0000
0000
0100
0000
0010
0000
1000
0000
1001
0000
0000
0000
0100
0000
0010
1000
,  // measure 21
0001
0000
0010
0000
0001
0000
0010
0001
0010
0000
0000
0011
0000
0000
0110
0000
,  // measure 22
1010
0000
1010
0000
0000
0000
0000
0000
0010
1000
0001
0000
1000
0000
0010
0000
,  // measure 23
0200
0000
0000
0000
0000
0000
0000
0000
0000
0000
0000
0000
0310
0000
0000
0000
0100
0000
0000
0000
0010
0000
0000
0000
0100
0000
0000
0000
0000
0000
0001
0000
0000
1000
0000
0000
0000
0000
0000
1000
0000
0000
0001
0000
0000
0000
0000
0000
,  // measure 24
0100
0000
0010
0100
0000
0010
0100
0000
0001
0000
1000
0100
0010
0000
0001
0000
,  // measure 25
1000
0000
0010
0100
0001
0000
1000
0000
0010
0000
0100
0001
0100
0000
0010
0001
,  // measure 26
0010
0000
0100
0001
0000
0001
1000
0000
0100
0000
1000
0100
0010
0100
0010
0100
,  // measure 27
1000
0010
0100
0001
0100
0010
1000
0010
1000
0000
1000
0100
0000
0100
0010
0000
,  // measure 28
0001
0000
1000
0100
0000
0010
0100
0000
0010
0000
0001
0010
0001
0010
0100
1000
,  // measure 29
0100
0000
1000
0000
0010
0000
0100
0000
0101
0000
0001
0100
0001
0000
1000
0000
,  // measure 30
1010
0000
0100
0001
0100
0000
0100
0010
1000
0000
0010
1000
0001
0000
0100
0010
,  // measure 31
0200
0000
0010
0000
0300
0010
0000
0000
1010
0000
0100
0001
0100
0000
0001
0010
,  // measure 32
0100
0000
1000
0001
1000
0000
0001
0000
0100
0000
0100
0001
0100
0000
0001
0010
,  // measure 33
0001
0000
0100
0001
1000
0000
0010
0000
1010
0000
1000
0010
0100
0000
0001
0000
,  // measure 34
0110
0000
1000
0000
0001
0000
0100
0000
0010
0000
1000
0001
0000
1000
0001
0000
,  // measure 35
1000
0100
0010
0100
1000
0001
0010
0001
0100
0001
0100
0000
0000
0001
1000
0000
,  // measure 36
0001
0000
0100
0010
0000
0010
0100
0000
0001
0010
0001
0010
0100
0000
1000
0000
,  // measure 37
1000
0100
0010
0100
0010
0000
0001
0000
0022
0000
0000
0000
0030
0000
1000
0000
,  // measure 38
1003
0000
0000
0000
0010
0000
0100
0010
0200
0000
0000
0000
0320
0000
0000
0000
,  // measure 39
2030
0000
3001
0000
0100
0010
0100
0001
,  // measure 40
0001
0000
1000
0100
0010
0000
0001
0000
2000
0000
3000
0000
0010
0000
1000
0000
,  // measure 41
0001
1000
0100
1000
0100
0010
0001
1000
0001
0000
0100
0000
0010
0000
0100
0000
,  // measure 42
1000
0001
0100
0010
1000
0000
0001
0000
,  // measure 43
0101
0000
0000
0000
0010
0100
0010
0000
0100
0000
0001
0000
1010
0000
1000
0000
,  // measure 44
1010
0100
0110
0010
0011
0100
0110
0001
,  // measure 45
0100
0010
1000
0001
0100
0000
0010
0000
0110
0000
1000
0001
1000
0000
0001
0100
,  // measure 46
0001
0000
1000
0000
1010
0000
0100
0010
0100
0000
0001
0100
0010
0000
1000
0100
,  // measure 47
0010
0000
0001
0000
0100
0010
1000
0100
0010
0000
0000
0000
0001
0000
0100
0010
,  // measure 48
0100
0001
0001
1000
1010
0000
0010
1010
,  // measure 49
0000
0000
0100
0010
0100
0000
0001
0000
0110
0000
0110
0000
1000
0000
1000
0000
,  // measure 50
1001
0000
0101
0000
0101
0000
0000
0000
0001
0000
1000
0100
1000
0000
0100
0010
,  // measure 51
0002
0000
0000
0000
0003
0000
0000
0000
1000
0000
0001
0100
0010
0100
0001
0010
,  // measure 52
0100
0000
1000
0100
0010
0100
1000
0100
0010
0000
0000
0000
0001
0000
2000
0000
,  // measure 53
0000
0000
3001
0000
0100
0000
0010
0100
0010
0000
0000
0000
1000
0000
0100
0010
,  // measure 54
0100
0000
0010
0001
0000
0001
0010
0000
0100
1000
0100
1000
0000
0100
0010
0000
,  // measure 55
0011
0101
0000
0000
0100
0000
0000
0000
,  // measure 56
0010
0000
1000
0010
0100
0010
1000
0100
0010
0000
0001
0000
1000
0000
0010
0100
,  // measure 57
0010
0000
0100
0010
0100
0000
0100
0001
0100
0000
0010
0000
1000
0000
0100
0000
,  // measure 58
1000
0000
0100
0010
0001
0010
0001
0000
1000
0000
0100
0010
0001
1000
0010
0000
,  // measure 59
0100
0000
0001
0000
0010
0100
1000
0010
0100
0000
0001
0000
2000
0000
3001
0000
,  // measure 60
0100
0000
0010
0100
0010
0000
1000
0100
0010
0100
1000
0001
0010
0100
0010
0001
,  // measure 61
0010
0100
1000
0001
0010
0001
0100
0000
0010
0000
0100
0000
0001
0000
1000
0000
,  // measure 62
0001
0010
0001
0010
0001
0010
0100
0010
0001
0000
0000
0000
0000
0000
0000
0000
,  // measure 63
0100
0000
0000
0000
0000
0000
0010
0000
0000
0000
0000
0000
0100
0000
0000
0000
0010
0000
0000
0000
0100
0000
0000
0000
0001
0000
0000
0000
0000
0000
1000
0000
0000
0001
0000
0000
0000
0000
0000
1000
0000
0000
0001
0000
0000
0000
0000
0000
,  // measure 64
0100
0000
0010
0100
0010
0000
1000
0000
0001
0000
0100
0001
0100
0001
0010
0001
,  // measure 65
0010
0001
0100
0000
0001
0000
1000
0010
1000
0000
0001
0000
0100
0000
0010
0000
,  // measure 66
0110
0000
0010
0100
0000
0100
0010
0000
1000
0000
0001
0010
0001
0000
0100
0001
,  // measure 67
0100
0010
1000
0010
0100
0001
0100
0000
0010
0000
1000
0010
0000
0100
0001
0000
,  // measure 68
1000
0000
0010
0100
0001
0000
1000
0000
1001
0000
1001
0000
0110
0000
0110
0000
,  // measure 69
0101
0000
0001
0100
0001
0000
1000
0000
2200
0000
0000
0000
3300
0000
0010
0000
,  // measure 70
0200
0000
0310
0100
0110
0000
1010
0000
,  // measure 71
1001
0000
0100
0010
0200
0000
0300
0010
,  // measure 72
2000
0000
0001
0000
3000
0001
0000
0000
0101
0000
0000
0000
0010
0000
0001
0000
,  // measure 73
0010
0000
0000
0000
0001
0000
0000
0000
0010
0000
0000
0000
0100
0000
0000
0000
0010
0000
0000
0000
0001
0000
0000
0000
1000
0000
0000
0000
0000
0000
0010
0000
0000
0001
0000
0000
0010
0000
0000
0000
0000
0000
1000
0000
0000
0000
0000
0000
,  // measure 74
0010
0000
0100
0001
0100
0000
0001
0000
0010
0000
1000
0010
0001
0000
0100
0000
,  // measure 75
0200
0000
0000
0000
0000
0000
0301
0010
0100
0010
0100
1000
,  // measure 76
0010
0000
0000
0000
0100
0000
0000
0000
0001
0000
0000
0000
1000
0000
0000
0100
0000
0000
0010
0000
0000
0001
0000
0000
0000
0000
0000
0000
0000
0000
0000
0000
0000
0000
0000
0000
0110
0000
0000
0000
0000
0000
1001
0000
0000
0000
0000
0000
;
