#TITLE:Amulet;
#SUBTITLE:;
#ARTIST:Parquets;
#TITLETRANSLIT:;
#SUBTITLETRANSLIT:;
#ARTISTTRANSLIT:;
#GENRE:;
#CREDIT:from pop n music 14 CS;
#BANNER:CS14_WISH.png;
#BACKGROUND:;
#LYRICSPATH:;
#CDTITLE:;
#MUSIC:Parquets - Amulet.ogg;
#OFFSET:-0.201000;
#SAMPLESTART:35.985577;
#SAMPLELENGTH:12.000000;
#SELECTABLE:YES;
#BPMS:0.000000=166.000000
;
#STOPS:
;
#BGCHANGES:;
#KEYSOUNDS:;
#ATTACKS:;

//---------------dance-single - ----------------
#NOTES:
     dance-single:
     :
     Beginner:
     3:
     0.128502,0.191896,0.059968,0.059968,0.000000,90.000000,84.000000,6.000000,6.000000,0.000000,0.000000,0.128502,0.191896,0.059968,0.059968,0.000000,90.000000,84.000000,6.000000,6.000000,0.000000,0.000000:
0000
0000
0000
0000
,
0000
0000
0000
0000
,
0000
0000
0000
0000
,
0000
0000
0000
0000
,
0000
0001
0001
0000
,
0000
1000
1000
0000
,
0000
1001
0000
0000
,
2002
0000
3003
0000
,
0000
0001
0000
0000
,
2000
0000
3000
0000
,
0020
0000
0030
0000
,
0100
0000
0000
0000
,
0001
0000
0000
0000
,
1000
0000
0000
0000
,
0001
0000
0000
0000
,
1000
0000
1000
0000
,
0001
0000
0001
0000
,
1000
0000
0010
0000
,
0010
0000
0000
0000
,
0110
0000
0000
0000
,
1000
0000
0001
0000
,
0001
0000
0000
0000
,
1000
0000
0001
0000
,
0001
0000
0000
0000
,
1000
0000
0000
0000
,
1000
0000
0100
0000
,
1000
0000
0000
0000
,
1000
0000
0001
0000
,
0001
0000
0100
0000
,
0001
0000
1000
0000
,
0001
0000
0100
0000
,
0001
0000
0000
0000
,
0001
0001
0000
0000
,
0100
0100
0000
0000
,
0001
0000
0000
0000
,
2000
0000
0000
3000
,
0001
0000
0000
0000
,
0001
0000
1000
0000
,
0001
0000
0000
0000
,
1000
0000
0000
0000
,
1001
0000
0000
0000
,
0001
0000
0000
0000
,
1000
0000
0000
0000
,
1001
0000
0000
0000
,
0001
0000
0001
0000
,
0001
0000
0000
0000
,
1000
0000
0010
0000
,
1000
0000
0000
0000
,
0001
0000
0000
0000
,
0010
0000
0001
0000
,
0010
0000
0000
0000
,
0011
0000
0000
0000
,
0001
0000
1000
0000
,
1000
0000
0000
0000
,
0001
0000
0000
0000
,
1000
0000
0000
0000
,
0010
0000
0000
0000
,
0100
0000
0000
0000
,
0100
0000
0000
0000
,
0100
0100
0000
0100
,
0100
0000
0100
0000
,
0100
0000
0100
0000
,
0010
0000
0010
0000
,
0200
0000
0000
0000
,
0300
0000
0000
0000
;

//---------------dance-single - ----------------
#NOTES:
     dance-single:
     :
     Easy:
     5:
     0.215598,0.285596,0.069962,0.059968,0.000000,151.000000,144.000000,7.000000,6.000000,0.000000,0.000000,0.215598,0.285596,0.069962,0.059968,0.000000,151.000000,144.000000,7.000000,6.000000,0.000000,0.000000:
0000
0000
0000
0000
,
0000
0000
0000
0000
,
0000
0001
0000
0000
,
0000
1000
0000
0000
,
0000
0001
0000
0000
,
1000
1000
0000
0001
,
0000
0000
1001
0000
0000
1001
0000
0000
,
2002
0000
3003
0000
,
0000
0001
0100
0001
,
2000
0000
3001
0010
,
0200
0000
0301
0000
,
0100
0000
0000
0000
0000
0001
0000
0000
,
0001
0000
1000
0000
,
1000
0000
0000
0001
0000
0001
0000
0000
,
0001
0000
1000
0000
,
0010
0000
1000
0100
,
0010
0000
0001
0010
,
0100
0000
1000
0010
,
0010
0000
0000
0000
0000
0100
0000
0000
,
0010
0000
0010
0000
,
1000
0001
0100
0000
,
0001
0000
0000
1000
0000
1000
0000
0000
,
0001
0000
0100
0010
,
0100
0000
0000
0100
0000
0000
0000
0000
,
0010
0000
0000
0010
0000
0000
0000
0000
,
1000
0001
0100
0001
,
1000
0000
0001
0000
,
1000
0100
0001
0000
,
0001
0000
1000
0000
,
0001
0100
1000
0000
,
0001
0000
0000
1000
0000
0000
0000
0000
,
1001
0000
0001
1000
,
0001
0000
1000
0001
,
1000
0000
0010
0100
,
0010
0000
0100
0000
,
2000
0000
0001
3000
,
0001
0000
0000
1000
0000
0000
0000
0000
,
0001
0100
0001
0000
,
0100
0000
0000
0010
0000
0000
0000
0000
,
1000
0000
0000
0001
0000
0000
0000
0000
,
1000
0001
0001
0000
,
0001
0000
0000
1000
0000
0000
0000
0000
,
0001
1000
1000
0000
,
1001
0000
0001
0000
,
0001
0000
0000
1000
0000
1000
0000
0000
,
0001
0000
0100
0000
,
1000
0000
0100
0000
,
0001
0000
1001
0000
,
1000
0000
0000
0010
0000
0000
0000
0000
,
0010
0000
0100
0000
,
0110
0000
0000
0000
0000
0100
0000
0000
,
0010
0000
0100
0000
,
0001
0000
1000
0001
,
1000
0000
0001
0000
,
0001
0000
1000
0000
,
1000
0000
0010
0000
,
0010
0000
0000
0000
,
0100
0000
0000
0100
0000
0000
0100
0000
,
0000
0100
0000
0000
0000
0000
0010
0000
,
0010
0010
0000
0100
,
0000
0100
0000
0000
0200
0000
0000
0000
,
0300
0000
0100
0001
,
1000
0001
0100
0000
,
0100
0000
0100
0000
;

//---------------dance-single - ----------------
#NOTES:
     dance-single:
     :
     Medium:
     9:
     0.406923,0.447758,0.219881,0.149919,0.000000,285.000000,263.000000,22.000000,15.000000,0.000000,0.000000,0.406923,0.447758,0.219881,0.149919,0.000000,285.000000,263.000000,22.000000,15.000000,0.000000,0.000000:
// measure 0
0000
0000
0000
0000
,  // measure 1
0000
0000
0000
0000
,  // measure 2
0000
0000
0001
0000
0000
0000
0000
1000
,  // measure 3
0001
1000
0001
0000
0000
0100
0000
0000
,  // measure 4
0000
0000
0002
0000
0003
0000
0000
1000
,  // measure 5
0100
1000
0100
0000
0010
0000
0001
0000
,  // measure 6
0100
0000
0110
0000
0000
1001
0000
1000
,  // measure 7
0002
0000
0003
0000
,  // measure 8
0000
0010
1000
0010
0000
0100
0001
0100
,  // measure 9
0002
0000
0000
0000
1003
0000
0010
1000
,  // measure 10
0200
0000
0310
0001
,  // measure 11
0100
0000
0000
0000
0000
0001
0000
1000
,  // measure 12
0002
0000
0003
1000
0001
0000
0000
0000
,  // measure 13
1000
0000
0000
0001
0000
0001
0000
1000
,  // measure 14
0001
1000
0000
0010
0000
0000
0000
0100
,  // measure 15
0010
0000
0000
0010
1000
0000
0100
0000
,  // measure 16
0010
0000
0001
1000
0001
0000
0000
0010
,  // measure 17
0100
0000
1000
0001
0000
1000
0010
0100
,  // measure 18
0000
0010
0000
0100
0000
0200
0300
0000
,  // measure 19
0010
1000
0010
0001
,  // measure 20
1000
0100
0010
0001
,  // measure 21
1000
0000
0001
1000
0000
1000
0000
0001
,  // measure 22
0100
0001
0000
0100
0000
0010
0100
0000
,  // measure 23
0110
0000
0010
0100
0000
0000
0010
0000
,  // measure 24
1001
0000
0001
2000
0000
3000
0001
1000
,  // measure 25
0001
0000
0100
0010
0000
0100
0001
0000
,  // measure 26
1000
0000
0001
1000
0000
1001
0000
0000
,  // measure 27
1100
0000
0100
0000
0010
0000
0001
0100
,  // measure 28
0001
0000
1000
0010
0000
0010
0000
0000
,  // measure 29
0010
0000
1000
0001
1000
0000
0001
0000
,  // measure 30
0001
0000
1000
1000
0000
0001
0000
0000
,  // measure 31
1001
0000
1000
0000
0001
0000
1000
0001
,  // measure 32
0100
0010
0000
0010
1000
0000
0001
1000
,  // measure 33
0010
0100
0010
0100
,  // measure 34
0010
0000
0110
0000
0100
0010
0000
0000
,  // measure 35
0200
0000
0001
0000
0301
0000
0001
1000
,  // measure 36
0100
1000
0000
1100
0000
0011
0000
0000
,  // measure 37
0001
0000
0100
0001
1000
0000
0010
0000
,  // measure 38
0100
0000
0000
0110
0000
0110
0000
0000
,  // measure 39
1000
0000
0001
0100
0000
0100
0001
0000
,  // measure 40
1000
0001
0100
0001
0100
0000
0010
1000
,  // measure 41
0010
0000
0000
1001
0000
0001
1000
0010
,  // measure 42
0000
0000
1000
0000
1000
0001
0000
0000
,  // measure 43
0011
0000
0001
0000
1000
0000
0010
0100
,  // measure 44
0001
0100
0000
0011
0000
1100
0000
0000
,  // measure 45
0001
0000
0001
0000
0100
0000
0000
0100
,  // measure 46
1000
0000
0000
0000
0200
0000
0300
0001
,  // measure 47
0001
0000
0000
0000
1001
0000
0001
1000
,  // measure 48
0010
0000
0010
0100
0000
0010
0000
0000
,  // measure 49
0110
0000
0100
0001
,  // measure 50
0100
0000
0001
1000
0000
1001
0000
0000
,  // measure 51
0010
0100
0000
0001
0000
0100
0001
0000
,  // measure 52
1001
0000
2002
0000
3003
0000
0001
1000
,  // measure 53
0002
0000
1003
0100
,  // measure 54
0010
0001
1000
0010
,  // measure 55
1000
0100
0010
0001
0000
1000
0001
0100
,  // measure 56
0010
0000
0100
0001
0000
1000
0001
1000
,  // measure 57
0001
1000
0000
0001
0000
0100
0001
0100
,  // measure 58
0000
0001
0000
0001
0100
0000
0001
0000
,  // measure 59
0001
0000
0001
0100
0000
0100
0001
0100
,  // measure 60
0000
0100
0000
0001
0100
0000
0001
0000
,  // measure 61
0202
0303
0100
0001
,  // measure 62
1000
0001
0100
0001
,  // measure 63
0100
0010
0200
0000
,  // measure 64
0300
0000
0000
0000
;

//---------------dance-single - ----------------
#NOTES:
     dance-single:
     :
     Hard:
     12:
     0.553987,0.571192,0.249865,0.179903,0.084954,388.000000,363.000000,25.000000,18.000000,0.000000,0.000000,0.553987,0.571192,0.249865,0.179903,0.084954,388.000000,363.000000,25.000000,18.000000,0.000000,0.000000:
0000
0000
0000
0000
,
0000
0000
0000
0000
,
0000
0000
0001
0000
0000
0000
0000
1000
,
0001
1000
0001
0100
0010
0100
0000
0010
,
0000
0000
0100
0001
0100
0000
0000
0000
0001
0000
1000
0000
0000
0000
1000
0000
,
0100
0010
0000
0001
0010
0001
0000
0100
,
0010
0100
0110
0110
0000
1001
0000
1000
,
2002
0000
3003
0000
,
1000
0010
1000
0001
0000
0100
0001
0100
,
0002
0000
1000
1000
0003
1000
0010
1000
,
0200
0000
0010
0010
0300
0000
0010
0000
,
0002
0000
0003
0000
0000
0001
0000
1000
,
0002
0000
0003
1000
0100
0000
0000
0000
,
1000
0100
0010
0001
0000
0001
0000
1000
,
0001
1000
0010
0100
0000
0010
0100
0010
,
2000
0000
0000
0000
3000
0000
0010
0000
1000
0000
0000
0100
0010
0000
0000
0010
,
0001
0000
0001
1000
0001
0100
0010
0100
,
0001
0000
1000
0001
0100
0100
0001
0100
,
0010
0110
0000
0101
0000
0100
0010
0000
,
0010
1000
0100
0010
0000
0010
0001
0010
,
1000
0010
0001
0010
0001
0000
0001
1000
,
1001
0000
0001
1000
0000
1000
0100
0001
,
0100
0010
0001
0001
0000
0010
0100
0000
,
0110
0000
1000
1001
0000
0010
0100
0000
,
1001
0000
0100
2000
0000
3001
0001
1000
,
0100
0010
0100
0010
0000
0010
0001
1000
,
1001
0000
0100
1100
0000
1000
0001
0000
,
1000
0000
0100
0000
0010
0001
1000
0100
,
0020
0000
0130
1000
0000
0010
1000
0000
,
1010
0000
1000
0001
1000
0001
0100
0001
,
0100
0000
0010
1000
0000
1100
0000
0010
,
0011
0000
1000
0001
0100
0000
0100
0001
,
1000
0010
0000
0010
0000
1000
0100
1000
,
0010
0000
0100
0000
0010
0000
0010
0000
0100
0000
0001
0000
0100
0000
0010
0100
,
0010
0000
0110
0000
0100
0010
0010
0010
,
0200
0000
0301
1000
0001
0100
0001
1000
,
0100
0010
0000
0011
0000
0001
1000
0000
,
0001
0100
0010
1000
0000
0010
1000
0001
,
0100
0010
0000
0110
0000
0110
0000
0001
,
1000
0001
0000
0100
0010
0100
0010
0000
,
1000
0001
0000
1001
0000
0001
0001
1000
,
1001
0000
0000
1100
0000
0010
1000
0001
,
0000
0000
1100
0000
1000
0001
0100
0001
,
0001
0000
0001
1000
0010
0100
0000
0100
,
0001
0100
0001
0010
0000
1000
0100
0000
,
0010
0000
0001
0000
0100
0000
0010
0100
,
0010
0000
0100
0001
0200
0000
0300
0001
,
1000
0010
1000
0010
1000
0100
0010
0100
,
0010
0000
0010
0001
0000
0010
0100
0000
,
0010
0001
0100
0010
0100
0010
1000
0100
,
1000
0000
0001
1000
0000
0011
0000
0000
,
0100
0000
0001
0000
0100
0000
0001
0000
0000
0000
1000
0000
0001
0000
1000
0001
,
1000
0002
0003
2000
,
3002
0000
0000
0000
0003
1000
0010
0100
,
0010
0000
0100
0000
0001
0000
1000
0000
0000
0000
0001
0000
0000
0000
1000
0001
,
1000
0000
0010
0100
0000
0001
0010
0100
,
1000
0100
1000
0100
0000
1000
0001
0100
,
0001
2000
3000
0002
0003
0100
0010
2000
,
3000
0002
0003
0100
0010
0000
0011
0000
,
0001
0100
1000
0100
0001
0000
0001
1000
,
0010
0000
0000
0100
0000
0000
0001
0000
0000
1000
0000
0000
0100
0000
0010
0000
0100
0000
0010
0000
0100
0000
0010
0000
,
0100
0000
0000
0000
0010
0000
0000
0100
1000
0000
0000
0001
0010
0000
0000
0100
,
1000
0000
0001
0100
0001
1000
0001
0000
,
0100
0010
0100
0010
0100
0010
0100
0000
0000
0000
0000
0000
;
