#VERSION:0.83;
#TITLE:Ame nochi Hello;
#SUBTITLE:;
#ARTIST:TLION69;
#TITLETRANSLIT:;
#SUBTITLETRANSLIT:;
#ARTISTTRANSLIT:;
#GENRE:;
#ORIGIN:;
#CREDIT:from pop n music 21 Sunny Park;
#BANNER:20140809172057!SP_BREAKOUT_ROCK.png;
#BACKGROUND:;
#PREVIEWVID:;
#JACKET:;
#CDIMAGE:;
#DISCIMAGE:;
#LYRICSPATH:;
#CDTITLE:;
#MUSIC:Ame_Nochi_Hello.ogg;
#OFFSET:-0.138000;
#SAMPLESTART:32.191002;
#SAMPLELENGTH:13.000000;
#SELECTABLE:YES;
#BPMS:0.000=189.000;
#STOPS:;
#DELAYS:;
#WARPS:;
#TIMESIGNATURES:0.000=4=4;
#TICKCOUNTS:0.000=4;
#COMBOS:0.000=1;
#SPEEDS:0.000=1.000=0.000=0;
#SCROLLS:0.000=1.000;
#FAKES:;
#LABELS:0.000=Song Start;
#BGCHANGES:;
#KEYSOUNDS:;
#ATTACKS:
;

//---------------dance-single - ----------------
#NOTEDATA:;
#CHARTNAME:;
#STEPSTYPE:dance-single;
#DESCRIPTION:;
#CHARTSTYLE:;
#DIFFICULTY:Beginner;
#METER:4;
#RADARVALUES:0.222413,0.335120,0.176447,0.166068,0.000000,150.000000,133.000000,17.000000,16.000000,0.000000,0.000000,0.000000,0.000000,0.000000,0.222413,0.335120,0.176447,0.166068,0.000000,150.000000,133.000000,17.000000,16.000000,0.000000,0.000000,0.000000,0.000000,0.000000;
#CREDIT:;
#NOTES:
0000
0000
0000
0000
,
0000
0000
0000
0000
,
0000
0001
0000
0000
,
0000
0000
0000
0000
,
0000
1000
0000
0000
,
0000
0010
0000
0000
,
0000
0100
0000
0010
,
0000
0200
0000
0300
,
0000
0001
0000
0001
,
0000
2000
0000
3000
,
0000
1000
0000
1000
,
0000
0002
0000
0003
,
0000
1000
0000
1000
,
0000
0002
0000
0003
,
0000
0100
0000
0100
,
0000
0010
0000
0200
,
0000
0320
0000
0000
,
0000
0130
0000
0100
,
0000
0001
0100
0001
,
0000
1000
0000
0010
,
0000
1000
0010
1000
,
0000
1001
0000
0001
,
0000
0100
0000
0010
,
0000
1010
0000
1000
,
0000
0001
0000
0100
,
0000
0101
0000
0100
,
0000
0001
0100
0001
,
0000
1000
0000
0010
,
0000
1000
0100
1000
,
0000
1100
0000
0100
,
0000
0010
0000
0001
,
0000
0011
0000
0100
,
0000
0010
0000
0010
,
0010
0010
0000
0100
,
0000
0002
0000
1003
,
0000
2100
0000
3010
,
0000
0010
0000
0001
,
0000
1000
0000
0110
,
0000
0011
0000
0000
,
0000
0011
0000
0001
,
0000
1001
0000
2000
,
0000
0000
0000
3000
,
0000
0001
0000
0100
,
0000
0011
0000
1000
,
0000
0001
0000
0001
,
0000
0001
0001
0001
,
0000
1000
0000
0100
,
0000
0010
0000
0001
,
0000
0010
0000
0100
,
0000
2000
0000
3002
,
0000
1003
0000
0100
,
0000
0011
0000
0001
,
0000
1000
0000
0100
,
0000
0100
1000
0100
,
0000
1000
0000
0001
,
0000
0001
0000
0100
,
0000
0020
0000
0030
,
0000
0100
0000
0100
,
0000
0220
0000
0000
,
0000
0330
0000
0000
,
0000
0001
1000
0001
,
0000
1000
0000
1000
,
0000
0010
1000
0010
,
0000
0100
0000
0001
,
0000
1000
0001
1000
,
0000
0001
0100
0001
,
0000
1000
0000
1000
,
0000
0100
0010
0100
,
0000
1000
0000
0001
,
0000
0101
0000
0101
,
0000
0101
0000
0202
,
0000
0000
0000
0303
;

//---------------dance-single - ----------------
#NOTEDATA:;
#CHARTNAME:;
#STEPSTYPE:dance-single;
#DESCRIPTION:;
#CHARTSTYLE:;
#DIFFICULTY:Easy;
#METER:7;
#RADARVALUES:0.346964,0.446827,0.259481,0.238723,0.000000,234.000000,209.000000,25.000000,23.000000,0.000000,0.000000,0.000000,0.000000,0.000000,0.346964,0.446827,0.259481,0.238723,0.000000,234.000000,209.000000,25.000000,23.000000,0.000000,0.000000,0.000000,0.000000,0.000000;
#CREDIT:;
#NOTES:
// measure 0
0000
0000
0000
0000
,  // measure 1
0000
0000
0000
0000
,  // measure 2
0000
0001
0000
0101
,  // measure 3
0000
1010
0000
0001
,  // measure 4
1000
0010
0000
0100
,  // measure 5
0001
0010
0000
0010
,  // measure 6
0100
1000
0000
0100
,  // measure 7
0001
0100
0000
2000
,  // measure 8
0000
3001
0000
0101
,  // measure 9
0000
1000
0000
1010
,  // measure 10
0000
1000
0001
1000
,  // measure 11
0010
0100
0000
0001
,  // measure 12
0000
2000
0001
0001
,  // measure 13
0001
0001
0001
3001
,  // measure 14
0000
0200
0010
0310
,  // measure 15
0100
0010
0100
0020
,  // measure 16
0000
0130
0000
0010
,  // measure 17
0000
1000
0001
0100
,  // measure 18
0001
0101
0001
1000
,  // measure 19
0010
1010
0100
0001
,  // measure 20
1000
0010
0100
0010
,  // measure 21
0101
1001
0000
0001
,  // measure 22
0010
0100
0000
1000
,  // measure 23
0100
0010
0000
0001
,  // measure 24
0100
0101
0101
0110
,  // measure 25
0000
1001
0001
0100
,  // measure 26
0010
1000
0100
0010
,  // measure 27
0001
1001
0001
0100
,  // measure 28
0001
1000
0010
1000
,  // measure 29
1100
1100
0000
0001
,  // measure 30
0100
0001
0000
1000
,  // measure 31
0001
0100
0000
0010
,  // measure 32
0010
0100
0000
0110
,  // measure 33
1001
0110
0000
0010
,  // measure 34
1000
0010
0010
1000
,  // measure 35
0100
0210
0000
0310
,  // measure 36
0001
0001
1000
1000
,  // measure 37
0010
2000
0010
0010
,  // measure 38
0000
3001
0100
0200
,  // measure 39
0000
0310
0010
0100
,  // measure 40
0100
0110
0101
0201
,  // measure 41
0000
0302
0000
0000
,  // measure 42
0003
1100
0000
0010
,  // measure 43
0001
0010
0000
1000
,  // measure 44
0001
1000
0000
0100
,  // measure 45
0010
0001
0000
0100
,  // measure 46
1000
0100
0000
0001
,  // measure 47
0100
0100
0000
0001
,  // measure 48
1000
0020
0000
1030
,  // measure 49
1000
0200
0000
0320
,  // measure 50
0000
0031
0001
0000
,  // measure 51
0100
0010
0100
0001
,  // measure 52
1000
1100
0000
0100
,  // measure 53
1000
0100
0010
0001
,  // measure 54
0000
2000
0000
3001
,  // measure 55
0000
0001
0100
0001
,  // measure 56
0000
1000
0010
1000
,  // measure 57
0000
0002
0000
0203
,  // measure 58
0000
0320
0000
0000
,  // measure 59
0000
0130
0000
0100
,  // measure 60
0001
1000
0001
0100
,  // measure 61
0000
0020
0030
2000
,  // measure 62
3000
0001
0010
0001
,  // measure 63
0010
0100
0000
1000
,  // measure 64
1000
1100
0100
1000
,  // measure 65
0100
0010
0000
0001
,  // measure 66
0010
0001
0100
0100
,  // measure 67
0001
0100
0001
1000
,  // measure 68
0010
0010
0000
0200
,  // measure 69
0000
0302
0000
0203
,  // measure 70
0000
0302
0000
0203
,  // measure 71
0000
0000
0000
0300
;

//---------------dance-single - ----------------
#NOTEDATA:;
#CHARTNAME:;
#STEPSTYPE:dance-single;
#DESCRIPTION:;
#CHARTSTYLE:;
#DIFFICULTY:Medium;
#METER:11;
#RADARVALUES:0.548618,0.627123,0.280240,0.238723,0.015569,370.000000,343.000000,27.000000,23.000000,0.000000,0.000000,0.000000,0.000000,0.000000,0.548618,0.627123,0.280240,0.238723,0.015569,370.000000,343.000000,27.000000,23.000000,0.000000,0.000000,0.000000,0.000000,0.000000;
#CREDIT:;
#NOTES:
0000
0000
0000
0000
,
0000
0000
0000
0000
,
0000
0000
0000
0000
,
0000
0000
0000
0000
,
0000
0000
1001
0000
0001
0000
1000
0010
,
0000
0020
0000
0000
0100
0000
0130
0000
,
0001
0000
1000
0001
1000
0000
0001
0100
,
0000
0100
0002
0000
0100
0000
0100
0000
,
0103
0110
1000
0101
,
0010
0000
0110
0000
1000
0001
1000
0000
,
0001
0000
0100
0001
0100
0000
0001
0100
,
0001
0000
1000
0100
0010
0000
0001
0000
,
0100
0000
0101
0000
0001
1000
0001
0000
,
1000
0100
1000
0100
1000
0000
0001
0000
,
0100
0000
0010
0100
0010
0000
0100
0001
,
0100
0000
0010
1000
0001
1000
0002
0000
,
1003
0002
0000
0100
,
0103
0000
0010
0100
0010
0000
0100
0001
,
0010
0001
0100
0000
0001
0100
0000
0100
,
0001
0000
0000
1000
0100
1000
0100
1000
,
0100
0000
0010
0000
0010
0001
0000
0001
,
1000
0000
1100
0000
0001
0000
0100
0001
,
0100
0001
0010
0000
0010
0001
0100
0000
,
0001
1000
0001
0000
0100
0000
0101
0000
,
0101
1010
0110
1001
,
2002
0000
3003
0001
0100
0001
0100
0001
,
0010
0000
0100
0000
1000
0001
0000
1000
,
0001
0000
0000
0100
0001
0100
0010
0100
,
0001
0100
0010
0000
0100
0001
0000
1000
,
0001
1001
0001
0100
,
0010
0100
0010
0000
1000
0000
1001
0000
,
0001
0000
0100
0000
0010
0100
0010
0000
,
0100
0100
0101
0001
,
1010
2000
0000
0001
,
0001
0000
3001
0000
0100
0010
0100
0000
,
0010
1001
0000
0001
,
0100
0001
1000
0001
0100
0000
0001
1000
,
0001
0000
0010
0000
0001
0000
0010
0001
,
1000
0000
0100
0000
1000
0100
0010
0010
,
0001
0010
0001
0010
,
0100
1000
0000
0002
,
0000
0203
0000
0020
,
0330
0000
0010
0000
0100
0001
0100
0000
,
0001
1000
0001
0100
0001
1000
0000
1000
,
0010
0100
0001
0000
0011
0000
0001
1000
,
0001
0000
0100
0010
0000
0100
0000
0020
,
0000
0000
0130
0000
0101
0000
0001
0100
,
0001
0010
0001
1000
0000
0010
0000
0100
,
0010
0100
0010
0000
0010
0010
0010
0000
,
1000
0001
0200
0000
0000
0000
0310
0000
,
1000
0000
0001
0000
1001
0000
1000
0001
,
1000
0100
1000
0001
0000
0010
0000
0010
,
0001
0100
0001
0000
0100
0010
0100
0001
,
1000
0000
0020
0100
0030
0200
0000
0310
,
0000
0200
0000
0000
0301
0000
0100
0000
,
0001
0010
0100
0010
0001
0000
1000
0100
,
0100
0000
1000
0000
0010
0100
0001
0000
,
1000
0001
0001
0000
0001
0001
2000
0000
,
3000
0110
0202
0000
,
0000
0000
0303
0000
0001
0100
0000
0001
,
0000
0100
0001
0000
0100
0000
0010
0100
,
0000
0010
0000
1000
0010
0000
0100
0010
,
0100
0000
0020
0000
0130
0001
0100
0001
,
0100
0001
0100
0010
1000
0000
1000
0000
,
0010
1000
0002
0000
1003
0100
1000
0100
,
0010
0001
1000
0001
1000
0000
0100
0000
,
0010
0001
2000
0000
3001
0001
1000
0100
,
0010
0100
1000
0000
0011
0000
0001
0000
,
0010
0001
0020
0000
0031
0010
0100
1000
,
0001
1000
0001
0000
0100
0010
0200
0000
,
0310
0000
0000
0100
0000
0000
0010
0000
0000
0000
0110
0000
0000
0000
0110
0000
0000
0000
0110
0000
0000
0000
0000
0000
,
0000
0101
0000
0000
0000
0000
0000
0000
0000
0000
0000
0000
;

//---------------dance-single - ----------------
#NOTEDATA:;
#CHARTNAME:;
#STEPSTYPE:dance-single;
#DESCRIPTION:;
#CHARTSTYLE:;
#DIFFICULTY:Hard;
#METER:15;
#RADARVALUES:0.827375,0.848461,0.633135,0.197206,0.228344,558.000000,497.000000,61.000000,19.000000,0.000000,0.000000,0.000000,0.000000,0.000000,0.827375,0.848461,0.633135,0.197206,0.228344,558.000000,497.000000,61.000000,19.000000,0.000000,0.000000,0.000000,0.000000,0.000000;
#CREDIT:;
#NOTES:
0000
0000
0000
0000
,
0000
0000
0000
0000
,
0000
0000
0000
0000
,
0000
0000
0000
0000
,
0000
0000
1000
0001
0100
0000
1000
0100
,
0000
0002
0103
0010
0100
0010
0100
0001
,
1000
0100
1000
0100
0010
0001
0100
0100
,
0010
0000
1000
0000
0001
0000
0100
0001
0100
0000
0001
0100
0001
0000
0100
0010
,
0100
0000
0010
0000
0110
0000
0010
0000
1000
0000
0001
0000
0100
0000
0010
0100
,
0010
0000
0100
0001
0100
0000
0010
0000
1000
0000
0001
0000
1000
0000
0100
0010
,
0001
0000
0000
0000
0001
0000
0010
0000
0100
0000
1000
0010
0100
0000
0001
0100
,
0001
1000
0010
0100
0010
0010
0110
0000
,
0100
0000
0101
0001
1000
1100
1100
0000
,
0010
0100
1001
0100
0010
1001
1010
0000
,
0110
0000
0010
1000
0010
0100
0110
0001
,
0100
0000
0001
0100
0001
0000
1000
0000
1001
0000
0100
0000
0101
0000
0000
0000
,
1000
0000
0100
0000
0010
0001
0010
0000
0001
0010
0001
0000
2000
0000
3010
0000
,
0220
0330
0010
0100
0010
0100
0100
0001
,
0001
1000
0100
0001
0100
1000
0000
1000
,
0001
0101
0000
0001
0010
1000
0010
0001
,
0100
0100
0001
0100
0100
0001
0000
0001
,
1010
0000
0000
0000
1001
0000
0000
0000
0001
0000
0100
0001
0100
0000
0001
0000
,
0100
0000
0001
0010
0001
0000
0000
0000
1000
0000
0100
0010
0100
0000
0010
0000
,
0001
1000
0001
0000
1000
0000
0000
0000
0010
0000
0000
0000
0110
0000
0000
0000
,
0101
0001
1001
0000
0110
0010
1001
0000
,
1000
0001
0101
0100
0010
1000
0001
0001
,
0100
0010
0100
0000
0010
0100
0000
0001
,
0100
0000
0001
0100
0001
0000
0100
0000
0100
0000
0001
0000
0100
0000
0100
0000
,
0001
0010
0100
0000
1000
1100
0000
0100
,
0101
0000
1000
0001
0100
0010
0100
1000
,
0100
0000
0001
0010
1000
0010
0001
0100
,
1000
0100
0001
0010
1000
0010
0001
1000
,
0010
0000
0001
0000
0010
0000
1000
0000
0010
0000
0000
0100
0001
0000
0010
0000
,
0001
0000
1000
0100
0020
0000
0000
0000
0000
0000
0030
0000
0001
0000
0100
0000
,
0001
0000
0100
0000
0010
0000
0100
0010
0100
0000
0010
0000
0100
0000
0010
0000
,
0101
0000
0000
0000
0022
0000
0000
0000
0033
0000
0000
0000
0001
0000
1000
0010
,
1000
0000
0001
0000
0100
0000
0010
0100
0001
0000
0100
0000
0001
0000
1000
0000
,
1100
0100
1100
0000
0001
0010
0001
0100
,
0001
0000
1010
0000
1000
0010
0100
0001
,
0010
0001
1000
0010
0100
0001
0010
0001
,
0100
0000
1000
0100
0010
0000
2000
0000
,
0010
0000
0000
0000
3100
0000
0010
0000
0100
0000
0010
0000
0001
0100
0001
0100
,
0001
0100
0001
0000
0100
0000
0000
0000
0010
0000
0100
0000
0001
0000
0000
0000
,
0001
1000
0001
0101
0000
1010
1000
0010
,
0100
0010
0101
0000
0001
0010
0001
1000
,
0001
0100
0110
0110
0000
0010
1000
0001
,
0100
0000
0010
0100
0010
0000
0000
0000
0101
0000
0001
0000
1001
0000
1000
0000
,
0100
0010
0001
1001
0000
1000
0001
0100
,
0010
0000
0100
0010
0200
0000
0000
0000
0310
0000
0010
0000
1000
0000
0001
0000
,
1000
0000
0010
0100
0002
0000
0000
0000
0103
0000
0010
1000
0020
0000
0030
0000
,
1000
0000
1010
0000
0101
0001
1001
1000
,
0010
0000
0100
0000
0001
0000
0101
0000
0000
0000
0010
0000
0001
0000
0100
0001
,
0100
0001
1001
0010
0100
0010
0101
0001
,
1000
0010
0200
0310
0000
0020
0030
0100
,
0000
0100
0110
0000
0001
1000
0110
1000
,
1010
0000
0100
0010
0001
0100
0010
0100
,
0101
0001
1001
0000
0010
0100
0001
1000
,
0100
0000
0010
0000
0100
0000
1000
0000
0001
0000
0001
0000
0010
0000
0100
0010
,
0001
0110
2000
0010
,
3010
0000
0010
0000
0100
0000
0001
0000
0001
0000
0100
0010
0100
0000
0001
0010
,
0001
0100
0020
0000
1030
0010
0010
0001
,
0000
0000
0010
0000
1000
0000
0001
0000
0010
0000
0100
0000
1000
0000
0010
0100
,
0020
0000
0030
0000
0100
0000
0000
0000
0001
0000
0010
0000
0100
0000
1000
0100
,
1000
0000
0001
0000
0101
0000
0001
0000
0101
0000
0000
0000
1000
0000
0010
0100
,
0010
0000
1000
0000
0020
0000
0000
0000
0130
0000
0010
0100
0010
0000
0100
0000
,
0101
0001
1000
0001
0101
0000
0001
0010
,
0100
0000
1000
0000
0002
0000
0000
0000
0103
0000
0001
0100
0001
0000
0100
0000
,
0110
0000
0010
0000
1001
0000
1000
0000
1001
0000
0000
0000
0001
0000
0010
0100
,
0010
0000
0001
0000
0020
0000
0000
0000
0130
0000
1000
0010
0100
0000
0001
0000
,
0101
0000
0010
0000
0110
0000
0100
0000
1010
0000
0000
0000
0010
0000
0100
0001
,
0100
0000
0000
0010
0000
0100
0000
0001
0000
0101
0000
0010
,
0000
0101
0000
0000
0000
0000
0000
0000
0000
0000
0000
0000
;
