#TITLE:Always;
#SUBTITLE:;
#ARTIST:Unknown artist;
#TITLETRANSLIT:;
#SUBTITLETRANSLIT:;
#ARTISTTRANSLIT:;
#GENRE:;
#CREDIT:;
#BANNER:;
#BACKGROUND:;
#LYRICSPATH:;
#CDTITLE:;
#MUSIC:Lostwave-Hoax_-Always.ogg;
#OFFSET:-0.022000;
#SAMPLESTART:29.657000;
#SAMPLELENGTH:21.000000;
#SELECTABLE:YES;
#BPMS:0.000000=176.070999
;
#STOPS:
;
#BGCHANGES:;
#KEYSOUNDS:;
#ATTACKS:;

//---------------dance-single - ----------------
#NOTES:
     dance-single:
     :
     Hard:
     9:
     0.354783,0.493539,0.178895,0.305173,0.010523,236.000000,219.000000,17.000000,29.000000,0.000000,0.000000,0.354783,0.493539,0.178895,0.305173,0.010523,236.000000,219.000000,17.000000,29.000000,0.000000,0.000000:
// measure 0
0000
0000
0000
0000
,  // measure 1
0000
0000
0000
1100
,  // measure 2
0000
0001
0011
0000
,  // measure 3
1000
0000
0010
0000
0100
0000
0001
1000
,  // measure 4
0200
0000
0310
0000
,  // measure 5
0001
1000
0010
0210
,  // measure 6
0000
0301
1001
0000
,  // measure 7
0100
0010
1010
0000
,  // measure 8
0100
0000
0000
0000
1001
0000
0001
0100
,  // measure 9
0001
0000
1000
0100
1000
0000
0020
0000
,  // measure 10
0000
1030
0101
0001
,  // measure 11
1000
0000
0001
0000
0100
0000
0010
0100
,  // measure 12
0001
0000
1000
0020
,  // measure 13
0000
0130
0001
2000
,  // measure 14
0000
3010
1010
0000
,  // measure 15
0001
1000
0200
0300
,  // measure 16
0012
0000
0000
0000
1003
0000
0000
0010
,  // measure 17
0100
0000
0010
1000
0010
0000
0200
0000
,  // measure 18
0000
0301
0101
1000
,  // measure 19
0001
0000
0000
0000
1000
0000
0010
0100
,  // measure 20
0002
0000
0000
0000
1003
0000
0100
0010
,  // measure 21
0001
0010
0100
2000
,  // measure 22
0000
3001
0101
0000
,  // measure 23
0010
0010
0100
0000
,  // measure 24
2100
0000
0000
0000
3001
0000
0000
0100
,  // measure 25
0010
1000
0001
0100
,  // measure 26
1001
0000
0001
1000
0000
1000
0001
0000
,  // measure 27
0100
0000
0010
0100
0010
0000
0100
0000
,  // measure 28
0100
0010
0000
0010
1000
0000
0001
0000
,  // measure 29
0100
0000
0000
0010
0000
0000
1000
0000
,  // measure 30
0001
0000
0010
0001
0010
0000
0001
1000
,  // measure 31
0001
0000
1000
0100
0010
0000
0001
0000
,  // measure 32
2001
0000
3010
0100
,  // measure 33
0001
0000
0000
0001
0000
0000
1000
0000
,  // measure 34
2000
0000
3010
0100
,  // measure 35
0001
0000
1000
0100
1000
0001
0000
0001
,  // measure 36
0100
0000
0010
0000
1000
0000
0001
0100
,  // measure 37
0001
0000
1000
0001
0100
0010
0000
0010
,  // measure 38
1000
0000
0001
0000
0101
0000
1000
0010
,  // measure 39
0100
0000
0000
0000
0001
0000
0000
0000
1000
0000
0000
0000
0010
0000
0000
0100
0000
0000
0001
0000
0000
0010
0000
0000
,  // measure 40
0200
0000
0000
1300
,  // measure 41
0100
0000
0100
0010
,  // measure 42
0002
0000
1003
0010
,  // measure 43
0100
0010
0000
0010
,  // measure 44
2000
0000
3001
0100
,  // measure 45
0010
0000
0010
1000
,  // measure 46
0002
0000
0100
0000
0103
0000
0000
0010
,  // measure 47
0000
0000
1000
0000
0001
0010
0001
0000
,  // measure 48
2001
0000
0000
0010
,  // measure 49
3001
0000
0100
0001
,  // measure 50
0200
0000
0000
0010
,  // measure 51
0301
0000
0001
1000
,  // measure 52
0020
0000
0000
1000
,  // measure 53
0130
0000
0001
0010
,  // measure 54
0200
0000
0000
1000
,  // measure 55
0310
0001
0001
0000
,  // measure 56
2100
0000
0000
0001
,  // measure 57
3002
0000
0000
0100
,  // measure 58
0203
0000
0000
0010
,  // measure 59
0320
0000
0000
1000
,  // measure 60
2030
0000
0000
0001
,  // measure 61
3002
0000
0000
0103
,  // measure 62
0010
0000
1000
0000
1000
0000
0001
0100
,  // measure 63
0001
0000
1000
0010
0100
0001
0100
0000
,  // measure 64
0002
0020
0000
0000
,  // measure 65
0000
0000
0000
0000
,  // measure 66
0003
0000
0000
0000
,  // measure 67
0030
0000
0000
0000
;
