#TITLE:Always On My Mind;
#SUBTITLE:;
#ARTIST:DJ Tatana feat. Jael;
#TITLETRANSLIT:;
#SUBTITLETRANSLIT:;
#ARTISTTRANSLIT:;
#GENRE:;
#CREDIT:;
#BANNER:;
#BACKGROUND:;
#LYRICSPATH:;
#CDTITLE:;
#MUSIC:DJ-Tatana-feat.-Jaël-Always-On-My-Mind.ogg;
#OFFSET:-0.316000;
#SAMPLESTART:71.584000;
#SAMPLELENGTH:17.900000;
#SELECTABLE:YES;
#BPMS:0.000000=138.000000
;
#STOPS:
;
#BGCHANGES:;
#KEYSOUNDS:;
#ATTACKS:;

//---------------dance-single - ----------------
#NOTES:
     dance-single:
     :
     Beginner:
     2:
     0.057920,0.111711,0.017253,0.060384,0.000000,47.000000,45.000000,2.000000,7.000000,0.000000,0.000000,0.057920,0.111711,0.017253,0.060384,0.000000,47.000000,45.000000,2.000000,7.000000,0.000000,0.000000:
// measure 0
0000
0000
0000
0000
,  // measure 1
0000
0000
0000
0000
,  // measure 2
0000
0000
0000
0000
,  // measure 3
0000
0000
0000
0000
,  // measure 4
0000
0000
0000
0000
,  // measure 5
0100
0000
0000
0000
,  // measure 6
0000
0000
0000
0000
,  // measure 7
0100
0000
0000
0000
,  // measure 8
0000
0000
0000
0000
,  // measure 9
0001
0000
0000
0000
,  // measure 10
1000
0000
0000
0000
,  // measure 11
0001
0000
0000
0000
,  // measure 12
0000
0000
0000
0000
,  // measure 13
0100
0000
0000
0000
,  // measure 14
0010
0000
0000
0000
,  // measure 15
1000
0000
0000
0000
,  // measure 16
0000
0000
0000
0000
,  // measure 17
0001
0000
0000
0000
,  // measure 18
1000
0000
0000
0000
,  // measure 19
0001
0000
0000
0000
,  // measure 20
0000
0000
0000
0000
,  // measure 21
1000
0000
0000
0000
,  // measure 22
0010
0000
0000
0000
,  // measure 23
0100
0000
0000
0000
,  // measure 24
0000
0000
0000
0000
,  // measure 25
0001
0000
0000
0000
,  // measure 26
1000
0000
0000
0000
,  // measure 27
0001
0000
0000
0000
,  // measure 28
1000
0000
0000
0000
,  // measure 29
0002
0000
0000
0000
,  // measure 30
0003
0000
0000
0000
,  // measure 31
1000
0000
0000
0000
,  // measure 32
0001
0000
0000
0000
,  // measure 33
1000
0000
0000
0000
,  // measure 34
0100
0000
0000
0000
,  // measure 35
0010
0000
0000
0000
,  // measure 36
0001
0000
0000
0000
,  // measure 37
2000
0000
0000
0000
,  // measure 38
3000
0000
0000
0000
,  // measure 39
0001
0000
0000
0000
,  // measure 40
0100
0000
0000
0000
,  // measure 41
0101
0000
0000
0000
,  // measure 42
0001
0000
0000
0000
,  // measure 43
2000
0000
0000
3000
,  // measure 44
0000
0000
0000
0000
,  // measure 45
1000
0000
0000
0000
,  // measure 46
0001
0000
0000
0000
,  // measure 47
0100
0000
0000
0000
,  // measure 48
0100
0000
0000
0000
,  // measure 49
1001
0000
0000
0000
,  // measure 50
0001
0000
0000
0000
,  // measure 51
0200
0000
0000
0000
,  // measure 52
0300
0000
0000
0000
,  // measure 53
0001
0000
0000
0000
,  // measure 54
0100
0000
0000
0000
,  // measure 55
0001
0000
0000
0000
,  // measure 56
1000
0000
0000
0000
,  // measure 57
0002
0000
0000
0000
,  // measure 58
0000
0000
0000
0003
,  // measure 59
0000
0000
0000
0000
,  // measure 60
0000
0000
0000
0000
,  // measure 61
2000
0000
0000
0000
,  // measure 62
0000
0000
0000
3000
,  // measure 63
0000
0002
0000
0000
,  // measure 64
0000
0000
0000
0003
;

//---------------dance-single - ----------------
#NOTES:
     dance-single:
     :
     Easy:
     3:
     0.125698,0.169508,0.043132,0.112142,0.000000,102.000000,97.000000,5.000000,13.000000,0.000000,0.000000,0.125698,0.169508,0.043132,0.112142,0.000000,102.000000,97.000000,5.000000,13.000000,0.000000,0.000000:
0000
0000
0000
0000
,
0000
0000
0000
0000
,
0000
0000
0000
0000
,
0000
0000
0000
0000
,
0000
0000
0000
0000
,
0100
0000
0001
0000
,
1000
0000
1000
0000
,
0100
0000
0100
0000
,
0010
0000
0010
0000
,
0001
0000
0100
0000
,
1000
0000
0100
0000
,
0001
0000
0000
0000
,
0010
0000
0000
0000
,
0100
0000
1000
0000
,
0010
0000
0001
0000
,
1000
0000
0100
0000
,
0001
0000
1000
0000
,
0001
0000
1000
0000
,
1000
0000
0010
0000
,
0001
0000
0000
0000
,
0010
0000
0000
0000
,
1000
0000
0100
0000
,
0010
0000
0001
0000
,
0100
0000
0000
0000
,
1000
0000
0000
0000
,
0001
0000
0001
0000
,
1000
0000
1000
0000
,
0001
0000
0010
0000
,
0100
0000
0010
0000
,
0002
0000
0000
0000
,
1003
0000
0001
0000
,
1000
0000
0100
0000
,
0001
0000
0000
0000
,
1000
0000
0100
0000
,
0010
0000
0001
0000
,
0010
0000
0100
0000
,
1000
0000
0010
0000
,
2000
0000
0000
0000
,
3001
0000
1000
0000
,
0001
0000
0100
0000
,
0010
0000
0000
0000
,
0201
0000
0000
0000
,
0301
0000
0001
0000
,
2010
0000
0000
0000
,
3010
0000
0100
0000
,
1002
0000
0000
0000
,
1003
0000
0010
0000
,
0100
0000
0001
0000
,
0100
0000
1000
0000
,
1002
0000
0000
0000
,
1003
0000
0010
0000
,
2010
0000
0000
0000
,
3010
0000
0100
0000
,
0001
0000
1000
0000
,
0100
0000
0010
0000
,
0001
0000
0010
0000
,
0100
0000
1000
0000
,
0002
0000
0000
0000
,
0203
0000
0000
0000
,
0320
0000
0000
0000
,
1030
0000
0001
0000
,
2000
0000
0000
0000
,
3002
0000
0000
0000
,
0003
2000
0000
0000
,
0000
0000
0000
0000
,
0000
0000
3000
0000
;

//---------------dance-single - ----------------
#NOTES:
     dance-single:
     :
     Medium:
     7:
     0.248932,0.339015,0.103516,0.086263,0.000000,202.000000,190.000000,12.000000,10.000000,0.000000,0.000000,0.248932,0.339015,0.103516,0.086263,0.000000,202.000000,190.000000,12.000000,10.000000,0.000000,0.000000:
0000
0000
0000
0000
,
0000
0000
0000
0000
,
0000
0000
0000
0000
,
0000
0000
0000
0000
,
0000
0000
0000
0000
,
0100
0000
0001
0000
,
1000
0000
0000
0000
,
1000
0000
0100
0000
,
0010
0000
0001
0000
,
1000
0010
1000
0000
,
0001
0100
0001
0000
,
1000
1000
0100
0100
,
0010
0010
0001
0000
,
0001
1000
0001
0000
,
1000
0010
0100
0000
,
0001
0001
0010
0010
,
0100
0100
1000
0000
,
1000
0001
0100
0000
,
0100
0001
0010
0000
,
1000
0100
1000
0100
,
0010
0001
0010
0000
,
0001
1000
0001
0000
,
0100
0010
0100
0000
,
0001
0001
1000
1000
,
0010
0100
0001
0000
,
1001
0001
0100
0010
,
1000
0001
0001
0000
,
1000
0100
0001
0100
,
1000
0001
0010
0010
,
0001
1000
0001
0100
,
0001
1000
0001
0100
,
0010
0010
0010
1000
,
0001
0001
0201
0000
,
0301
0010
0001
1000
,
0100
0001
0100
0000
,
1000
0010
0010
0100
,
0001
1000
0010
0100
,
0001
0000
1000
0001
1000
0000
0001
0000
,
0101
0001
0100
0010
,
1000
0001
0100
0010
,
1001
0110
2002
3003
,
1001
1000
0100
0010
,
0001
0000
0001
0010
,
0100
1000
0001
0101
,
0001
1001
0001
1000
,
0100
0010
0001
1000
,
0010
0110
0001
0000
,
1000
0100
0010
0100
,
0010
0010
0100
0001
,
2000
0001
3001
0100
,
0001
0010
0001
0100
,
0002
1000
1003
0010
,
0100
0001
1000
0000
0010
0000
0010
0000
,
0100
0000
0001
0000
1000
0010
0100
0000
,
0001
0000
0010
0000
0100
1000
0001
0000
,
1000
1000
0001
0001
,
0100
0010
0110
1000
,
1002
0000
0000
0000
,
0003
0000
0000
0000
,
2000
0000
0000
0000
,
3020
0000
0000
0000
,
0230
0000
0000
0000
,
0302
0000
0000
0000
,
0000
0000
0000
0000
,
0000
0000
0000
0000
,
0000
0000
0003
0000
;

//---------------dance-single - ----------------
#NOTES:
     dance-single:
     :
     Hard:
     8:
     0.283437,0.367266,0.051758,0.215659,0.000000,230.000000,224.000000,6.000000,25.000000,0.000000,0.000000,0.283437,0.367266,0.051758,0.215659,0.000000,230.000000,224.000000,6.000000,25.000000,0.000000,0.000000:
0000
0000
0000
0000
,
0000
0000
0000
0000
,
0000
0000
0000
0000
,
0000
0000
0000
0000
,
0000
0000
0000
0000
,
0100
0010
1000
0010
0100
0000
0001
0000
,
1000
0001
1000
0000
0001
0100
0001
0000
,
1000
0100
1000
0100
0010
0000
0001
0000
,
0000
0100
0000
0000
0010
0000
1000
0000
,
0001
0000
0100
0010
0000
1000
0000
0001
,
0000
0000
0001
1000
0000
0010
0000
0200
,
0000
0000
0301
0001
,
1000
0000
1000
0000
0010
0000
0010
0100
,
0001
1000
0000
0001
0000
1000
0000
0020
,
0000
0000
0000
0030
0000
0000
0100
0000
,
0020
0000
0000
2030
0000
0000
3002
0000
,
1000
0000
0103
0000
,
0010
0100
0000
0001
0000
1000
0000
0010
,
0000
0000
0000
0100
0001
0000
0100
0002
,
0000
1003
0010
0100
,
0001
0000
1000
0100
1000
0000
0001
0010
,
0100
0010
0000
0100
0000
1000
0000
0001
,
0000
0000
0000
0100
0010
0100
0010
1000
,
0001
1000
0010
0100
,
0002
1000
1000
1003
,
1001
0000
0100
0010
0000
1000
0000
0001
,
0000
0100
0000
0010
0000
1000
0001
0000
,
1000
0000
0100
1000
0000
0001
0000
0010
,
0000
0100
0000
0010
0000
0001
0000
2000
,
0000
0000
0010
0000
3010
0000
0100
0001
,
0100
0000
0010
1000
0010
0000
0000
0100
,
0001
0000
1000
0010
0000
0100
0000
0001
,
0000
0000
1000
0000
0001
0100
0002
0000
,
1003
0000
0000
0001
0000
1000
0000
0010
,
0000
0100
0000
0001
0000
1000
0010
0000
,
0100
0000
0010
0100
0000
0001
0000
0001
,
0000
1000
0000
0001
0000
1000
0000
0020
,
0000
0000
0000
0230
0000
0000
0000
0000
,
0301
0000
1000
0001
0100
0000
0010
0000
,
1000
0000
0001
0010
0000
0001
0000
0100
,
0000
0000
0220
0330
,
1001
0000
0001
0100
0000
0010
0000
1000
,
0000
0000
0001
0100
0000
0010
0000
2000
,
0000
0000
0001
0000
3001
0000
0100
0010
,
0100
0000
0001
1000
0001
0000
1000
0100
,
0010
0001
0000
1000
0000
0001
0000
0100
,
0000
0010
0100
0001
,
1001
0000
0000
1001
0000
0000
2002
0000
,
0000
3003
0001
1000
,
0010
0100
0000
0001
0000
1000
0000
0001
,
0000
0000
0000
1000
0001
0000
0001
0200
,
0000
0000
0000
0310
0000
0010
0000
1000
,
0000
0001
0000
2000
0000
0000
0000
3001
,
0100
0001
0000
1000
0000
0010
0000
0100
,
0000
0000
0000
0010
0100
0010
0100
0001
,
1000
0000
0001
1000
0000
0001
0000
1000
,
0000
0001
0000
0002
0000
0000
1000
0000
,
2003
0000
0000
0000
,
3010
0000
0000
0100
0000
0000
0001
0000
,
2000
0000
0000
0000
,
3020
0000
0000
0100
,
0230
0000
0000
0000
,
0302
0000
0000
0000
,
0200
0003
0000
0000
,
0000
0000
0000
0000
,
0000
0000
0300
0000
;
