#TITLE:Akai chou (Red Butterfly);
#SUBTITLE:;
#ARTIST:Megumi Oka;
#TITLETRANSLIT:;
#SUBTITLETRANSLIT:;
#ARTISTTRANSLIT:;
#GENRE:;
#CREDIT:from pop n music 9 / 7 CS;
#BANNER:CS7_AUTUMN.png;
#BACKGROUND:;
#LYRICSPATH:;
#CDTITLE:Popn_music_9_logo_small.png;
#MUSIC:Megumi Oka - Akai chou.ogg;
#OFFSET:-0.523000;
#SAMPLESTART:67.382004;
#SAMPLELENGTH:15.000000;
#SELECTABLE:YES;
#BPMS:0.000000=105.000000
;
#STOPS:
;
#BGCHANGES:;
#KEYSOUNDS:;
#ATTACKS:;

//---------------dance-single - ----------------
#NOTES:
     dance-single:
     :
     Beginner:
     2:
     0.081150,0.125444,0.010519,0.084156,0.000000,54.000000,53.000000,1.000000,8.000000,0.000000,0.000000,0.081150,0.125444,0.010519,0.084156,0.000000,54.000000,53.000000,1.000000,8.000000,0.000000,0.000000:
0000
0000
0000
0000
,
0000
0000
0001
0000
,
0000
1000
0000
0000
,
0001
0000
0000
1000
,
0000
0000
0000
1000
,
0001
0000
0001
2000
,
0000
3001
0000
0100
,
0000
0000
0000
0010
,
0000
0100
0000
0001
,
0000
1000
0000
0001
,
0000
0001
0000
1000
,
0000
0000
0000
0001
,
0000
1000
0000
1000
,
0000
0001
0000
0200
,
0000
0300
0000
0020
,
0000
0030
0000
0200
,
0000
0300
0000
0001
,
0000
0000
0000
2000
,
0000
3000
0000
0001
,
0000
0001
0000
0001
,
0000
0000
2000
3000
,
0000
0000
0000
1000
,
0000
0001
0000
1000
,
0000
0000
0000
0001
,
0000
0001
0000
0001
,
0000
0000
0000
1000
,
0000
0000
0000
0001
,
0000
0000
0000
0100
,
0000
0000
0000
0010
,
0000
0000
0000
0200
,
0000
0300
0000
0001
,
0000
0000
0000
1000
,
0000
0001
0000
0100
,
0000
0000
0000
0001
,
0000
0001
0000
1000
,
0000
0000
0000
1001
,
0000
0000
0000
2000
,
0000
3000
0000
0001
,
0000
0000
0000
1000
,
0000
0000
0000
0001
;

//---------------dance-single - ----------------
#NOTES:
     dance-single:
     :
     Easy:
     3:
     0.157792,0.227089,0.105195,0.189350,0.000000,105.000000,95.000000,10.000000,18.000000,0.000000,0.000000,0.157792,0.227089,0.105195,0.189350,0.000000,105.000000,95.000000,10.000000,18.000000,0.000000,0.000000:
0000
0000
0000
0001
,
0000
0000
0001
1000
,
0000
1000
0001
0000
,
0001
0100
0010
1000
,
0000
0000
0110
0000
,
1001
1001
1001
2002
,
0000
3003
0000
0100
,
0000
0010
0100
0010
,
0000
1001
0000
0001
,
0010
0001
0000
0002
,
0003
1000
0000
1000
,
0000
0001
0000
2000
,
3000
0001
0000
0010
,
0010
0001
0000
0200
,
0000
0310
0000
0020
,
0000
1030
0000
0002
,
0003
1000
0001
2000
,
3000
0000
1001
2002
,
0000
3003
0000
0001
,
0000
1000
0100
0010
,
0000
0001
1000
0001
,
0000
0220
0330
0100
,
0010
0010
0000
1000
,
0100
0010
0000
0002
,
0003
1000
0000
0002
,
0003
0100
0000
1000
,
0001
1000
0000
0001
,
0100
0001
0000
0100
,
0010
0100
0000
0200
,
0300
0010
0010
0020
,
0000
0030
0000
0100
,
0000
0001
1000
0001
,
0000
1000
0100
0100
,
0000
1000
0000
0001
,
0100
0001
0000
1000
,
0010
1000
0000
1000
,
0010
1000
0000
0010
,
1000
0010
0000
0220
,
0000
0330
0000
1000
,
0000
1000
0000
0000
;

//---------------dance-single - ----------------
#NOTES:
     dance-single:
     :
     Medium:
     7:
     0.284025,0.311639,0.126233,0.231428,0.010519,189.000000,177.000000,12.000000,22.000000,0.000000,0.000000,0.284025,0.311639,0.126233,0.231428,0.010519,189.000000,177.000000,12.000000,22.000000,0.000000,0.000000:
0000
0000
0000
1000
0000
0000
0001
0100
,
0001
0100
0000
1000
0001
1000
0001
0000
,
0000
1000
0001
1000
0001
0000
0010
1000
,
0010
1000
0000
0100
0001
0100
0001
0000
,
0100
0001
0100
0010
0100
0000
0200
0300
,
0110
1001
1001
2000
,
0000
0000
3001
0000
0100
0010
0100
0000
,
0000
0010
0100
0000
0100
0010
0001
0000
,
0000
0000
1001
0000
0000
1000
0001
0000
,
0100
0001
0100
0000
0011
0000
0002
0000
,
1003
1000
0001
1000
,
0010
0100
0001
0000
1000
0010
1000
0000
,
0000
0100
0001
0000
1000
0010
1000
0000
,
0100
0001
0100
0020
,
0000
1030
0000
0200
,
0000
0301
1000
0002
,
0003
0000
1000
0010
0100
0010
2000
0000
,
3000
0000
0000
0001
0000
0000
0000
0000
0001
0000
0010
0000
0002
0000
0000
0000
,
0000
0103
0010
0100
,
0010
0000
0000
0100
0000
0000
0000
0000
0100
0000
0010
0000
0200
0000
0000
0000
,
0300
0001
0000
0000
2000
0000
3002
0000
,
0000
0000
0203
0000
0000
0000
0310
0100
,
0010
0100
0010
0000
0000
0000
1000
0100
,
1000
0100
0010
0000
0000
0000
0001
0010
,
0001
0000
1000
0001
1000
0000
0002
0000
,
0103
0000
0100
0010
0100
0000
0001
0000
,
1001
0000
1000
0000
1001
0000
0001
0010
,
0001
0000
0001
0100
0001
0000
0100
0000
,
0110
0020
0230
0320
,
0030
0110
0110
0220
,
0300
0000
0130
0000
0001
0000
0100
0001
,
0010
0000
0001
0000
1000
0000
0100
0010
,
0001
0000
1000
0100
0010
0000
0100
0000
,
0110
0000
1000
0000
0010
0001
0010
0000
,
0100
0000
1000
0001
1000
0000
0001
0010
,
0010
0000
1000
0000
0001
0000
1000
0010
,
0010
0000
1000
0001
0200
0300
0020
0000
,
2030
3010
0100
0200
,
0000
0310
0010
1000
,
0001
0001
1000
0000
;

//---------------dance-single - ----------------
#NOTES:
     dance-single:
     :
     Hard:
     11:
     0.494414,0.522685,0.189350,0.241947,0.378700,329.000000,311.000000,18.000000,23.000000,0.000000,0.000000,0.494414,0.522685,0.189350,0.241947,0.378700,329.000000,311.000000,18.000000,23.000000,0.000000,0.000000:
// measure 0
0000
0000
0000
0000
0000
0000
1000
0000
0000
0001
0100
0000
0001
0000
0100
0000
,  // measure 1
0001
0100
0001
0000
1000
0000
0001
0100
0001
0000
0100
0000
0001
0000
0000
0100
,  // measure 2
0001
0000
1000
0000
1001
0000
0100
0000
0110
0000
0010
0000
0010
0100
0001
0000
,  // measure 3
0010
0000
1000
0000
1001
0000
0100
0000
0001
0010
0100
0000
1000
0000
0110
0000
,  // measure 4
0101
0000
0001
0100
0001
0000
0010
0000
0100
0000
1000
0000
0200
0000
0300
0000
,  // measure 5
0110
0000
0000
0000
1000
0001
1000
0001
1000
0000
0001
0000
2000
0000
0000
0000
,  // measure 6
0000
0000
3001
0000
0100
0010
0100
0000
,  // measure 7
0000
0010
0100
0000
0010
0000
0100
0000
0110
0000
0010
0000
2000
0000
3000
0002
,  // measure 8
0000
0003
0000
0000
1001
0000
0000
0000
0000
0000
1000
0000
0001
0000
1000
0000
,  // measure 9
0100
0010
0000
0200
0000
0300
1000
0000
0001
0000
0100
0000
0001
0000
0000
0000
,  // measure 10
1000
0000
0010
0000
1000
0000
0100
0000
0010
0000
0001
1000
0000
0000
0000
0000
,  // measure 11
0001
0000
0100
0001
0100
0000
0010
0000
1000
0100
1000
0100
1000
0000
0000
0000
,  // measure 12
0000
1000
0100
0010
0000
0000
0000
0000
0001
0000
0010
0000
1001
0000
0100
0000
,  // measure 13
0110
0000
0010
0100
0000
0000
0100
0000
0001
0000
1000
0000
0020
0000
0000
0000
,  // measure 14
0130
0000
0100
0100
0000
0000
0001
0000
1000
0000
0100
0000
0020
0000
0001
0000
,  // measure 15
0030
0000
0001
1000
0002
0000
0003
0000
1000
0000
0100
0000
0020
0000
0000
0032
,  // measure 16
0000
0000
0003
0000
1000
0010
0000
0010
0100
0000
0010
1000
0002
0000
0003
0000
,  // measure 17
1000
0000
0000
0001
0000
0000
0100
0000
0001
0000
0100
0001
0200
0000
0000
0000
,  // measure 18
0301
0000
0000
0010
0000
0000
1000
0000
0001
0000
0100
0000
1000
0000
0000
0000
,  // measure 19
0010
0100
0100
0100
0010
1000
0200
0000
,  // measure 20
0310
0000
0002
0000
0000
0000
1003
0000
0020
0000
0000
0000
0030
0000
0100
0001
,  // measure 21
0100
0001
0100
0000
0001
0010
0001
0010
0001
0100
0010
0100
0010
0000
0000
0000
,  // measure 22
0010
0000
0010
0100
0010
0000
1000
0000
,  // measure 23
1001
0000
0100
0000
0010
0100
0010
0000
0100
0000
0001
0000
1000
0000
0010
0100
,  // measure 24
0000
0010
1000
0001
2001
0000
3002
0000
,  // measure 25
0203
0000
0300
0000
0100
0000
0010
0000
1000
0001
1000
0000
0001
0000
1000
0100
,  // measure 26
0000
0010
0001
0000
1000
0100
0000
1000
0100
0000
0010
0000
0001
0000
0010
0100
,  // measure 27
0000
0100
1000
0000
0001
0010
0000
0001
0010
0000
0000
0000
0100
0000
0010
0000
,  // measure 28
0000
0100
0020
0000
0031
0001
2000
0010
,  // measure 29
3010
0000
0000
0000
0110
0000
0000
0000
0100
0010
0100
0000
0020
0000
0000
0000
,  // measure 30
0000
0000
0130
0100
0000
0000
0000
0000
0001
0000
1000
0001
1000
0000
0001
0010
,  // measure 31
0001
1000
0001
0000
1000
0000
0100
0000
0110
0000
0010
0000
0001
0000
0000
1000
,  // measure 32
0000
0000
0010
0000
1000
0100
0000
0010
0001
0000
1000
0000
0100
0000
0010
0000
,  // measure 33
0100
1000
0000
1100
0000
0000
0100
0000
0010
0000
0001
0000
0010
0001
0000
0000
,  // measure 34
0100
0000
0010
0000
1001
0000
0001
0000
1000
0000
0100
0010
0001
0000
1000
0000
,  // measure 35
0010
0000
1000
0010
0100
0000
0001
0000
1000
0100
1000
0100
1000
0000
0010
0000
,  // measure 36
0100
0010
0100
0010
1000
0000
0000
0000
0001
1000
0001
0000
1000
0000
1001
0000
,  // measure 37
1001
0000
0001
1000
0000
0000
0001
0000
0100
0010
0100
0000
0020
0000
0000
0000
,  // measure 38
0030
0000
0000
0000
1000
0001
1000
0001
0100
0000
0001
0000
1000
0001
1000
0001
,  // measure 39
0100
0000
0010
0000
0100
0001
0100
0001
0010
0000
0200
0000
0300
0000
0000
0000
;
