#TITLE:About Us (Delor Mix);
#SUBTITLE:;
#ARTIST:Simon Le Grec;
#TITLETRANSLIT:;
#SUBTITLETRANSLIT:;
#ARTISTTRANSLIT:;
#GENRE:;
#CREDIT:;
#BANNER:;
#BACKGROUND:;
#LYRICSPATH:;
#CDTITLE:;
#MUSIC:About-Us-Delor-Mix Simon-Le-Grec.ogg;
#OFFSET:-0.461000;
#SAMPLESTART:89.047997;
#SAMPLELENGTH:16.000000;
#SELECTABLE:YES;
#DISPLAYBPM:130.000000;
#BPMS:0.000000=130.000000
,255.250000=133.000000
,255.500000=132.000000
,256.500000=130.000000
;
#STOPS:
;
#BGCHANGES:;
#KEYSOUNDS:;
#ATTACKS:;

//---------------dance-single - ----------------
#NOTES:
     dance-single:
     :
     Beginner:
     1:
     0.037298,0.073850,0.000000,0.067137,0.000000,35.000000,35.000000,0.000000,9.000000,0.000000,0.000000,0.037298,0.073850,0.000000,0.067137,0.000000,35.000000,35.000000,0.000000,9.000000,0.000000,0.000000:
0000
0000
0000
0000
,
0000
0000
0000
0000
,
0000
0000
0000
0000
,
0000
0000
0000
0000
,
0000
0000
0000
0000
,
0000
0000
0000
0000
,
0000
0000
0000
0000
,
0000
0000
0000
0000
,
0100
0000
0000
0000
,
0000
0000
0000
0000
,
0001
0000
0000
0000
,
0000
0000
0000
0000
,
1000
0000
0000
0000
,
0000
0000
0000
0000
,
0001
0000
0000
0000
,
0000
0000
0000
0000
,
0100
0000
0000
0000
,
0100
0000
0000
0000
,
0100
0000
0000
0000
,
0000
0000
0000
0000
,
0001
0000
0000
0000
,
0001
0000
0000
0000
,
0001
0000
0000
0000
,
0000
0000
0000
0000
,
1000
0000
0000
0000
,
0000
0000
0000
0000
,
0001
0000
0000
0000
,
0000
0000
0000
0000
,
0100
0000
0000
0000
,
0000
0000
0000
0000
,
0010
0000
0000
0000
,
0000
0000
0000
0000
,
2000
0000
0000
0000
,
3000
0000
0000
0000
,
0002
0000
0000
0000
,
0003
0000
0000
0000
,
1000
0000
0000
0000
,
0000
0000
0000
0000
,
0010
0000
0000
0000
,
0000
0000
0000
0000
,
0200
0000
0000
0000
,
0300
0000
0000
0000
,
0020
0000
0000
0000
,
0030
0000
0000
0000
,
1000
0000
0000
0000
,
0000
0000
0000
0000
,
0001
0000
0000
0000
,
0000
0000
0000
0000
,
0001
0000
0000
0000
,
1000
0000
0000
0000
,
0002
0000
0000
0000
,
0003
0000
0000
0000
,
1000
0000
0000
0000
,
0001
0000
0000
0000
,
2000
0000
0000
0000
,
3000
0000
0000
0000
,
0001
0000
0000
0000
,
0001
0000
0000
0000
,
0002
0000
0000
0000
,
0003
0000
0000
0000
,
1000
0000
0000
0000
,
1000
0000
0000
0000
,
2000
0000
0000
0000
,
3000
0000
0000
0000
,
0002
0000
0000
0000
,
0000
0000
0000
0000
,
0003
0000
0000
0000
;

//---------------dance-single - ----------------
#NOTES:
     dance-single:
     :
     Easy:
     4:
     0.123617,0.180150,0.156652,0.074596,0.000000,116.000000,95.000000,21.000000,10.000000,0.000000,0.000000,0.123617,0.180150,0.156652,0.074596,0.000000,116.000000,95.000000,21.000000,10.000000,0.000000,0.000000:
0000
0000
0000
0000
,
0000
0000
0000
0000
,
0000
0000
0000
0000
,
0000
0000
0000
0000
,
0000
0000
0000
0000
,
0000
0000
0000
0000
,
0000
0000
0000
0000
,
0000
0000
0000
0000
,
0110
0000
1001
0000
,
0000
0000
1001
0000
,
0100
0000
0110
0000
,
0000
0000
0000
0000
,
0110
0000
1001
0000
,
0000
0000
1001
0000
,
0001
0000
0101
0000
,
0000
0000
0000
0000
,
0200
0000
0000
0000
,
0301
0000
0001
0000
,
2000
0000
0001
0000
,
3000
0000
0000
0000
,
0001
0000
0101
0000
,
0000
0000
0100
0000
,
0001
0000
1001
0000
,
0000
0000
0000
0000
,
1000
0001
0100
0000
,
0000
0000
0110
0000
,
0001
0000
1001
0000
,
0000
0000
0000
0000
,
0100
0001
1000
0000
,
0000
0000
0101
0000
,
0100
0000
1001
0000
,
0000
0000
0000
0000
,
2000
0000
0000
0000
,
3001
0000
1001
0000
,
0002
0000
0100
0000
,
0003
0000
0100
0000
,
1001
0000
1001
0000
,
0001
0000
0100
0000
,
0020
0000
1000
0000
,
0030
0000
1000
0000
,
0020
0000
1000
0000
,
0030
0000
1001
0000
,
0002
0000
0100
0000
,
0003
0000
1000
0000
,
0010
0100
0001
0000
,
1000
0000
0001
0000
,
0002
0000
1000
0000
,
0003
0000
1001
0000
,
0001
0000
0100
0000
,
1000
0000
0100
0000
,
0001
0000
0010
0000
,
0100
0000
0010
0000
,
0001
0000
1000
0000
,
0100
0000
1000
0000
,
0001
0000
0010
0000
,
1000
0000
0010
0000
,
0001
0000
1000
0000
,
1000
0000
1001
0000
,
0001
0000
1001
0000
,
1000
0000
0010
0000
,
1000
0100
1000
0000
,
0001
0000
0010
0000
,
0100
0000
1000
0000
,
0001
0100
0001
0000
,
0002
0000
0000
0000
,
0000
0000
0000
0000
,
0203
0000
0000
0000
,
0000
0000
0000
0000
,
0000
0000
0000
0000
,
0300
0000
0000
0000
;

//---------------dance-single - ----------------
#NOTES:
     dance-single:
     :
     Medium:
     6:
     0.191819,0.257357,0.089515,0.208870,0.000000,180.000000,168.000000,12.000000,28.000000,0.000000,0.000000,0.191819,0.257357,0.089515,0.208870,0.000000,180.000000,168.000000,12.000000,28.000000,0.000000,0.000000:
0000
0000
0000
0000
,
0000
0000
0000
0000
,
0000
0000
0000
0000
,
0000
0000
0000
0000
,
0000
0000
0000
0000
,
0000
0000
0000
0000
,
0000
0000
0000
0000
,
0000
0000
0000
0000
,
1000
0000
0001
0000
0100
0000
0000
0001
,
0000
1000
0000
0000
0001
0000
0000
0000
,
1000
0100
0011
0000
,
0010
0100
1000
0000
,
0001
0000
0100
0000
0010
0000
0000
1000
,
0000
0001
0000
0000
0100
0000
0000
0000
,
0010
1000
0001
0000
,
0010
0001
1000
0000
,
0001
0100
0002
0000
0000
0000
0003
0000
,
2000
0000
3010
0000
,
0100
0000
0101
0000
,
0000
0000
1010
0000
,
0001
1000
0001
0000
1000
0000
0000
0001
,
0000
0100
0000
0000
0101
0000
0000
0000
,
0001
1000
0100
0000
,
0100
1000
0010
0000
,
0100
0001
0100
0001
0000
0200
0000
0000
,
0000
0300
0002
0000
,
1003
0000
0110
0000
,
0000
0000
1001
0000
,
1000
0010
1000
0000
0001
0000
0000
0100
,
0000
0010
0000
0000
1000
0000
0000
0000
,
0001
1000
0010
0000
,
0100
0001
1000
0000
,
2001
0000
0000
0000
3001
0000
0000
0200
,
0000
0000
0000
0000
0310
0000
0000
0001
,
2000
0000
0000
0000
3000
0001
0000
2000
,
0000
3000
0001
0000
,
0100
0010
0100
0010
0000
0200
0000
0000
,
0000
0000
0300
0000
0001
0000
0000
1000
,
0002
0000
0000
0000
0003
1000
0000
0020
,
0000
0030
0100
0000
,
0001
0000
0000
0000
1000
0000
0000
0002
,
0000
0000
0003
0000
0110
0000
0000
1000
,
0200
0000
0000
0000
0300
1000
0000
2000
,
0000
3000
0001
0000
,
1000
0001
1000
0001
0000
2000
0000
0000
,
3000
0001
0100
0010
,
1000
0000
0001
0000
0100
0010
0000
0100
,
0000
0010
1001
0000
,
0001
0100
0001
0100
0000
0002
0000
0000
,
0000
0000
0003
0000
2000
0000
0000
3010
,
0200
0000
0000
0000
0300
0001
0000
0002
,
0000
0000
0003
1000
0010
0000
0100
0000
,
0001
1000
0001
1000
0000
0002
0000
0000
,
0000
0000
0003
0000
0200
0000
0000
0310
,
2000
0000
0000
0000
3000
0010
0000
0010
,
0000
0000
0101
0000
,
1000
0100
1000
0100
0000
2000
0000
0000
,
0000
0000
3000
0000
1001
0000
0000
0001
,
0100
0000
0010
0000
1000
0001
0000
0200
,
0000
0300
0010
0100
,
0001
0100
0001
0100
0000
0020
0000
0000
,
0000
0030
1000
0001
,
1000
0000
0010
0000
0100
0010
0000
2000
,
0000
3000
0101
0000
,
0100
0010
0100
0010
0000
0200
0000
0000
,
0000
0000
0000
0000
,
0302
0000
0000
0000
,
0000
0000
0000
0000
,
0000
0000
0000
0000
,
0003
0000
0000
0000
;

//---------------dance-single - ----------------
#NOTES:
     dance-single:
     :
     Hard:
     8:
     0.268547,0.360300,0.164112,0.193950,0.000000,252.000000,230.000000,22.000000,26.000000,0.000000,0.000000,0.268547,0.360300,0.164112,0.193950,0.000000,252.000000,230.000000,22.000000,26.000000,0.000000,0.000000:
// measure 0
0000
0000
0000
0000
,  // measure 1
0000
0000
0000
0000
,  // measure 2
0000
0000
0000
0000
,  // measure 3
0000
0000
0000
0000
,  // measure 4
0000
0000
0000
0000
,  // measure 5
0000
0000
0000
0000
,  // measure 6
0000
0000
0000
0000
,  // measure 7
0000
0000
0000
0000
,  // measure 8
1000
0001
0100
0000
0010
0100
0000
0001
,  // measure 9
0000
1000
0000
0010
0100
0000
0000
0000
,  // measure 10
0002
0003
1001
0000
,  // measure 11
0000
0000
0101
0000
,  // measure 12
1000
0010
0100
0000
0001
0100
0000
0101
,  // measure 13
0000
0001
0000
1000
0001
0000
0000
0000
,  // measure 14
1010
0000
0101
0000
,  // measure 15
0000
0100
0110
0000
,  // measure 16
0001
0010
0001
0000
1000
0100
0000
1000
,  // measure 17
0000
0100
0000
0010
0001
0000
0000
0000
,  // measure 18
0002
0003
1001
0000
,  // measure 19
0000
0000
0110
0000
,  // measure 20
1000
0100
0010
0000
0001
0000
0100
0010
,  // measure 21
0000
1000
0000
0001
0100
0000
0000
0000
,  // measure 22
0011
0000
1001
0000
,  // measure 23
0000
0100
1100
0000
,  // measure 24
0001
0100
0010
1000
0000
0001
0000
1000
,  // measure 25
0000
0001
0000
0001
0200
0000
0000
0000
,  // measure 26
0320
0000
1030
0000
,  // measure 27
0000
0000
1001
0000
,  // measure 28
1000
0100
0010
0000
0011
0000
0100
0001
,  // measure 29
0000
0100
0000
0010
1000
0000
1000
0000
,  // measure 30
0001
0000
0101
0000
,  // measure 31
0000
0100
0020
0000
,  // measure 32
1030
0001
1000
0000
0001
0100
0010
0200
,  // measure 33
0000
0001
0300
0001
0100
0000
0000
0010
,  // measure 34
2000
0000
0000
0000
3001
0100
0001
0200
,  // measure 35
0000
0000
0300
0000
0010
0100
0010
0000
,  // measure 36
1000
0100
0010
0001
0000
2000
0000
0000
,  // measure 37
0000
0000
3001
0000
0110
0000
0000
0010
,  // measure 38
0200
0000
0000
0000
0301
1000
0001
2000
,  // measure 39
0000
0000
3000
0000
0010
1000
0000
0001
,  // measure 40
0100
0010
1000
0000
1000
0100
0010
0001
,  // measure 41
0000
0100
0000
0010
2000
0000
0000
3001
,  // measure 42
1000
0000
0000
0000
0101
0000
0000
0202
,  // measure 43
0000
0303
1010
0000
,  // measure 44
0001
0100
0001
0010
0000
0001
1000
0002
,  // measure 45
0000
1000
0003
1000
0010
0000
0000
0100
,  // measure 46
0020
0000
0000
0000
1030
0100
0010
0100
,  // measure 47
0000
0010
0011
0000
,  // measure 48
0001
1000
0001
0100
0000
0001
1000
0010
,  // measure 49
0000
0100
0000
0010
1000
0000
0001
0100
,  // measure 50
0020
0000
0030
0000
0100
0010
0100
0001
,  // measure 51
1000
0000
0000
0001
0100
0001
1000
0100
,  // measure 52
0010
0001
0010
0100
0000
2000
0000
0000
,  // measure 53
3001
0000
0100
0010
1010
0000
0000
0100
,  // measure 54
0002
0000
0000
0000
1003
0010
1000
0002
,  // measure 55
0000
0003
0101
0000
,  // measure 56
0010
0100
0001
1000
0000
0001
0100
0010
,  // measure 57
0000
0010
0100
0001
1000
0000
0000
0001
,  // measure 58
1000
0010
1000
0000
0001
0100
0001
1000
,  // measure 59
0020
0000
0000
0130
0010
0000
1000
0001
,  // measure 60
0100
0010
1000
0001
0000
0200
0000
0000
,  // measure 61
0310
0000
0100
0000
1001
0000
0001
0100
,  // measure 62
0020
0000
0000
0030
1000
0001
0100
0010
,  // measure 63
0200
0000
0301
0000
,  // measure 64
0100
0010
1000
0010
0000
2000
0000
0000
,  // measure 65
0000
0000
0000
0000
,  // measure 66
3002
0000
0000
0000
,  // measure 67
0000
0000
0000
0000
,  // measure 68
0000
0000
0000
0000
,  // measure 69
0003
0000
0000
0000
;
