#TITLE:2 Me;
#SUBTITLE:;
#ARTIST:SMLE feat. Kiddo Ai & Nick Smith;
#TITLETRANSLIT:;
#SUBTITLETRANSLIT:;
#ARTISTTRANSLIT:;
#GENRE:;
#CREDIT:;
#BANNER:;
#BACKGROUND:;
#LYRICSPATH:;
#CDTITLE:;
#MUSIC:SMLE - 2 Me (feat (mp3cut.net).mp3;
#OFFSET:-0.122000;
#SAMPLESTART:124.500000;
#SAMPLELENGTH:15.000000;
#SELECTABLE:YES;
#BPMS:0.000000=110.000000
;
#STOPS:
;
#BGCHANGES:;
#KEYSOUNDS:;
#ATTACKS:;

//---------------dance-single - ----------------
#NOTES:
     dance-single:
     :
     Easy:
     3:
     0.130574,0.199606,0.127694,0.100811,0.000000,136.000000,117.000000,19.000000,15.000000,0.000000,0.000000,0.130574,0.199606,0.127694,0.100811,0.000000,136.000000,117.000000,19.000000,15.000000,0.000000,0.000000:
// measure 0
0000
0000
0000
0000
,  // measure 1
0100
0100
0000
0000
,  // measure 2
0100
0010
0000
1000
,  // measure 3
1000
0001
0000
1000
,  // measure 4
1000
0001
0000
0000
,  // measure 5
0100
0010
0000
0000
,  // measure 6
0100
0010
0000
0000
,  // measure 7
0110
0000
0000
0100
,  // measure 8
0000
0000
0100
0000
,  // measure 9
1001
0000
1000
0000
,  // measure 10
0001
0000
0100
0000
,  // measure 11
0010
0000
0110
0000
,  // measure 12
0110
0000
0000
0000
,  // measure 13
0100
0100
0100
0000
,  // measure 14
0010
0010
0010
0000
,  // measure 15
0001
0000
1000
0000
,  // measure 16
0001
0000
0000
0000
,  // measure 17
0110
0000
1001
0000
,  // measure 18
0110
0000
0010
0010
,  // measure 19
0010
0000
1000
1000
,  // measure 20
1000
0000
0001
0000
,  // measure 21
1000
0000
0010
0000
,  // measure 22
0100
0000
0001
1000
,  // measure 23
0001
0000
1000
0001
,  // measure 24
1000
0000
0002
0000
,  // measure 25
0203
0000
0000
0300
,  // measure 26
0020
0000
0000
0030
,  // measure 27
2000
0000
0000
3000
,  // measure 28
0200
0000
0000
0300
,  // measure 29
0002
0000
0000
0003
,  // measure 30
0020
0000
0000
0030
,  // measure 31
0200
0000
0000
0300
,  // measure 32
2000
0000
0000
3000
,  // measure 33
0001
0000
0110
0000
,  // measure 34
0010
0000
1000
0000
,  // measure 35
1001
0000
0110
0000
,  // measure 36
0100
0000
0001
0000
,  // measure 37
1001
0000
0100
0000
,  // measure 38
0010
0000
0100
0000
,  // measure 39
0001
0000
0001
0000
,  // measure 40
0000
0000
0000
0000
,  // measure 41
0110
0000
0010
0010
,  // measure 42
0010
0000
0000
0000
,  // measure 43
1000
0000
0010
0000
,  // measure 44
0010
0000
0000
0000
,  // measure 45
0110
0000
0010
0000
,  // measure 46
0010
0000
1000
0000
,  // measure 47
1001
0000
1000
1000
,  // measure 48
1000
0000
0000
0000
,  // measure 49
0110
0000
0000
0000
,  // measure 50
0011
0000
0000
0000
,  // measure 51
0101
0000
0000
0000
,  // measure 52
0110
0000
0000
1000
,  // measure 53
1000
0000
0001
0000
,  // measure 54
0100
0000
0100
0100
,  // measure 55
0100
0000
0010
0100
,  // measure 56
0010
0000
0100
0000
,  // measure 57
0100
0000
0200
0000
,  // measure 58
0000
0300
0000
0000
,  // measure 59
2000
0000
0000
3000
,  // measure 60
0002
0000
0000
0003
,  // measure 61
2000
0000
0000
3000
,  // measure 62
0002
0000
0000
0003
,  // measure 63
0100
0000
0100
0000
,  // measure 64
0020
0000
0030
0000
,  // measure 65
0100
0000
0110
0000
,  // measure 66
0010
0000
0000
0000
;

//---------------dance-single - ----------------
#NOTES:
     dance-single:
     :
     Challenge:
     15:
     0.573184,0.731889,0.268830,0.369641,0.729201,597.000000,557.000000,40.000000,55.000000,0.000000,0.000000,0.573184,0.731889,0.268830,0.369641,0.729201,597.000000,557.000000,40.000000,55.000000,0.000000,0.000000:
0000
0000
0000
0000
,
0000
0000
0000
0000
,
0000
0000
0000
0000
,
1000
0000
0000
0001
0000
0000
1000
0000
0000
0000
0010
0000
0100
0010
0000
0010
,
0100
0000
0000
0001
1000
0000
0001
1000
0000
0001
1000
0000
0100
0010
0100
0010
,
1001
0000
0000
0000
0001
0000
0010
0000
0001
0000
0000
0000
1000
0000
0100
0000
0000
0000
0000
0000
0110
0000
0000
0000
0000
0000
0100
0000
0000
0000
0010
0100
,
0010
0000
0000
0001
0000
0000
1000
0000
0000
0000
0001
0000
0010
0100
0000
0000
,
0110
0000
0000
1000
0001
0000
1010
0000
0000
0101
0000
0000
0011
0001
0010
0001
,
0010
0000
0000
0000
0001
0010
0001
0000
0000
0000
0000
0000
1000
0000
0010
0000
0100
0000
0001
0000
0000
0000
0100
0000
0000
0000
0010
0000
0000
0000
0110
0000
,
0000
0000
0010
0100
0010
0000
0100
0010
0100
0000
0001
1000
0001
0000
1000
0100
,
0010
0001
1000
0100
0010
0000
0100
0010
0001
1000
0000
0001
0000
0100
0000
0110
,
0000
0000
0001
1000
1000
0000
2000
0000
3002
0000
0203
0000
0310
0100
0010
0100
,
0010
0000
0010
0100
0000
0100
0010
1000
0001
1000
0000
0001
0000
1000
0000
0002
,
0000
0000
0000
0003
0100
0000
0010
0000
0200
0000
0001
0000
0301
1000
0001
0000
,
2002
0000
0000
0000
3003
0000
0100
0010
0100
0010
0000
0100
0000
0010
0000
0100
,
0000
0010
0000
0000
1000
0000
0001
1000
0001
0000
0000
1000
0000
0010
0000
0100
,
0000
0002
0000
0000
0003
0000
0000
0000
0000
0000
0000
0000
1001
0000
0100
0000
,
2200
0300
3010
0011
0002
0000
1003
0100
,
0002
0000
0000
0000
0003
0000
0100
1000
0001
0000
0000
0100
0000
0010
0000
0100
,
0000
0000
0100
0010
0100
0000
1000
0100
1000
0001
0000
0101
0000
0101
0000
1000
,
0001
0000
1000
0002
0003
0010
0002
0003
1000
0200
0301
0000
0100
0000
1000
0000
,
1001
1000
0101
0010
1001
0100
0010
0200
,
0320
0000
0030
0000
0110
0000
1000
0001
0100
0010
0000
0010
0000
0100
0000
0100
,
0000
0000
0001
0000
0100
0000
0001
1000
0010
0000
0000
1000
0000
0100
0000
0010
,
0000
0000
2001
3010
0200
0300
0020
0030
,
1200
0000
0302
0000
,
1003
0100
0001
0100
2000
0000
3002
0000
,
0200
0000
0003
0000
0320
0000
1000
1000
,
1030
0000
0001
0010
1000
0010
0002
0000
,
1003
0100
1000
0100
0010
0001
0010
0001
1000
0010
0100
0001
1000
0001
0010
0100
,
1000
0000
0001
0010
0001
0000
1000
0000
0010
0100
0010
0000
0100
0000
0001
0000
,
1000
0010
0100
0001
1000
0010
0100
0001
1000
0001
0010
0100
1000
0001
1000
0001
,
1010
0000
0000
0000
1001
0000
0000
0000
0100
0010
0100
0000
0001
1000
0001
0000
0100
0010
0200
0000
0000
0000
0000
0000
0320
0000
0000
0000
0000
0000
0000
0000
,
0130
0000
0010
0000
0100
0000
0001
0000
1000
1001
0000
0001
1001
0000
0000
0000
,
0100
0010
0100
0010
0100
0000
0002
0000
2003
0000
3002
0000
0103
0010
0100
0010
,
0010
0000
1000
0000
0001
0000
0100
0010
0100
0110
0000
0001
1000
0001
1000
0000
,
1000
0001
1000
0001
0100
0000
0001
0000
0100
0000
0010
0000
1000
0100
0010
0001
,
1000
1001
0000
0001
1001
0000
0100
0010
0100
0000
0001
1000
0010
0000
1000
0000
,
0010
1000
0010
0000
0100
0001
0100
0000
0010
0000
0010
0000
0020
0000
0000
0000
,
0130
0000
0000
0000
0001
1000
0001
1000
0001
0000
0000
0000
1000
0001
1000
0001
1000
0000
0000
0000
0001
0000
0010
0000
0100
0000
0010
0000
0001
0000
0000
0000
,
0000
0000
0000
0000
1000
0100
0010
0001
0000
0000
0000
0000
1000
0000
0010
0000
0100
0000
0010
0000
0000
0000
0010
0000
0000
0000
0100
0000
0000
0010
0100
0010
,
0100
0000
0010
0000
0010
0010
0100
0200
,
0000
0000
0300
0000
0010
0000
0100
0010
0100
0001
0000
0010
0000
1000
0000
0010
,
0000
0001
1000
0000
0001
1000
0001
0200
,
0000
0000
0300
0000
0010
0000
0100
0001
0100
0001
0000
1000
0000
0010
0000
0100
,
0000
0001
0000
0000
1100
0000
0010
0000
0100
0000
0010
0000
0000
0000
0100
0000
,
0010
1000
0001
1000
,
0010
0100
0010
1000
0001
1000
0000
1000
,
0001
0000
0000
0000
0000
0000
0100
0010
,
0220
0030
0302
0000
2003
0000
3010
0200
,
0301
0000
0000
0000
1000
0000
0010
1000
0001
0100
0000
0001
0000
0100
0000
0001
,
0000
0000
0000
0000
1000
0000
0001
0010
0100
1000
0000
0100
0000
0010
0000
0001
,
0000
0000
1000
0001
1000
0000
0001
1000
0001
0000
0100
0000
0010
0000
0110
0000
,
2001
0000
3002
0000
0103
0010
0100
0001
,
2000
0000
3000
0000
0000
0000
0001
0010
0100
1000
0000
0010
0000
0100
0000
0001
,
0000
0000
0000
0000
1010
0000
0100
0010
0100
0001
0000
0001
0000
1000
0000
0010
,
0000
0000
0100
0001
1001
0000
0200
0000
,
0320
2030
3002
0203
0320
0030
0200
0000
,
0310
0100
0010
0100
0010
0000
0100
0010
0100
0000
0000
0000
0001
0000
0000
0000
1000
0001
1000
0000
0000
0000
0000
0000
0001
0000
0010
0000
0100
0000
1000
0000
,
0101
0011
0101
1010
0100
0001
0002
2003
,
3001
0100
0001
0100
0001
0000
1000
0010
1000
0000
0000
0000
0001
0000
0010
0000
0100
0000
0000
0000
0000
0000
0000
0000
1000
0000
0001
0000
0100
0000
0001
0000
,
2000
0000
3010
0100
0020
0000
0130
0010
,
1000
0001
1000
0001
0100
0000
0001
1000
0001
0100
0010
0000
0100
0000
0000
0000
,
0010
0100
0010
1000
0001
0100
0010
0010
1000
0001
1000
0001
1000
0000
0000
0000
,
0001
0010
0001
0010
0001
0010
0001
0010
0001
0010
0001
0010
0002
0000
0000
0000
0003
0000
0000
0000
0000
0000
0000
0000
1000
0100
1000
0100
1000
0000
0000
0000
,
0001
0011
0000
0000
0011
0000
0000
0000
1001
0000
0100
0000
0010
0000
0100
1000
,
0010
0000
0000
0000
;

//---------------dance-single - ----------------
#NOTES:
     dance-single:
     :
     Medium:
     6:
     0.206423,0.288320,0.080649,0.120973,0.026883,215.000000,203.000000,12.000000,18.000000,0.000000,0.000000,0.206423,0.288320,0.080649,0.120973,0.026883,215.000000,203.000000,12.000000,18.000000,0.000000,0.000000:
0000
0000
0000
0000
,
0000
0000
0000
0000
,
0000
0000
0000
0000
,
1000
0000
0000
0000
0000
0001
0000
0000
,
0100
0000
0000
0010
0000
0000
0100
0000
,
0010
0000
0000
0100
0000
0000
0010
0000
,
0100
0000
0000
0001
0000
0000
0000
0000
,
1000
0000
0000
0001
0000
0000
1000
0000
,
0000
0001
0000
0000
0000
0000
0000
0000
,
0100
0000
0001
0010
0001
0000
1000
0100
,
1000
0000
0000
0001
0000
0000
0000
0000
0100
0000
0010
0000
0100
0000
0000
0000
,
0010
0000
1000
0000
0001
0000
0100
0001
,
0010
0000
0000
0010
0000
0000
0010
0000
0000
0010
0000
0000
0010
0000
0000
0000
,
1001
0000
0100
0010
0100
0000
0000
0010
,
0100
0000
0010
0000
1000
0000
0001
0100
,
0001
0000
1000
0010
1000
0000
0001
0100
,
0001
0000
0000
0100
,
0110
0000
0000
0020
0000
0000
0130
0000
,
1001
0000
0000
1000
0001
0000
0100
0000
,
0010
0000
0000
0010
0100
0000
0001
1000
,
0001
0000
0000
1000
0000
0000
1000
0000
0000
1000
0000
0000
1000
0000
0000
0000
,
0001
0000
0100
0000
0010
0000
0100
0010
,
0100
0000
0010
0000
1000
0000
0001
0100
,
0001
1000
0010
0010
,
0000
0010
0010
0000
,
0200
0000
0000
0020
0000
0000
0300
0000
,
2030
0000
3001
0000
,
0020
0000
0000
0200
0000
0000
0030
0000
,
0302
0000
1003
0000
,
0020
0000
0000
0030
,
1000
0001
0100
0010
,
0100
0100
0100
0010
,
0020
0000
0230
0300
,
1001
0000
0000
0010
0000
0000
1010
0000
,
1010
0000
0000
0100
0000
0000
0010
0000
,
0110
0000
0000
0010
0000
0000
0000
0000
,
1000
0000
0000
0001
0000
0000
1000
0000
0000
0000
0000
0000
0010
0000
0100
0000
,
0010
0000
0000
0010
0000
0000
0010
0000
0000
0000
0000
0000
0000
0000
0000
0000
,
1000
0000
0000
1000
0000
0000
1000
0000
0000
0000
0000
0000
0001
0000
0000
0000
,
1000
0000
0000
0010
0000
0000
0010
0000
,
0000
0200
0000
0300
,
0110
0000
0000
0000
0010
0010
0000
0010
,
0000
0000
0000
0010
0000
0000
0000
0000
,
1000
0000
0001
0000
1000
1000
0000
1000
,
0000
0000
0000
0001
0000
0000
0000
0000
,
0110
0000
0010
0000
0010
0000
0000
0020
,
0000
0000
0030
0200
0000
0000
0300
0000
,
0010
0100
0100
0100
,
0200
0000
0300
0000
,
0011
0000
0000
1000
0001
0000
0000
0000
,
0100
0000
0010
0000
,
1001
0010
0100
0010
,
0100
0000
1000
0000
0001
0000
1000
0010
,
0100
0000
0001
0000
1000
0000
0010
0100
,
0010
0000
0000
0001
1000
0000
0001
0000
,
0010
0000
0010
0001
,
1000
0000
0001
0000
,
0100
0000
0000
0200
,
0000
0000
0310
0000
,
2000
0000
0000
3020
0000
0000
0030
0000
,
0200
0000
0000
0300
,
1000
0000
0000
0001
0000
0000
0100
0000
,
0010
0000
0000
0100
0000
0000
0001
0000
,
0100
0010
0100
0000
0010
0100
0010
0000
,
0100
0100
0100
0100
,
0110
0000
0000
0010
0000
0000
0000
0000
,
0010
0000
0000
0000
;

//---------------dance-single - ----------------
#NOTES:
     dance-single:
     :
     Hard:
     12:
     0.464692,0.510105,0.154577,0.215064,0.457011,484.000000,461.000000,23.000000,32.000000,0.000000,0.000000,0.464692,0.510105,0.154577,0.215064,0.457011,484.000000,461.000000,23.000000,32.000000,0.000000,0.000000:
0000
0000
0000
0000
0000
0000
0000
0000
0000
0000
0000
0000
0001
1000
0001
1000
,
0001
0000
1000
0000
0001
0000
0100
0000
0000
0000
0100
0000
0010
0100
0000
0001
,
1000
0000
0000
0011
0000
0000
1001
0000
0000
0000
0100
0000
1000
0100
0010
0001
,
1000
0000
0001
0000
0100
0000
0010
0000
0000
0000
0110
0000
0000
0010
0000
0000
,
0100
0000
0000
0001
1000
0000
0100
0001
0000
0100
0000
0000
0010
0100
1000
0001
,
0010
0000
0000
0000
0001
0000
1000
0000
0000
0000
0010
0000
0000
0010
0000
0000
,
0010
0000
0000
0100
0000
0000
0010
0000
0000
0000
0010
0000
1000
0100
0000
0000
,
0010
0000
0000
0001
0000
0000
1000
0000
0000
0010
0000
0000
0100
0000
0000
0010
,
0100
0010
0100
0000
0000
0000
0001
1000
0100
0000
0000
0010
0000
0001
0000
1000
,
0000
0000
0010
0000
0100
0010
0100
0000
0001
0010
0100
1000
0001
0000
0000
0000
,
1000
0000
0000
0000
0100
0000
0010
0001
0010
0001
0000
1000
0000
0100
0000
0010
,
0000
0000
0001
0100
0110
0000
1000
0100
,
0110
0000
0000
0010
0000
0000
0001
0010
0100
0001
0000
0100
0000
1000
0000
0200
,
0000
0000
0310
0000
0100
0010
0100
0001
,
1000
0000
0010
0000
0100
0000
0010
1000
0100
0000
0000
0010
0000
0100
0000
0001
,
0000
1000
0000
0000
0000
0000
0001
0100
0001
0000
0000
0100
0000
0001
0000
0010
,
0000
0200
0000
0000
0300
0000
0000
0000
0000
0000
0000
0000
0010
0000
0100
0000
,
0110
0000
2000
0000
3002
0000
0103
0020
,
0000
0000
0000
0000
0130
0000
0001
0100
0001
0010
0000
0001
0000
0010
0000
0100
,
0000
0000
0000
0000
1000
0000
0001
1000
0010
0100
0000
0001
0000
1000
0000
0020
,
0000
0030
0200
0000
0320
0000
0130
0001
,
0101
0000
1000
0100
0010
0001
1000
0002
,
0000
0000
0000
0000
0103
0000
0100
0010
1000
0001
0000
1000
0000
0001
0000
0200
,
0000
0000
0000
0000
0301
0000
0010
0001
0100
0001
0000
0010
0000
0001
0000
2000
,
0000
0000
3010
0100
0001
0000
1000
0000
,
0020
0100
0130
0001
2000
0000
3200
0000
,
0300
0010
0001
1000
0200
0000
0302
0000
,
0103
1000
0010
0100
0001
0000
1000
0100
,
0020
0030
0100
1000
0001
0000
0100
0000
,
0010
0000
0100
0001
0010
0000
0001
0000
0100
0010
0100
0000
0001
0000
0000
0000
,
0000
1000
0100
0010
0001
0000
0100
0000
,
0110
0100
0001
0100
0001
0000
1000
0010
,
0100
0000
0001
0010
0001
0000
1000
0000
,
0010
0110
0010
0100
,
1010
1000
0100
0010
0011
0000
0110
0000
,
1001
0000
0000
0001
0000
0000
0100
0000
0110
0000
0000
0000
1000
0001
0100
0000
,
0010
0100
0010
0100
0010
0000
0000
0000
1000
0010
1000
0000
1000
0001
1000
0001
,
1000
0000
0000
0010
0000
0000
0100
0000
0101
0000
0000
0000
1010
0000
0000
0000
,
2000
0000
3000
0200
0000
0300
0020
0000
0030
0000
0001
0000
0001
0000
0000
0000
,
1000
0000
0001
0100
0001
0100
0001
0000
1000
0010
1000
0010
1000
0000
0000
0000
,
0001
0010
0001
0010
0001
1000
0001
1000
0001
0000
0000
0010
0000
0100
0000
0000
,
0010
0000
0100
0010
1000
0001
0100
0010
,
1000
0000
0001
0000
0100
0000
0010
0100
0010
0100
0000
0010
0000
0100
0000
0000
,
0010
1000
0001
0100
0010
1000
0001
0100
,
0010
0000
1000
0000
0100
0000
0010
0001
1000
0001
0000
0100
0000
0010
0000
0100
,
0000
0010
0000
0000
1001
0000
0100
0000
0010
0000
0100
0000
0100
0000
0010
0000
,
0010
0000
1000
0001
1000
0000
0001
0100
0001
0010
0000
1000
0000
0010
0000
0001
,
0000
0000
0000
0000
0110
0000
1000
0010
0100
0001
0000
0100
0000
0001
0000
0100
,
0000
0000
0000
0000
0000
0000
0010
0100
,
1001
0000
0001
0010
0200
0000
1300
0001
,
0100
0000
0010
0000
0100
0000
0001
0010
0100
1000
0000
0100
0000
0010
0000
0001
,
0000
0000
0000
0000
0100
0000
0001
1000
0001
1000
0000
0001
0000
1000
0000
0002
,
0000
0003
0200
0000
0320
0000
0130
0010
,
1001
0000
1000
0100
1000
0100
0010
0002
,
0000
0000
0000
0000
1003
0000
0010
0001
0010
0100
0000
0001
0000
1000
0000
0001
,
0000
0000
0000
0000
0100
0000
1000
0010
1000
0010
0000
0100
0000
0001
0000
0100
,
0000
0000
0010
0010
0010
0000
0100
0000
,
0010
0100
0010
0100
0011
0000
2000
0000
,
3000
0010
0100
0100
0002
0000
2003
0000
,
3001
0010
0100
0010
0002
1003
1000
0100
,
0020
0030
0100
1000
0001
0000
0200
0000
,
0301
0000
0010
0000
0100
0000
1000
0000
0001
0100
0001
0000
1000
0000
0010
0000
,
0100
0000
0001
0010
0001
0000
1000
0000
0100
0010
0001
0000
0100
0000
0010
0000
,
0100
0010
0100
0001
0100
0010
0100
0001
,
2000
0000
0000
0000
3001
0000
0010
0000
0110
0000
0000
0000
0010
0100
0010
0100
,
0010
0000
0000
0010
0000
0000
0100
0000
0110
0000
0000
0000
0000
0000
0000
0000
,
1000
0000
0000
0000
;
