#VERSION:0.83;
#TITLE:1 cool no otoko;
#SUBTITLE:;
#ARTIST:MAKI;
#TITLETRANSLIT:;
#SUBTITLETRANSLIT:;
#ARTISTTRANSLIT:;
#GENRE:;
#ORIGIN:;
#CREDIT:;
#BANNER:MAKI - 1 cool no otoko.png;
#BACKGROUND:;
#PREVIEWVID:;
#JACKET:;
#CDIMAGE:;
#DISCIMAGE:;
#LYRICSPATH:;
#CDTITLE:;
#MUSIC:MAKI - 1 cool no otoko.ogg;
#OFFSET:-0.284000;
#SAMPLESTART:4.659000;
#SAMPLELENGTH:16.000000;
#SELECTABLE:YES;
#BPMS:0.000=137.000;
#STOPS:;
#DELAYS:;
#WARPS:;
#TIMESIGNATURES:0.000=4=4;
#TICKCOUNTS:0.000=4;
#COMBOS:0.000=1;
#SPEEDS:0.000=1.000=0.000=0;
#SCROLLS:0.000=1.000;
#FAKES:;
#LABELS:0.000=Song Start;
#BGCHANGES:;
#KEYSOUNDS:;
#ATTACKS:
;

//---------------dance-single - ----------------
#NOTEDATA:;
#CHARTNAME:;
#STEPSTYPE:dance-single;
#DESCRIPTION:;
#CHARTSTYLE:;
#DIFFICULTY:Beginner;
#METER:3;
#RADARVALUES:0.122548,0.190930,0.049971,0.000000,0.000000,103.000000,97.000000,6.000000,0.000000,0.000000,0.000000,0.000000,0.000000,0.000000,0.122548,0.190930,0.049971,0.000000,0.000000,103.000000,97.000000,6.000000,0.000000,0.000000,0.000000,0.000000,0.000000,0.000000;
#CREDIT:;
#NOTES:
0000
0000
0000
0000
,
0000
0000
0000
0000
,
0000
0000
0000
0000
,
0000
0000
0000
0000
,
0000
0000
0000
0000
,
0000
0000
0000
0000
,
0000
0000
0100
0000
,
0001
0000
0001
0000
,
1000
1000
1000
0000
,
0001
0000
0001
0000
,
0100
0000
0100
0000
,
0001
0000
1000
0000
,
0001
0000
0110
0000
,
0010
0000
0100
0000
,
0010
0010
0010
0000
,
1000
0000
0001
0000
,
0100
0100
0100
0000
,
0001
0000
1000
0000
,
0001
0000
1001
0000
,
1000
0000
0001
0000
,
1000
0000
1001
0000
,
0001
0000
0000
0000
,
1000
0000
0001
0000
,
0100
0000
0010
0000
,
0100
0000
0001
0000
,
1000
0000
0010
0000
,
0010
0000
1000
0000
,
0001
0000
0001
0000
,
1000
0000
0001
0000
,
0100
0000
0010
0000
,
0001
0000
1000
0000
,
0000
0000
0001
0000
,
0000
0000
1001
0000
,
0000
0000
1000
0000
,
0000
0000
1001
0000
,
0000
0000
0000
0000
,
1000
0000
1001
0000
,
0000
0000
0000
0000
,
0001
0000
1000
0000
,
0000
0000
0001
0000
,
0000
0000
1000
0000
,
0001
0000
0100
0000
,
0001
0000
1000
0000
,
1000
0000
1000
0000
,
0000
0000
0001
0000
,
0001
0000
0001
0000
,
1000
0000
1000
0000
,
0001
0000
0001
0000
,
0001
0000
1000
0000
,
0000
0000
0001
0000
,
0000
0000
1000
0000
,
0000
0000
0001
0000
,
1000
0000
0010
0000
,
0000
0000
0100
0000
,
0001
0000
0100
0000
,
0000
0000
0010
0000
,
0010
0000
0010
0000
,
0000
0000
0100
0000
,
0000
0000
0010
0000
,
0000
0000
0001
0000
,
0000
0000
1000
0000
,
0000
0000
0001
0000
,
0000
0000
1000
0000
,
0000
0000
0001
0000
,
0001
0000
0001
0000
,
0000
0000
0001
0000
;

//---------------dance-single - ----------------
#NOTEDATA:;
#CHARTNAME:;
#STEPSTYPE:dance-single;
#DESCRIPTION:;
#CHARTSTYLE:;
#DIFFICULTY:Easy;
#METER:7;
#RADARVALUES:0.299825,0.353570,0.141584,0.000000,0.016657,252.000000,235.000000,17.000000,0.000000,0.000000,0.000000,0.000000,0.000000,0.000000,0.299825,0.353570,0.141584,0.000000,0.016657,252.000000,235.000000,17.000000,0.000000,0.000000,0.000000,0.000000,0.000000,0.000000;
#CREDIT:;
#NOTES:
0000
0000
0000
0000
,
0000
0000
0000
0000
,
0000
0000
0000
0000
,
0000
0000
0000
0000
,
0000
0000
0001
1000
,
0001
0000
0000
0100
0000
0000
0100
0000
,
0110
0000
1001
0000
0001
0000
1000
0001
,
1000
0000
0001
0000
0001
0000
1000
0100
,
1000
0000
0001
0000
0001
0000
0100
0001
,
0100
0000
0010
0100
0010
0000
0100
0000
,
0100
0001
0001
1000
,
0100
0010
0001
1000
,
0001
0000
1000
0001
1000
0000
0001
0000
,
0101
0000
0000
0101
0000
0000
0001
0000
,
0000
1000
1001
0100
,
0010
0100
0010
1000
,
0001
0010
0001
1000
,
0001
0000
0100
0001
0000
0100
0000
0000
,
0001
0001
0100
0110
,
0101
0000
0001
0000
,
1000
0001
1001
0100
,
1000
0001
0010
0000
,
0100
0000
1001
0000
,
0100
0000
0000
0010
0000
0000
0100
0000
,
0010
0100
0010
0000
1000
0000
1100
0000
,
0001
0000
0000
0100
0000
0000
0001
0000
,
0100
0001
1000
0100
,
1000
0001
0100
0001
,
1000
0000
0100
0000
1000
0000
0001
0010
,
0001
0000
1000
0100
0000
0100
0000
0100
,
0000
1000
0000
0000
0001
0000
0100
0000
,
0001
0100
0001
0000
0100
0000
0000
0000
,
0010
0000
0000
0000
1000
0100
0010
0000
,
0001
0000
0000
0000
1000
0100
0010
0000
,
0001
0000
1000
1001
,
0000
1000
0000
1001
0000
0100
0000
0100
,
0000
0000
0010
0110
,
0000
0100
0000
0110
0000
0001
0000
0001
,
0000
0000
0000
0000
1000
0000
0010
0100
,
0010
0000
0100
0000
0001
0000
0100
0010
,
0100
0000
0001
0000
0010
0000
0100
0010
,
0100
0000
1000
0000
0010
0000
0100
0010
,
0100
0000
0001
0100
0001
0000
0100
0000
,
0100
0000
0001
0010
0001
0000
0001
0000
,
0001
0000
0001
0010
0100
0000
0010
0000
,
0001
0000
1000
0000
0100
0000
1000
0100
,
0000
0000
1000
0100
0000
0000
0010
0000
,
0001
0000
0001
0100
0010
0000
0100
0001
,
0100
0001
1000
1000
,
0001
0000
0000
1000
0000
0000
0000
0000
,
1000
1000
1000
0100
,
0100
0100
0110
0001
,
1000
0000
0000
0001
0000
1000
0000
0000
,
0001
0100
0001
1000
,
1000
0000
0000
0010
0000
0100
0000
0000
,
0010
0000
0100
0000
0001
0000
0001
0100
,
0001
0000
0000
0000
1000
0000
0010
1000
,
0010
0000
1000
0100
1000
0000
0000
0000
,
0001
0000
0100
0000
,
0010
0100
0110
0000
,
0011
0000
0000
0001
0000
0000
1000
0000
,
0001
1000
0100
0000
0010
0000
0000
0000
,
0001
0000
0000
1000
0000
0000
0010
0000
,
0100
0000
0001
0000
0100
0000
0000
0000
0001
0000
0000
0000
0000
0010
0000
0000
,
0000
0000
0000
0000
0000
0100
0000
0000
0000
0000
0000
0000
0000
0100
0000
0000
,
0000
0000
0000
0000
0000
0010
0000
0000
0000
0000
0000
0000
0000
0000
0000
0000
;

//---------------dance-single - ----------------
#NOTEDATA:;
#CHARTNAME:;
#STEPSTYPE:dance-single;
#DESCRIPTION:;
#CHARTSTYLE:;
#DIFFICULTY:Medium;
#METER:11;
#RADARVALUES:0.456876,0.462361,0.158241,0.000000,0.124927,384.000000,365.000000,19.000000,0.000000,0.000000,0.000000,0.000000,0.000000,0.000000,0.456876,0.462361,0.158241,0.000000,0.124927,384.000000,365.000000,19.000000,0.000000,0.000000,0.000000,0.000000,0.000000,0.000000;
#CREDIT:;
#NOTES:
// measure 0
0000
0000
0000
0000
,  // measure 1
0000
0000
0000
0000
,  // measure 2
0000
0000
0000
0000
0000
0000
0000
0000
0100
0000
0000
0000
0010
0000
0000
0100
,  // measure 3
0010
0100
0010
0100
0000
0001
1000
0000
,  // measure 4
1000
0000
0001
0000
0100
0000
0000
0000
0001
0000
0000
0000
0001
0000
0000
1000
,  // measure 5
0100
1000
0100
0011
0000
0000
0001
0001
,  // measure 6
1000
0000
0001
0000
0000
0100
0001
0000
0101
0000
0000
0000
0010
0000
1000
0000
,  // measure 7
0001
0001
0000
1000
0000
0010
0100
0010
,  // measure 8
0010
0010
0000
0100
0000
0000
0001
0010
,  // measure 9
0100
0010
0000
1000
0000
0000
0001
0001
,  // measure 10
0001
0001
0000
1000
0000
0001
0000
0100
,  // measure 11
0000
0010
0000
0110
0000
0001
1000
0001
,  // measure 12
0100
0001
0000
0100
0101
0000
0001
0000
,  // measure 13
1000
0000
0100
0010
0000
0010
0000
0001
,  // measure 14
0000
0100
0010
0100
0010
0000
0000
0100
,  // measure 15
0001
0100
0010
0010
0000
0100
0000
0001
,  // measure 16
0000
1000
0001
0100
0001
0000
1000
0000
,  // measure 17
0001
0001
0000
1000
0000
1000
0000
0010
,  // measure 18
0000
0100
0000
0010
0110
0000
0101
0000
,  // measure 19
0001
1000
0010
1000
0001
0000
0001
0100
,  // measure 20
0010
0100
0001
0000
0001
1000
0100
0010
,  // measure 21
0001
1000
0100
0010
0100
0001
0100
0000
,  // measure 22
0100
0100
1000
1000
0001
0000
0100
0010
,  // measure 23
0100
0001
0000
0101
0000
0001
1000
0010
,  // measure 24
0001
1000
0100
0000
0001
0000
1000
0000
,  // measure 25
1000
0100
0000
1100
0000
0001
0100
0001
,  // measure 26
0100
0001
0101
0010
,  // measure 27
0100
0000
0000
0010
0100
0000
0010
0000
0000
0000
0100
0000
0000
0000
0100
0000
,  // measure 28
0001
0000
0100
0000
0001
0000
0000
0000
1001
0000
0000
0000
1000
0000
0000
0001
,  // measure 29
1000
0000
0001
1001
0000
0100
0000
0010
,  // measure 30
1000
0000
0010
0000
1000
0000
0100
0000
1000
0000
0000
0000
0001
0000
0000
0100
,  // measure 31
0001
0100
0001
0100
0000
0010
0100
0010
,  // measure 32
0100
0000
0000
0001
1000
0000
0000
0001
1000
0000
0001
0000
1000
0000
0000
0100
,  // measure 33
0010
0100
0010
0011
0000
0001
0100
0001
,  // measure 34
1000
0000
0010
0000
1000
0000
0000
0000
0110
0000
0000
0000
1001
0000
0000
1000
,  // measure 35
0001
1000
0000
0001
0000
0100
0001
0100
,  // measure 36
0001
0000
0000
0000
0100
0000
0001
0000
0101
0000
0000
0000
0010
0000
0000
0100
,  // measure 37
0010
0100
0000
0101
0000
0001
1000
0001
,  // measure 38
1000
0000
0100
0010
0001
0000
0001
1000
,  // measure 39
0010
0000
0100
0010
0100
0000
0001
0100
,  // measure 40
0001
0100
1000
0100
0001
0000
1000
0010
,  // measure 41
0001
0100
0001
1000
,  // measure 42
0001
0010
0100
0000
1001
0000
1000
0100
,  // measure 43
0010
0100
0010
0001
0000
1000
0100
0010
,  // measure 44
0100
0000
0100
1000
0010
0000
0100
0001
,  // measure 45
0010
0001
0000
0001
0001
0000
0000
0000
,  // measure 46
1000
0010
0100
0001
,  // measure 47
0100
0010
0010
0000
0100
0000
1000
0000
,  // measure 48
0100
0001
0001
0000
1000
0001
0001
0000
,  // measure 49
1000
0100
0100
0000
0000
0000
0100
0000
,  // measure 50
0010
0000
0000
0000
0001
0000
0000
0000
0100
0000
0000
0000
0001
0000
0000
0100
,  // measure 51
0001
0000
0000
0100
0001
0000
0000
0000
0100
0000
0000
0000
0001
0000
0000
1000
,  // measure 52
0010
0000
0100
0100
0000
0100
0100
0000
,  // measure 53
0001
1000
0001
1000
0100
0000
0100
0000
,  // measure 54
0011
0000
0000
0000
0001
0000
0001
0000
0000
0000
0100
0000
0001
0000
0000
0100
,  // measure 55
0001
1000
0001
0100
0001
0000
0010
0001
,  // measure 56
0010
0001
0010
0001
0000
0000
0010
0001
,  // measure 57
1000
0000
0000
0000
0001
0000
0100
0000
0010
0000
0000
0000
0010
0000
0000
0100
,  // measure 58
0001
0000
0010
0001
1000
0000
0010
0001
,  // measure 59
1000
0000
0000
0000
0100
0000
0000
0000
0011
0000
0000
0000
0001
0000
0000
1000
,  // measure 60
0001
0100
0001
0100
0000
0010
0010
0000
,  // measure 61
0100
0000
0100
0000
0100
0000
0000
0000
0001
0000
0000
0000
1000
0000
0000
0001
,  // measure 62
1000
0000
0010
0000
0100
0000
0010
0000
0000
0000
0000
0000
0010
0000
0000
0100
,  // measure 63
0010
0000
0100
0000
0001
0000
0100
0000
0001
0000
0000
0000
0000
0001
0000
0001
,  // measure 64
0000
0100
0000
0010
0000
0000
0000
0000
0000
0100
0000
0001
0000
0100
0000
0010
,  // measure 65
0000
1000
0000
0001
0000
0100
0000
0000
0000
0000
0000
0000
0000
0000
0000
0000
;

//---------------dance-single - ----------------
#NOTEDATA:;
#CHARTNAME:;
#STEPSTYPE:dance-single;
#DESCRIPTION:;
#CHARTSTYLE:;
#DIFFICULTY:Hard;
#METER:13;
#RADARVALUES:0.558008,0.679942,0.208212,0.041642,0.308154,469.000000,444.000000,25.000000,5.000000,0.000000,0.000000,0.000000,0.000000,0.000000,0.558008,0.679942,0.208212,0.041642,0.308154,469.000000,444.000000,25.000000,5.000000,0.000000,0.000000,0.000000,0.000000,0.000000;
#CREDIT:;
#NOTES:
0000
0000
0000
0000
,
0000
0000
0000
0000
,
0000
0000
0000
0000
0000
0000
0000
0000
0100
0000
0000
0000
0010
0000
0100
0010
,
0100
0010
0100
0101
0000
0010
1000
0001
,
0010
0000
1000
0000
0010
0000
0000
0000
0001
0000
0000
0000
0100
0000
0010
0100
,
0010
0000
0100
0000
0001
0000
1001
0000
0000
0000
0100
0000
0010
0000
0010
0100
,
0010
0100
0010
0000
0100
0010
0100
0000
0110
0000
0000
0000
0001
0000
1000
0100
,
0010
0001
0000
1001
0000
0100
0010
0100
,
0110
0000
0010
0000
0000
0000
0010
0000
0000
0000
0000
0000
0100
0000
0001
0100
,
0001
1000
0000
1010
0000
0100
0001
0100
,
0010
0100
0000
0010
0100
0001
0000
0001
,
1000
0001
0000
0110
0000
0010
0000
0010
,
0100
0000
0010
0000
0000
0000
0100
0001
0100
0000
0000
0000
0001
0000
0000
0000
,
1000
0000
1000
0000
0001
0000
0001
0000
0000
0000
0001
1000
0001
0000
1000
0001
,
1000
0000
0001
0100
0001
0000
0100
0000
0101
0000
0010
0000
0000
0000
0010
0000
,
0100
0001
0010
1000
0000
1000
0010
0000
,
0001
0100
0001
0000
0100
0000
0010
0000
0110
0000
0000
0000
1001
0000
0000
0000
,
0100
0100
0000
0001
0000
0010
0000
0001
,
1000
0100
0010
0000
0001
0001
0000
1000
,
0001
1000
0000
0001
0000
1000
0000
0010
,
0100
0000
0000
0010
0000
0000
0100
0000
0010
0000
0000
0000
0100
0000
0010
0000
,
1000
0000
0000
0000
0100
0000
0001
0000
0100
0000
0000
0000
1000
0100
0010
0000
,
0001
0010
0001
0000
0100
0000
0100
0000
0101
0000
0000
0000
0100
0000
0001
1000
,
0001
0000
1000
0000
0100
0000
0010
0000
0100
0000
1000
0001
0100
0001
1000
0001
,
0100
0001
1000
0001
0100
0000
0000
0000
0010
0000
0000
0000
0100
0010
0100
0000
,
0010
0000
0010
0000
0000
0000
1001
0000
0000
0000
1000
0100
0000
1000
0100
0000
,
0010
0001
0000
0010
0001
0000
1000
0000
1001
0000
0001
0000
0000
0000
0001
0000
,
0000
0100
0000
0010
0000
0010
0000
0010
,
0100
0010
1000
0000
1001
0000
1000
0010
,
0100
0000
0000
0000
0010
0000
0110
0000
0000
0000
0001
1000
0000
0000
0001
1000
,
0001
0000
0000
0000
0001
0000
1000
0000
0001
0000
0000
0000
1000
0000
0000
0100
,
0010
0001
1000
0001
0100
0000
0010
0010
,
0100
0000
0010
0000
0200
0000
0000
0000
0301
1000
0001
1000
0002
0000
0000
0000
,
2003
0000
3010
0110
0000
0010
0110
0100
,
0010
0100
0001
0000
1000
0000
0001
0000
0100
0000
0000
0000
0010
0000
0000
0100
,
0010
0000
0100
0000
0000
0000
0101
0000
0000
0000
0100
0001
0010
0001
0100
0000
,
0010
0001
0010
0001
0010
0000
0000
0000
1100
0000
0000
0000
0001
0000
0000
1000
,
0001
0000
0100
0000
0000
0000
0110
0000
0000
0000
0010
1000
0100
1000
0010
0000
,
1000
0100
1000
0100
1000
0000
0000
0000
0001
0000
0000
0000
0100
0000
0010
0000
,
0100
0000
0000
0000
0010
0000
0000
0100
0000
0000
0000
0000
0010
0000
1000
0000
,
0010
0000
0100
0100
0010
0000
0100
0001
,
0000
0000
0100
0000
0000
0010
0000
0000
0100
0000
0000
0000
0001
0000
1000
0000
,
0001
1000
0001
1000
0001
0000
0000
0000
1000
0000
0100
0000
0010
0000
0001
0000
,
1000
0001
0100
0001
0101
0010
1000
0010
,
0000
0100
0001
0010
0000
0001
0001
1000
,
0001
0000
0000
1000
0000
0000
0001
1000
0001
0000
0000
0000
1000
0000
0100
0000
,
0010
0000
0100
1000
0010
0000
0000
0000
0101
0000
0001
0000
0001
0000
0010
0000
,
0010
0100
0100
1000
0000
0000
0001
0000
,
0100
0000
0010
0100
0010
0000
0100
0010
,
0100
0000
0001
0002
0000
0000
1000
1000
,
1003
0000
0100
0000
0010
0000
0001
0000
0100
0000
0000
0000
0010
0000
0000
0010
,
0010
0000
0100
0001
0100
0001
0100
0000
0001
0000
1000
0000
0100
0000
0001
0000
,
0100
1000
0100
1100
0000
0001
0000
0100
,
0010
0100
0010
0000
0100
0000
0001
0000
0100
0000
0000
0000
0001
0000
0100
0000
,
0001
0000
0100
0010
0100
0000
0010
0000
0000
0000
0100
0000
0000
0000
0010
0000
,
0100
0000
0010
0100
1000
0100
0010
0100
,
0010
1000
0001
1000
0000
0000
0001
1000
,
0001
0000
0000
0010
0000
0000
1000
0000
0020
0000
0000
0000
0001
0000
0000
0000
,
0130
0000
1000
0010
0001
0000
1000
0100
,
0001
0000
0000
0000
0001
0000
1000
0000
0001
0000
0000
0000
0011
0000
0000
0100
,
0010
0100
0010
0100
0000
0010
0100
0010
,
0010
0000
1000
0000
0001
0100
0010
0000
0100
0000
0000
0000
0001
0000
0000
0001
,
0010
0100
1000
1001
0001
1000
0001
0100
,
0001
0100
0001
0100
0001
0100
0001
0000
0100
0001
0010
0001
0000
0100
0000
0001
,
0100
0001
0000
0100
0001
0100
0001
0000
0000
0001
0000
1000
0000
0010
0000
0000
,
0000
1000
0000
0001
0000
0100
0000
0000
0000
0000
0000
0000
0000
0000
0000
0000
;
