#TITLE:end of an era;
#SUBTITLE:;
#ARTIST:dua lipa;
#MUSIC:end of an era.ogg;
#BANNER:;
#BACKGROUND:end of an era-bg.png;
#LYRICSPATH:;
#CDTITLE:cdtitle.png;
#SAMPLESTART:37.494999;
#SAMPLELENGTH:12.000000;
#OFFSET:-0.081;
#BPMS:0.000=117.069;
#STOPS:;
#TIMESIGNATURES:0.000=4=4;
#BGCHANGES:-0.081=end of an era.mp4=1.000=1=0=1===CrossFade==,
171=end of an era-bg.png=1.000=1=0=1===CrossFade==,
99999=-nosongbg-=1.000=0=0=0=====
;
#FGCHANGES:;
#ATTACKS:;
#TAGS:;
#PREVIEWVID:;
#KEYSOUNDS:;

//---------------dance-single - ---------------
#NOTES:
     dance-single:
     :
     Beginner:
     1:
     0.103623,0.168590,0.056669,0.000000,0.000000,64.000000,59.000000,5.000000,0.000000,0.000000,0.000000,0.000000,0.000000,0.000000,0.103623,0.168590,0.056669,0.000000,0.000000,64.000000,59.000000,5.000000,0.000000,0.000000,0.000000,0.000000,0.000000,0.000000:
// measure 0
0000
0000
0000
0000
,  // measure 1
0000
0000
0000
0000
,  // measure 2
0000
0000
0000
0000
,  // measure 3
0000
0000
0000
0000
,  // measure 4
0000
0000
0000
0000
,  // measure 5
1000
0000
0000
0000
,  // measure 6
0100
0000
0000
0000
,  // measure 7
0010
0000
0000
0000
,  // measure 8
0001
0000
0000
0000
,  // measure 9
0001
0000
0000
0000
,  // measure 10
0100
0000
0000
0000
,  // measure 11
0010
0000
0000
0000
,  // measure 12
1000
0000
0000
0000
,  // measure 13
1000
0000
0000
0000
,  // measure 14
0001
0000
0000
0000
,  // measure 15
0010
0000
0000
0000
,  // measure 16
0100
0000
0000
0000
,  // measure 17
0100
0000
0000
0000
,  // measure 18
0100
0000
0100
0000
,  // measure 19
0110
0000
0000
0000
,  // measure 20
0001
0000
0001
0000
,  // measure 21
1000
0000
0000
0000
,  // measure 22
1000
0000
1000
0000
,  // measure 23
0001
0000
0000
0000
,  // measure 24
0100
0000
0100
0000
,  // measure 25
0010
0000
0000
0000
,  // measure 26
0010
0000
0010
0000
,  // measure 27
0100
0000
0000
0000
,  // measure 28
0100
0100
0100
0000
,  // measure 29
1001
0000
0000
0000
,  // measure 30
1000
1000
1000
0000
,  // measure 31
1001
0000
0000
0000
,  // measure 32
0001
0001
0001
0000
,  // measure 33
1001
0000
0000
0000
,  // measure 34
0110
0000
0000
0000
,  // measure 35
0100
0000
0100
0000
,  // measure 36
0100
0100
0100
0000
,  // measure 37
0010
0000
0010
0000
,  // measure 38
1000
0000
1000
0000
,  // measure 39
0001
0000
0001
0000
,  // measure 40
0001
0001
0001
0000
,  // measure 41
1000
0000
1000
0000
,  // measure 42
0100
0000
0100
0000
;

//---------------dance-single - ---------------
#NOTES:
     dance-single:
     :
     Easy:
     3:
     0,0,0,0,0:
// measure 0
0000
0000
0000
0000
,  // measure 1
0000
0000
0000
0000
,  // measure 2
0000
0000
0000
0000
,  // measure 3
0000
0000
0000
0000
,  // measure 4
0000
0000
0000
0000
,  // measure 5
0010
1000
0100
0000
,  // measure 6
0010
0001
0100
0000
,  // measure 7
0010
1000
0100
0000
,  // measure 8
0010
0001
0100
0000
,  // measure 9
2002
0000
0000
3003
,  // measure 10
0000
1000
0001
1000
,  // measure 11
0220
0000
0000
0330
,  // measure 12
0000
0000
0100
0010
,  // measure 13
2002
0000
0000
3003
,  // measure 14
0000
0000
0010
1000
,  // measure 15
2002
0000
0000
3003
,  // measure 16
1000
0100
0010
0001
,  // measure 17
0020
0030
0002
0003
,  // measure 18
2000
3000
0020
0030
,  // measure 19
1001
0000
1000
0000
,  // measure 20
1000
0010
0001
0100
,  // measure 21
1000
0000
1000
0000
,  // measure 22
1000
0100
0001
0010
,  // measure 23
1000
0000
1000
0000
,  // measure 24
1000
0100
0010
0001
,  // measure 25
1000
0000
0001
0000
,  // measure 26
0100
0010
1000
0001
,  // measure 27
1001
0000
0001
0000
,  // measure 28
0001
0100
1000
0010
,  // measure 29
0001
0000
0001
0000
,  // measure 30
0001
0010
1000
0100
,  // measure 31
0001
0000
0001
0000
,  // measure 32
0001
0010
0100
1000
,  // measure 33
0001
0000
1000
0000
,  // measure 34
0010
0100
0001
1000
,  // measure 35
0002
0003
2000
3000
,  // measure 36
0001
1000
0100
0000
,  // measure 37
0200
0300
0020
0030
,  // measure 38
0100
0010
0001
0000
,  // measure 39
0020
0030
0200
0300
,  // measure 40
0010
0100
1000
0000
,  // measure 41
2000
3000
0002
0003
,  // measure 42
0200
0300
0020
0030
;

//---------------dance-single - ---------------
#NOTES:
     dance-single:
     :
     Medium:
     5:
     0,0,0,0,0:
// measure 0
0000
0000
0000
0000
,  // measure 1
0000
0000
0000
0000
,  // measure 2
0000
0000
0000
0000
,  // measure 3
0000
0000
0000
0000
,  // measure 4
0000
0000
0000
0000
,  // measure 5
2000
3010
0100
0100
,  // measure 6
0002
0013
0100
0100
,  // measure 7
2000
3010
0002
0013
,  // measure 8
2000
3100
0002
0103
,  // measure 9
0010
1000
0020
0000
0000
0000
0030
0000
,  // measure 10
0010
0001
0100
1000
,  // measure 11
0010
0100
0020
0000
0000
0000
0030
0000
,  // measure 12
0010
1000
0100
0001
,  // measure 13
0010
0100
0020
0000
0000
0000
0030
0000
,  // measure 14
0010
0001
0100
1000
,  // measure 15
0010
0100
0020
0000
0000
0000
0030
0000
,  // measure 16
2000
3200
0320
0032
,  // measure 17
2000
0000
0000
3003
,  // measure 18
0000
0001
1000
0001
,  // measure 19
1001
0000
0000
1000
0000
0000
0000
0000
,  // measure 20
0001
0010
0100
1000
,  // measure 21
0100
0000
0000
0100
0000
0000
0000
0000
,  // measure 22
0010
0001
1000
0010
,  // measure 23
0100
0000
0000
0100
0000
0000
0000
0000
,  // measure 24
0001
0010
0100
1000
,  // measure 25
0010
0000
0000
0010
0000
0000
0000
0000
,  // measure 26
0100
0001
0010
1000
,  // measure 27
0100
0000
0000
0100
0000
0000
0000
0000
,  // measure 28
0001
0010
0100
0010
,  // measure 29
0001
0000
0000
0001
0000
0000
0000
0000
,  // measure 30
1000
0010
0100
0010
,  // measure 31
1000
0000
0000
1000
0000
0000
0000
0000
,  // measure 32
1000
0100
0001
0010
,  // measure 33
1000
0000
0000
1000
0000
0000
0000
0000
,  // measure 34
0010
0001
0100
1000
,  // measure 35
2000
3010
0002
0013
,  // measure 36
2000
3100
0002
0103
,  // measure 37
0100
0100
0100
0000
,  // measure 38
0010
0010
0010
0000
,  // measure 39
0010
0100
0001
1000
,  // measure 40
0100
0010
0001
0010
,  // measure 41
0100
0100
0100
0000
,  // measure 42
1000
1000
1000
1000
;

//---------------dance-single - ---------------
#NOTES:
     dance-single:
     :
     Hard:
     7:
     0,0,0,0,0:
// measure 0
0000
0000
0000
0000
,  // measure 1
0000
0000
0000
0000
,  // measure 2
0000
0000
0000
0000
,  // measure 3
0000
0000
0000
0000
,  // measure 4
0000
0000
0000
0000
,  // measure 5
2000
0000
0000
0000
3002
0000
0000
0000
0103
0010
0000
0010
0100
0000
0001
0000
,  // measure 6
0020
0000
0000
0000
0230
0000
0000
0000
0310
0100
0000
0100
1000
0000
0010
0000
,  // measure 7
2000
0000
0000
0000
3200
0000
0000
0000
0310
0001
0000
0001
0010
0000
0100
0000
,  // measure 8
0020
0000
0032
0000
0103
0100
0100
0000
,  // measure 9
0010
1000
0002
0000
1000
0000
0013
0000
,  // measure 10
0001
0000
0101
0000
1000
0010
0100
0000
,  // measure 11
0001
0010
0200
0000
1000
0000
0301
0000
,  // measure 12
0100
0000
1100
0000
0001
0010
0100
0000
,  // measure 13
1000
0001
2000
0000
0010
0000
3001
0000
,  // measure 14
0010
0000
0110
0000
0100
0001
1000
0000
,  // measure 15
0001
0010
0200
0000
0001
0000
1300
0000
,  // measure 16
0002
0023
0230
2300
,  // measure 17
3001
0100
0100
0000
0010
0000
0110
0000
,  // measure 18
1000
0100
0100
0000
0010
0000
0110
0000
,  // measure 19
0010
0100
1000
0000
0010
0100
0001
0000
,  // measure 20
0100
0010
1000
0001
0001
1000
0010
0100
,  // measure 21
0010
1000
0100
0000
0010
0001
1000
0000
,  // measure 22
0010
0100
0001
0100
0100
0001
0100
0010
,  // measure 23
1000
0100
0001
0000
0100
1000
0010
0000
,  // measure 24
0100
0001
0010
0100
0100
0010
0001
0100
,  // measure 25
0001
0100
1000
0000
0100
0010
1000
0000
,  // measure 26
1000
0001
0010
0100
0100
0010
0001
1000
,  // measure 27
0010
0100
0001
0000
0010
0100
1000
0000
,  // measure 28
0100
0010
0001
1000
1000
0001
0010
0100
,  // measure 29
0010
0001
0100
0000
0010
1000
0001
0000
,  // measure 30
0010
0100
1000
0100
0100
1000
0100
0010
,  // measure 31
0001
0100
1000
0000
0100
0001
0010
0000
,  // measure 32
0100
1000
0010
0100
0100
0010
1000
0100
,  // measure 33
1000
0100
0001
0000
0100
0010
0001
0000
,  // measure 34
0001
1000
0010
0100
0100
0010
1000
0001
,  // measure 35
1000
0000
1000
0100
0010
0000
0100
0010
,  // measure 36
0001
0000
0001
1000
0001
0000
1000
0001
,  // measure 37
0100
0010
1000
0001
0010
0000
0100
1000
,  // measure 38
0001
0010
0100
1000
0001
0000
1000
1000
,  // measure 39
0001
0000
0100
0010
1000
0000
0010
0010
,  // measure 40
0100
0000
0001
0010
0100
0000
0010
0100
,  // measure 41
1000
0001
0010
0100
1000
0000
0010
0100
,  // measure 42
0001
1000
0010
0100
0001
0000
1001
0000
;
