#TITLE:booboo;
#SUBTITLE:;
#ARTIST:Yaeji;
#TITLETRANSLIT:;
#SUBTITLETRANSLIT:;
#ARTISTTRANSLIT:;
#GENRE:;
#CREDIT:;
#BANNER:booboo.png;
#BACKGROUND:booboo-bg.png;
#LYRICSPATH:;
#CDTITLE:cdtitle.png;
#MUSIC:booboo.ogg;
#OFFSET:0.000000;
#SAMPLESTART:12.801000;
#SAMPLELENGTH:12.000000;
#SELECTABLE:YES;
#BPMS:0.000000=149.983002
;
#STOPS:
;
#BGCHANGES:0.000=booboo.mp4=1.000=1=0=0=StretchNoLoop==CrossFade==,
320.000=booboo-bg.png=1.000=1=0=1===CrossFade==,
99999=-nosongbg-=1.000=0=0=0 // don't automatically add -songbackground-
;
#KEYSOUNDS:;
#ATTACKS:;

//---------------dance-single - ----------------
#NOTES:
     dance-single:
     :
     Beginner:
     1:
     0.000000,0.000000,0.000000,0.000000,0.000000,0.000000,0.000000,0.000000,0.000000,0.000000,0.000000,0.000000,0.000000,0.000000,0.000000,0.000000,0.000000,0.000000,0.000000,0.000000,0.000000,0.000000:
0000
0000
0000
0000
,
0000
0000
0000
0000
,
0000
0000
0000
0000
,
0000
0000
0000
0000
,
1000
0000
0000
0000
,
0001
0000
0000
0000
,
0010
0000
0000
0000
,
0100
0000
0000
0000
,
1000
0000
0000
0000
,
0001
0000
0000
0000
,
0100
0000
0000
0000
,
0010
0000
0000
0000
,
1000
0000
0000
0000
,
0001
0000
0000
0000
,
0010
0000
0000
0000
,
0100
0000
0000
0000
,
1000
0000
0000
0000
,
0010
0000
0000
0000
,
0001
0000
0000
0000
,
0100
0000
0000
0000
,
1000
0000
0000
0000
,
0100
0000
0000
0000
,
0001
0000
0000
0000
,
0010
0000
0000
0000
,
1000
0000
0000
0000
,
0001
0000
0000
0000
,
0100
0000
0000
0000
,
0010
0000
0000
0000
,
1000
0000
0000
0000
,
0001
0000
0000
0000
,
0010
0000
0000
0000
,
0000
0000
0000
0000
,
0010
0000
0000
0000
,
0100
0000
0000
0000
,
1000
0000
0000
0000
,
0001
0000
0000
0000
,
1000
0000
0000
0000
,
0010
0000
0000
0000
,
0100
0000
0000
0000
,
0001
0000
0000
0000
,
1000
0000
0000
0000
,
1000
0000
0000
0000
,
1001
0000
0000
0000
,
1001
0000
0000
0000
,
0010
0000
0000
0000
,
0010
0000
0000
0000
,
0110
0000
0000
0000
,
0110
0000
0000
0000
,
0100
0000
0000
0000
,
0100
0000
0000
0000
,
0110
0000
0000
0000
,
0110
0000
0000
0000
,
0001
0000
0000
0000
,
0001
0000
0000
0000
,
1001
0000
0000
0000
,
1001
0000
0000
0000
,
0001
0000
0000
0000
,
0001
0000
0000
0000
,
0010
0000
0000
0000
,
0010
0000
0000
0000
,
0100
0000
0000
0000
,
0100
0000
0000
0000
,
1000
0000
0000
0000
,
1000
0000
0000
0000
,
1000
0000
0000
0000
,
0001
0000
0000
0000
,
0100
0000
0000
0000
,
0010
0000
0000
0000
,
1000
0000
0000
0000
,
0001
0000
0000
0000
,
0010
0000
0000
0000
,
0100
0000
0000
0000
,
1000
0000
0000
0000
,
0010
0000
0000
0000
,
0001
0000
0000
0000
,
0010
0000
0000
0000
,
0100
0000
0000
0000
,
0100
0000
0000
0000
,
0001
0000
0000
0000
;

//---------------dance-single - ----------------
#NOTES:
     dance-single:
     :
     Easy:
     3:
     0.000000,0.000000,0.000000,0.000000,0.000000,0.000000,0.000000,0.000000,0.000000,0.000000,0.000000,0.000000,0.000000,0.000000,0.000000,0.000000,0.000000,0.000000,0.000000,0.000000,0.000000,0.000000:
0000
0000
0000
0000
,
0000
0000
0000
0000
,
0000
0000
0000
0000
,
0000
0000
0000
0000
,
1000
0010
0001
0000
,
1000
0010
0001
0000
,
1000
0100
0001
0000
,
1000
0100
0001
0000
,
0001
0000
1000
0000
,
0001
0000
0100
0000
,
0001
0000
1000
0000
,
0100
0000
0010
0000
,
0001
0010
1000
0000
,
0001
0010
1000
0000
,
1000
0100
0001
0000
,
1000
0100
0001
0000
,
1000
0000
0001
0000
,
0100
0000
0010
0000
,
1000
0000
0001
0000
,
0010
0000
0100
0000
,
0010
0000
0001
0000
,
0100
0000
0001
0000
,
0010
0000
0100
0000
,
1000
0000
0010
0000
,
1000
1000
1000
0000
,
0010
0010
0010
0000
,
0001
0001
0001
0000
,
0100
0100
0100
0000
,
0001
0001
0001
0000
,
0010
0010
0010
0000
,
1001
0000
0000
0000
,
0000
0000
0000
0000
,
1000
0000
0001
0000
,
1000
0001
0100
0000
,
0010
0000
1000
0000
,
0001
0010
0100
0000
,
1000
0000
0001
0000
,
1000
0100
0010
0000
,
0001
0000
1000
0000
,
0010
0100
0001
0000
,
0100
0100
0100
0000
,
0100
0010
0100
0000
,
0110
0000
0000
0000
,
1001
0000
0000
0000
,
0001
0001
0001
0000
,
1000
0001
1000
0000
,
1001
0000
0000
0000
,
0110
0000
0000
0000
,
0100
0000
1000
0000
,
0001
0000
0010
0000
,
0110
0000
0000
0000
,
1001
0000
0000
0000
,
0100
0000
0001
0000
,
1000
0000
0010
0000
,
1001
0000
0000
0000
,
0110
0000
0000
0000
,
0100
0100
0100
0000
,
0100
0100
0100
0000
,
0001
0001
0001
0000
,
0001
0001
0001
0000
,
1000
1000
1000
0000
,
1000
1000
1000
0000
,
0010
0010
0010
0000
,
0010
0010
0010
0000
,
0001
0000
1000
0000
,
0100
0000
0010
0000
,
0001
0000
1000
0000
,
0010
0000
0100
0000
,
0010
0000
1000
0000
,
0100
0000
1000
0000
,
0010
0000
0100
0000
,
0001
0000
0010
0000
,
0001
0001
0001
0000
,
0010
0010
0010
0000
,
1000
1000
1000
0000
,
0100
0100
0100
0000
,
1000
1000
1000
0000
,
0010
0010
0010
0000
,
1001
0000
0000
0000
,
1000
1000
0001
0001
;

//---------------dance-single - ----------------
#NOTES:
     dance-single:
     :
     Medium:
     6:
     0.000000,0.000000,0.000000,0.000000,0.000000,0.000000,0.000000,0.000000,0.000000,0.000000,0.000000,0.000000,0.000000,0.000000,0.000000,0.000000,0.000000,0.000000,0.000000,0.000000,0.000000,0.000000:
0000
0000
0000
0000
,
0000
0000
0000
0000
,
0000
0000
0000
0000
,
0000
0000
0000
0000
,
1000
0000
0000
0000
0100
0000
0000
0000
0010
0000
0000
0010
0000
0000
0010
0000
,
0001
0000
0000
0000
0100
0000
0000
0000
0010
0000
0000
0010
0000
0000
0010
0000
,
0100
0000
0000
0000
0001
0000
0000
0000
1000
0000
0000
1000
0000
0000
1000
0000
,
0001
0000
0000
0000
0010
0000
0000
0000
0001
0000
0000
0001
0000
0000
0001
0000
,
0001
0101
1000
1100
,
0010
0011
0010
0110
,
0100
1100
1000
1001
,
0110
0110
0101
0101
,
1000
1100
0001
0101
,
0010
1010
0010
0110
,
0100
0101
0001
1001
,
0110
0110
1100
1100
,
0100
0001
1000
0010
,
0001
1000
0001
0100
,
0010
1000
0001
0100
,
0001
1000
0100
1100
,
0010
1000
0001
0100
,
1000
0001
1000
0100
,
0001
0010
1000
0001
,
0100
1000
0010
1010
,
0001
0000
0000
0000
1000
0000
0000
0000
0100
0000
0000
0100
0000
0000
0100
0000
,
0010
0000
0000
0000
0001
0000
0000
0000
1000
0000
0000
1000
0000
0000
1000
0000
,
0001
0000
0000
0000
0100
0000
0000
0000
0010
0000
0000
0010
0000
0000
0010
0000
,
1000
1100
0001
0101
,
0100
0000
0000
0000
0100
0000
0000
0000
0100
0000
0000
0100
0000
0000
0100
0000
,
0010
0000
0000
0000
0010
0000
0000
0000
0010
0000
0000
0010
0000
0000
0010
0000
,
1000
0100
0010
0100
,
1000
1100
0001
0101
,
0100
0000
0001
0000
0000
0100
0001
0000
,
1000
0100
0001
0010
,
1000
0000
0010
0000
0000
1000
0010
0000
,
1000
0010
0001
0100
,
1000
0000
0001
0000
0000
1000
0001
0000
,
1000
0001
0100
0010
,
0100
0000
0010
0000
0000
0010
0100
0000
,
0100
0001
1000
0100
,
0010
0000
0000
0000
0100
0000
0000
0000
0010
0000
0000
0010
0000
0000
0010
0000
,
0001
0000
0000
0000
1000
0000
0000
0000
0001
0000
0000
0100
0000
0000
0010
0000
,
1001
0000
1000
0001
1000
0000
0001
0000
,
1001
0000
0001
1000
0001
0000
1000
0000
,
0001
0000
0000
0000
0010
0000
0000
0000
0100
0000
0000
1000
0000
0000
0100
0000
,
1000
0000
0000
0000
0010
0000
0000
0000
0100
0000
0000
0001
0000
0000
0100
0000
,
1001
0000
1000
0001
1000
0000
0001
0000
,
1001
0000
0001
1000
0001
0000
1000
0000
,
0001
0000
0000
0000
0010
0000
0000
0000
1000
0000
0000
1000
0000
0000
1000
0000
,
0010
0000
0000
0000
0100
0000
0000
0000
1000
0000
0000
1000
0000
0000
1000
0000
,
1001
0000
1000
0001
1000
0000
0001
0000
,
1001
0000
0001
1000
0001
0000
1000
0000
,
0001
0000
0000
0000
0100
0000
0000
0000
0010
0000
0000
0010
0000
0000
0010
0000
,
0001
0000
0000
0000
0010
0000
0000
0000
0100
0000
0000
0100
0000
0000
0001
0000
,
1001
0000
1000
0001
1000
0000
0001
0000
,
1001
0000
0000
0001
0000
0000
1000
0000
0000
0001
0000
0000
1000
0000
0000
0000
,
0001
0001
0010
0010
,
0100
0100
1000
1000
,
1000
1000
0010
0010
,
0100
0100
0001
0001
,
0001
1000
0100
0010
,
0001
1000
0010
0100
,
0001
0010
0100
1000
,
1000
0100
0010
0001
,
1000
1010
0001
0011
,
0100
1100
0100
0110
,
0010
0011
0001
1001
,
0110
0110
1010
1010
,
0001
0011
1000
1010
,
0100
0101
0100
0110
,
0010
1010
1000
1001
,
0110
0110
0011
0011
,
1000
0000
0000
0000
0001
0000
0000
0000
0010
0000
0000
0010
0000
0000
0010
0000
,
0100
0000
0000
0000
1000
0000
0000
0000
0001
0000
0000
0001
0000
0000
0001
0000
,
1000
0000
0000
0000
0010
0000
0000
0000
0100
0000
0000
0100
0000
0000
0100
0000
,
0010
1010
0010
0011
,
0010
0000
0000
0000
0010
0000
0000
0000
0010
0000
0000
0010
0000
0000
0010
0000
,
0100
0000
0000
0000
0100
0000
0000
0000
0100
0000
0000
0100
0000
0000
0100
0000
,
0001
0010
0100
0100
,
1000
1100
0001
0101
;

//---------------dance-single - ----------------
#NOTES:
     dance-single:
     :
     Hard:
     8:
     0.600044,0.681095,0.380435,0.201863,0.209627,541.000000,492.000000,49.000000,26.000000,0.000000,0.000000,0.600044,0.681095,0.380435,0.201863,0.209627,541.000000,492.000000,49.000000,26.000000,0.000000,0.000000:
// measure 0
0000
0000
0000
0000
,  // measure 1
0000
0000
0000
0000
,  // measure 2
0000
0000
0000
0000
,  // measure 3
0000
0000
0000
0000
,  // measure 4
0000
1000
1000
0000
0001
0100
1000
0000
,  // measure 5
0000
0100
0100
0000
0010
1000
0100
0000
,  // measure 6
0000
0010
0010
0000
0001
1000
0100
0000
,  // measure 7
1000
0001
0100
0000
0010
1000
0001
0000
,  // measure 8
0100
0010
1000
0001
2000
0000
3200
0000
,  // measure 9
0302
0000
0203
0000
0310
0001
0100
0010
,  // measure 10
2000
0000
3001
0001
0002
0000
0203
0000
,  // measure 11
0310
0000
1000
0001
0200
0000
0302
0000
,  // measure 12
1003
1000
1000
1000
0100
0010
0001
0000
,  // measure 13
0100
0010
1000
0000
0001
0100
0001
0000
,  // measure 14
0100
0100
0100
0100
0010
1000
0001
0000
,  // measure 15
0010
0001
1000
0000
0010
1000
0001
0000
,  // measure 16
0100
0010
1000
0001
2000
0000
3200
0000
,  // measure 17
0302
0000
0203
0000
0310
0001
0100
0010
,  // measure 18
2000
0000
3001
0001
0002
0000
0203
0000
,  // measure 19
0310
0000
1000
0001
0200
0000
0302
0000
,  // measure 20
1003
0001
0010
0100
0020
0000
0032
0000
,  // measure 21
1003
0100
0001
0100
1000
1000
0002
0000
,  // measure 22
0203
0320
2030
3002
,  // measure 23
0203
0000
0310
0001
0010
0000
0110
0000
,  // measure 24
1000
0000
0010
0000
1000
0000
0100
0000
0010
0000
0001
0010
0000
0001
0010
0000
,  // measure 25
0001
0000
0100
0000
0001
0000
0010
0000
0100
0000
1000
0100
0000
1000
0100
0000
,  // measure 26
0010
0001
1000
0001
0100
0001
1000
0100
,  // measure 27
1100
0000
0001
0100
0101
0000
1001
0000
,  // measure 28
1000
0000
0000
0000
0001
0000
0000
0000
0010
0000
0100
0010
0000
0100
0010
0000
,  // measure 29
0100
0000
0000
0000
1000
0000
0000
0000
0010
0000
1000
0010
0000
1000
0010
0000
,  // measure 30
1000
0001
0100
1000
0001
0010
1000
0010
,  // measure 31
1010
0000
0001
0100
0101
0000
1001
0000
,  // measure 32
1000
0000
0001
0000
0010
0000
0100
0000
1000
0000
0001
1000
0000
0001
1000
0000
,  // measure 33
0010
1010
1010
0100
,  // measure 34
0001
0000
1000
0000
0010
0000
0100
0000
0001
0000
1000
0001
0000
1000
0001
0000
,  // measure 35
0010
0011
0011
0100
,  // measure 36
1000
0000
0001
0000
0100
0000
0010
0000
1000
0000
0001
1000
0000
0001
1000
0000
,  // measure 37
0100
1100
1100
0010
,  // measure 38
0001
0000
1000
0000
0100
0000
0010
0000
0001
0000
1000
0001
0000
1000
0001
0000
,  // measure 39
0100
0101
0101
0010
,  // measure 40
1000
0000
0010
0000
0001
0000
0000
0000
0010
0000
0000
0010
0000
0000
0010
0000
,  // measure 41
0100
0000
0001
0000
0010
0000
0000
0000
0100
0000
0000
0100
0000
0000
0100
0000
,  // measure 42
1001
0000
1000
0100
0100
0001
0100
0100
,  // measure 43
1001
0000
1000
0010
0010
0001
0010
0010
,  // measure 44
0001
0000
0010
0000
1000
0000
0000
0000
0010
0000
0000
0010
0000
0000
0010
0000
,  // measure 45
0100
0000
0001
0000
0010
0000
0000
0000
0100
0000
0000
0100
0000
0000
0100
0000
,  // measure 46
1001
0000
0001
0100
0100
1000
0100
0100
,  // measure 47
1001
0000
0001
0010
0010
1000
0010
0010
,  // measure 48
0001
0000
0100
0000
1000
0000
0000
0000
0100
0000
0000
0100
0000
0000
0100
0000
,  // measure 49
0010
0000
1000
0000
0100
0000
0000
0000
0010
0000
0000
0010
0000
0000
0010
0000
,  // measure 50
1001
0000
0001
0010
0010
1000
0010
0010
,  // measure 51
1001
0000
0001
0100
0100
1000
0100
0100
,  // measure 52
1000
0000
0100
0000
0001
0000
0000
0000
0100
0000
0000
0100
0000
0000
0100
0000
,  // measure 53
0010
0000
1000
0000
0100
0000
0000
0000
0010
0000
0000
0010
0000
0000
0010
0000
,  // measure 54
1001
0000
1000
0010
0010
0001
0010
0010
,  // measure 55
0110
0000
0000
0101
0000
0000
1001
0000
0000
1100
0000
0000
0110
0000
0000
0000
,  // measure 56
0100
0000
0000
0000
0100
0000
0000
0000
0100
0000
0000
1000
0100
0000
0001
0000
,  // measure 57
0100
0000
0000
0000
1100
0000
0000
0000
0010
0000
0000
0010
0001
0000
1000
0000
,  // measure 58
0100
0000
0000
0000
0010
0000
0000
0000
0100
0000
0000
0100
1000
0000
0001
0000
,  // measure 59
0100
0000
0000
0000
0101
0000
0000
0000
0100
0000
0000
0100
0001
0000
0100
0000
,  // measure 60
0010
0000
0000
0000
0010
0000
0000
0000
0010
0000
0000
0001
0010
0000
1000
0000
,  // measure 61
0010
0000
0000
0000
0011
0000
0000
0000
0100
0000
0000
0100
1000
0000
0001
0000
,  // measure 62
0010
0000
0000
0000
0100
0000
0000
0000
0010
0000
0000
0010
1000
0000
0001
0000
,  // measure 63
0010
0000
0000
0000
0011
0000
0000
0000
0010
0000
0000
0010
0001
0000
0010
0000
,  // measure 64
0001
0000
0100
0000
0001
0000
0010
0000
0100
0000
1000
0100
0000
1000
0100
0000
,  // measure 65
1000
0000
0010
0000
1000
0000
0100
0000
0010
0000
0001
0010
0000
0001
0010
0000
,  // measure 66
0100
0000
1000
0000
0001
0000
1000
0000
0010
0000
1000
0010
0000
1000
0010
0000
,  // measure 67
1010
0000
0110
0110
0101
0000
1001
0000
,  // measure 68
0001
0000
0010
0000
0001
0000
0100
0000
0010
0000
1000
0010
0000
1000
0010
0000
,  // measure 69
1000
0000
0100
0000
1000
0000
0010
0000
0100
0000
0001
0100
0000
0001
0100
0000
,  // measure 70
0010
0000
1000
0000
0001
0000
1000
0000
0100
0000
1000
0100
0000
1000
0100
0000
,  // measure 71
1100
0000
0110
0110
0011
0000
1001
0000
,  // measure 72
1000
0000
0100
0000
1000
0000
0010
0000
0100
0000
0001
0100
0000
0001
0100
0000
,  // measure 73
0001
0000
0010
0000
0001
0000
0100
0000
0010
0000
1000
0010
0000
1000
0010
0000
,  // measure 74
0100
0000
0001
0000
1000
0000
0001
0000
0010
0000
0001
0010
0000
0001
0010
0000
,  // measure 75
0011
0000
0110
0110
1100
0000
1001
0000
,  // measure 76
1000
0000
0000
0000
1000
0000
0000
0000
0010
0000
0000
0010
0000
0000
0010
0000
,  // measure 77
0100
0000
0000
0000
0100
0000
0000
0000
0001
0000
0000
0001
0000
0000
0001
0000
,  // measure 78
1000
0001
1000
0100
0010
0010
0100
1000
,  // measure 79
1100
0000
0001
0010
0011
0000
1001
0000
;
