#VERSION:0.83;
#TITLE:Weeble Wobble;
#SUBTITLE:;
#ARTIST:Eliminate;
#TITLETRANSLIT:;
#SUBTITLETRANSLIT:;
#ARTISTTRANSLIT:;
#GENRE:Brostep;
#ORIGIN:;
#TAGS:;
#CREDIT:chewi & Air12567;
#BANNER:Weeble Wobble.png;
#BACKGROUND:Weeble Wobble-bg.png;
#PREVIEWVID:;
#JACKET:Weeble Wobble-jacket.png;
#CDIMAGE:;
#DISCIMAGE:;
#LYRICSPATH:;
#CDTITLE:cdtitle.png;
#MUSIC:Weeble Wobble.ogg;
#OFFSET:0.003000;
#SAMPLESTART:22.858000;
#SAMPLELENGTH:12.000000;
#SELECTABLE:YES;
#BPMS:0.000000=125.976006
;
#STOPS:;
#DELAYS:;
#WARPS:;
#TIMESIGNATURES:0.000000=4=4
;
#TICKCOUNTS:0.000000=4
;
#COMBOS:0.000000=1
;
#SPEEDS:0.000000=1.000000=0.000000=0
;
#SCROLLS:0.000000=1.000000
;
#FAKES:;
#LABELS:0.000000=Song Start
;
#BGCHANGES:;
#KEYSOUNDS:;
#ATTACKS:;

//---------------dance-single - ----------------
#NOTEDATA:;
#CHARTNAME:;
#CHARTHASH:3808196533;
#STEPSTYPE:dance-single;
#BANNER:;
#DESCRIPTION:;
#CHARTSTYLE:;
#DIFFICULTY:Beginner;
#METER:1;
#METERF:0.000000;
#LASTSECONDHINT:99.063484;
#RADARVALUES:0.089710,0.127556,0.049060,0.019624,0.000000,64.000000,59.000000,5.000000,2.000000,0.000000,0.000000,0.000000,0.000000,0.000000,0.089710,0.127556,0.049060,0.019624,0.000000,64.000000,59.000000,5.000000,2.000000,0.000000,0.000000,0.000000,0.000000,0.000000;
#CREDIT:;
#NOTES:
0000
0000
0000
0000
,
0000
0000
0000
0000
,
0000
0000
0000
0000
,
0000
0000
0000
0000
,
2000
0000
0000
3000
,
1000
0000
0000
0000
,
0002
0000
0000
0003
,
0001
0000
0000
0000
,
0100
0000
0100
0000
,
0100
0000
0000
0000
,
0010
0000
0010
0000
,
0010
0000
0000
0000
,
0110
0000
0000
0000
,
0010
0000
0000
0000
,
0110
0000
0000
0000
,
0100
0000
0000
0000
,
1001
0000
0000
0000
,
0001
0000
0000
0000
,
1001
0000
0000
0000
,
1000
0000
0000
0000
,
1000
0000
1000
0000
,
1000
0000
0000
0000
,
0100
0000
0100
0000
,
0100
0000
0000
0000
,
0010
0000
0010
0000
,
0010
0000
0000
0000
,
0001
0000
0001
0000
,
0001
0000
0000
0000
,
0001
0000
0000
0000
,
0001
0000
0000
0000
,
0100
0000
0000
0000
,
0100
0000
0000
0000
,
0010
0000
0000
0000
,
0010
0000
0000
0000
,
1000
0000
0000
0000
,
1000
0000
0000
0000
,
1001
0000
0000
0000
,
0010
0000
0010
0000
,
0010
0000
0000
0000
,
0010
0000
0010
0000
,
0010
0000
0000
0000
,
0100
0000
0100
0000
,
0100
0000
0000
0000
,
0100
0000
0100
0000
,
0100
0000
0000
0000
,
0001
0000
0000
0000
,
0010
0000
0000
0000
,
1000
0000
0000
0000
,
0100
0000
0000
0000
,
1000
0000
0000
0000
,
0010
0000
0000
0000
,
0001
0000
0000
0000
,
0100
0000
0000
0000
;

//---------------dance-single - ----------------
#NOTEDATA:;
#CHARTNAME:;
#CHARTHASH:604373354;
#STEPSTYPE:dance-single;
#BANNER:;
#DESCRIPTION:;
#CHARTSTYLE:;
#DIFFICULTY:Easy;
#METER:4;
#METERF:4.000000;
#LASTSECONDHINT:98.587204;
#RADARVALUES:0.201847,0.228497,0.000000,0.039248,0.000000,144.000000,144.000000,0.000000,4.000000,0.000000,0.000000,0.000000,0.000000,0.000000,0.201847,0.228497,0.000000,0.039248,0.000000,144.000000,144.000000,0.000000,4.000000,0.000000,0.000000,0.000000,0.000000,0.000000;
#CREDIT:chewi;
#NOTES:
0000
0000
0000
0000
,
0000
0000
0000
0000
,
0000
0000
0000
0000
,
0000
0000
0000
0000
,
2000
0000
0000
3000
,
0020
0000
0000
0030
,
0002
0000
0000
0003
,
0200
0000
0000
0300
,
1000
1000
0001
0001
,
0100
0100
0010
0010
,
1000
0100
0010
0001
,
1000
0000
0000
0000
,
1000
0010
0010
0010
,
1000
0001
1000
0000
,
0001
0010
0010
0010
,
0001
1000
0001
0000
,
0100
0010
0010
0010
,
1000
0001
1000
0000
,
0100
0010
0010
0010
,
0001
1000
0001
0000
,
1000
0100
1000
0000
,
0100
0010
0001
0000
,
0001
0010
0001
0000
,
0010
0100
1000
0000
,
1000
0001
1000
0000
,
0001
0100
0010
0000
,
0100
0010
0100
0000
,
0010
1000
0010
0000
,
1000
1000
1000
0000
,
0100
0100
0100
0000
,
0001
0001
0001
0000
,
0010
0010
0010
0000
,
1000
1000
1000
0000
,
0001
0001
0001
0000
,
1000
0001
1000
0001
,
0000
0000
0000
0000
,
1000
0010
0001
0010
,
1000
0100
0001
0000
,
0001
0010
1000
0010
,
0001
0010
0100
0000
,
0100
0010
0001
1000
,
0010
0100
0001
0000
,
0100
0010
1000
0001
,
0010
0100
1000
0000
,
1000
0100
1000
0000
,
0100
0010
0001
0000
,
0001
0010
0001
0000
,
0010
0100
1000
0000
,
1000
0001
1000
0000
,
0001
0100
0010
0000
,
0100
0010
0100
0000
,
0010
1000
0010
1000
;

//---------------dance-single - ----------------
#NOTEDATA:;
#CHARTNAME:;
#CHARTHASH:3848315213;
#STEPSTYPE:dance-single;
#BANNER:;
#DESCRIPTION:;
#CHARTSTYLE:;
#DIFFICULTY:Medium;
#METER:7;
#METERF:7.000000;
#LASTSECONDHINT:98.587204;
#RADARVALUES:0.306976,0.355440,0.098120,0.049060,0.000000,219.000000,209.000000,10.000000,5.000000,0.000000,0.000000,0.000000,0.000000,0.000000,0.306976,0.355440,0.098120,0.049060,0.000000,219.000000,209.000000,10.000000,5.000000,0.000000,0.000000,0.000000,0.000000,0.000000;
#CREDIT:chewi;
#NOTES:
0000
0000
0000
0000
,
0000
0000
0000
0000
,
0000
0000
0000
0000
,
0000
0000
0000
0000
,
1002
0100
0000
0103
,
0200
0010
0000
0310
,
0020
1000
0000
1030
,
2000
0001
0000
3001
,
1000
0001
1000
0001
,
0010
0100
0010
0100
,
0010
0001
0100
0010
,
1010
0000
0000
0000
,
1000
0000
0100
0010
0100
0000
1000
0001
,
1000
0000
0010
0100
0010
0000
0100
0000
,
0001
0000
0010
0100
0010
0000
0001
1000
,
0001
0000
0100
0010
0100
0000
0010
0000
,
0100
0000
0001
1000
0001
0000
0010
0100
,
0010
0000
0001
1000
0001
0000
0100
0000
,
0010
0000
1000
0001
1000
0000
0010
0100
,
0010
0000
1000
0001
1000
0000
0010
0000
,
1000
0000
0100
0000
0010
0001
0010
0000
,
0001
0000
0010
0000
0100
1000
0100
0000
,
0010
0000
0001
0000
1000
0010
1000
0000
,
0010
0000
0100
0000
0001
0100
0001
0000
,
0100
0000
0001
0000
0010
0100
1000
0000
,
0100
0000
0010
0000
0001
1000
0001
0000
,
1000
0000
0010
0000
0100
0001
0100
0000
,
0010
0000
1000
0000
0001
0010
0100
0000
,
0010
0001
0100
0100
,
0010
1000
0100
0100
,
0010
0001
0100
0010
,
1000
0100
0010
0001
,
0100
0010
1000
1000
,
0100
0010
0001
0001
,
0100
0010
1000
0002
,
0003
0000
0000
0000
,
1001
1000
1001
0001
,
1000
0100
1000
0000
0001
0100
0001
0000
,
0101
0100
0101
0001
,
0100
0010
0100
0000
0010
1000
0010
0000
,
0110
0100
0110
0010
,
1000
0100
0010
0000
0100
0010
0001
0000
,
0011
0010
0011
0001
,
1000
0100
1000
0000
0001
0100
0001
0000
,
0000
0100
0000
0010
0000
1000
0000
0001
,
0000
1000
0000
0100
0010
0000
0010
0000
,
0000
0100
0000
1000
0000
0010
0000
0100
,
0000
0001
0000
0010
0001
0000
0001
0000
,
0000
0010
0000
0100
0000
1000
0000
0001
,
0000
0100
0000
0010
0100
0000
0100
0000
,
0000
0100
0000
0001
0000
0010
0000
0100
,
0000
1000
0000
0010
1000
0000
1000
0000
;

//---------------dance-single - ----------------
#NOTEDATA:;
#CHARTNAME:;
#CHARTHASH:3412419664;
#STEPSTYPE:dance-single;
#BANNER:;
#DESCRIPTION:;
#CHARTSTYLE:;
#DIFFICULTY:Hard;
#METER:9;
#METERF:9.000000;
#LASTSECONDHINT:98.944420;
#RADARVALUES:0.541062,0.586052,0.176616,0.137368,0.426822,386.000000,368.000000,18.000000,14.000000,0.000000,0.000000,0.000000,0.000000,0.000000,0.541062,0.586052,0.176616,0.137368,0.426822,386.000000,368.000000,18.000000,14.000000,0.000000,0.000000,0.000000,0.000000,0.000000;
#CREDIT:Air12567;
#NOTES:
// measure 0
0000
0000
0000
0000
,  // measure 1
0000
0000
0000
0000
,  // measure 2
0000
0000
0000
0000
,  // measure 3
0000
0000
0000
0000
,  // measure 4
1000
0100
1000
0010
0000
1000
0100
0010
,  // measure 5
0000
0001
0010
1000
0000
0010
0100
1000
,  // measure 6
0000
0001
0100
0010
0000
0001
0100
1000
,  // measure 7
0000
0100
0001
1000
0000
0100
0010
0001
,  // measure 8
0101
0100
1100
0100
,  // measure 9
1010
0010
0011
0010
,  // measure 10
0001
0001
0100
0100
1000
1000
0010
0010
,  // measure 11
0000
0000
0000
0000
,  // measure 12
0101
0000
0001
0000
0010
0000
0100
1000
0000
0100
1000
0000
0010
0000
0100
0001
,  // measure 13
0000
1000
0001
0000
0100
0000
0010
0100
0000
0001
0100
0000
0010
0000
1000
0000
,  // measure 14
2100
0000
3100
0000
0010
0000
0001
0100
0000
0001
0100
0000
0010
0000
1000
0001
,  // measure 15
0000
1000
0100
0000
0010
0000
0100
1000
0000
0100
0010
0000
0001
0000
1000
0000
,  // measure 16
0200
0000
0010
0000
0310
0000
0001
0100
0000
0001
1000
0000
0010
0000
1000
0001
,  // measure 17
0000
1000
0100
0000
0010
0000
0100
1000
0000
0001
1000
0000
0010
0000
0100
0000
,  // measure 18
0002
1003
1000
0010
0010
0100
0100
0001
,  // measure 19
0001
0000
0010
0000
0010
0100
0010
0000
0100
0000
0010
0000
0010
0000
0000
0000
,  // measure 20
0001
0000
0000
0000
0100
0000
0100
0000
1000
0100
1000
0000
0001
0000
0001
0000
,  // measure 21
0100
0001
0100
0000
0010
0000
0010
0000
1000
0001
1000
0000
0100
0000
0100
0000
,  // measure 22
0020
0000
0001
0000
0031
0000
1000
0000
0010
0100
0010
0000
1000
0000
1000
0000
,  // measure 23
0001
1000
0001
0000
0010
0000
0010
0000
0100
1000
0100
0000
0010
0000
0010
0000
,  // measure 24
0002
1000
0103
0000
2000
0001
3100
0000
,  // measure 25
0002
1000
0013
0000
2000
0001
3010
0000
,  // measure 26
0100
0001
0000
0010
0000
0100
0000
1000
0001
1000
0000
0010
0000
0100
0000
0001
,  // measure 27
0010
0001
0000
0100
0000
0010
0000
1000
0010
1000
0000
0100
0000
0010
0000
0001
,  // measure 28
1000
0000
0110
0000
2000
0010
3010
0000
,  // measure 29
0002
0100
0103
0000
2000
0010
3010
0000
,  // measure 30
0001
0000
0110
0000
0002
0010
0013
0000
,  // measure 31
2000
0100
3100
0000
0002
0010
0013
0000
,  // measure 32
1000
0100
0001
0100
1000
0100
0010
0001
,  // measure 33
0100
1000
0100
0001
0100
0010
1000
0001
,  // measure 34
0010
0010
0100
0100
1000
1000
0001
0001
,  // measure 35
0000
0000
0000
0000
,  // measure 36
1000
0000
1000
0100
0000
1000
0100
0000
0010
0000
0010
0001
0000
0010
0001
0000
,  // measure 37
0100
0000
0100
0001
0000
0100
0001
0000
1000
0000
1000
0010
0000
1000
0010
0000
,  // measure 38
0110
0000
0001
0010
0000
0001
0010
0000
0100
0000
0100
1000
0000
0100
1000
0000
,  // measure 39
0001
0000
0001
0100
0000
0001
0100
0000
0010
0000
0010
1000
0000
0010
1000
0000
,  // measure 40
0110
0000
1000
0001
0000
0100
0001
0000
1000
0000
0001
1000
0000
0100
1000
0000
,  // measure 41
0001
0000
1000
0001
0000
0100
0001
0000
1000
0000
0001
1000
0000
0100
1000
0000
,  // measure 42
0110
0000
0000
0001
0000
0001
0100
0000
0000
1000
0100
1000
0000
1000
0100
0000
,  // measure 43
0000
0001
0100
0001
0000
0001
0100
0000
0000
1000
0100
1000
0000
1000
0100
0000
,  // measure 44
0110
0010
0001
0100
0001
1000
0100
1000
,  // measure 45
0010
1000
0001
1000
0010
0100
0001
0010
,  // measure 46
0100
0010
0000
1001
0000
0100
0000
1001
,  // measure 47
0000
0000
0010
0000
0000
0000
1001
0000
0000
0001
1000
0001
0000
0100
0010
0000
,  // measure 48
1000
0100
0001
0100
1000
0100
0001
0100
,  // measure 49
1000
0000
0010
0000
0001
0000
0010
0000
1000
0010
1000
0010
0000
0100
0010
0100
,  // measure 50
0000
1001
0000
0010
0000
1001
0000
0100
,  // measure 51
0000
0000
0101
0000
0000
0000
0010
0000
0000
0100
1000
0100
1000
0001
0100
0001
;
