#VERSION:0.83;
#TITLE:Wait;
#SUBTITLE:;
#ARTIST:효린;
#TITLETRANSLIT:;
#SUBTITLETRANSLIT:;
#ARTISTTRANSLIT:Hyolyn;
#GENRE:;
#ORIGIN:;
#TAGS:;
#CREDIT:;
#BANNER:Wait.png;
#BACKGROUND:Wait-bg.png;
#PREVIEWVID:;
#JACKET:Wait-jacket.png;
#CDIMAGE:;
#DISCIMAGE:;
#LYRICSPATH:;
#CDTITLE:cdtitle.png;
#MUSIC:Wait.ogg;
#OFFSET:0.000000;
#SAMPLESTART:15.654000;
#SAMPLELENGTH:12.000000;
#SELECTABLE:YES;
#BPMS:0.000000=114.987999
;
#STOPS:;
#DELAYS:;
#WARPS:;
#TIMESIGNATURES:0.000000=4=4
;
#TICKCOUNTS:0.000000=4
;
#COMBOS:0.000000=1
;
#SPEEDS:0.000000=1.000000=0.000000=0
;
#SCROLLS:0.000000=1.000000
;
#FAKES:;
#LABELS:0.000000=Song Start
;
#BGCHANGES:0.000=Wait.mp4=1.000=1=0=1===CrossFade==,
224.000=Wait-bg.png=1.000=1=0=1===CrossFade==,
99999=-nosongbg-=1.000=0=0=0 // don't automatically add -songbackground-
;
#KEYSOUNDS:;
#ATTACKS:
;

//---------------dance-single - ----------------
#NOTEDATA:;
#CHARTNAME:;
#CHARTHASH:4001892072;
#STEPSTYPE:dance-single;
#BANNER:;
#DESCRIPTION:;
#CHARTSTYLE:;
#DIFFICULTY:Beginner;
#METER:1;
#METERF:0.000000;
#LASTSECONDHINT:116.359970;
#RADARVALUES:0.000000,0.000000,0.000000,0.000000,0.000000,0.000000,0.000000,0.000000,0.000000,0.000000,0.000000,0.000000,0.000000,0.000000,0.000000,0.000000,0.000000,0.000000,0.000000,0.000000,0.000000,0.000000,0.000000,0.000000,0.000000,0.000000,0.000000,0.000000;
#CREDIT:;
#NOTES:
0000
0000
0000
0000
,
0000
0000
0000
0000
,
0000
0000
0000
0000
,
0000
0000
0000
0000
,
2000
0000
0000
3000
,
1000
0000
0000
0000
,
0002
0000
0000
0003
,
0001
0000
0000
0000
,
1001
0000
0000
0000
,
0100
0000
0000
0000
,
0010
0000
0000
0000
,
0001
0000
0000
0000
,
1001
0000
0000
0000
,
0010
0000
0000
0000
,
0100
0000
0000
0000
,
1000
0000
0000
0000
,
1000
0000
0000
0000
,
0010
0000
0000
0000
,
0001
0000
0000
0000
,
0100
0000
0000
0000
,
1000
0000
0000
0000
,
0100
0000
0000
0000
,
0001
0000
0000
0000
,
0010
0000
0000
0000
,
1000
0000
1000
0000
,
1000
0000
0000
0000
,
0001
0000
0001
0000
,
0001
0000
0000
0000
,
0010
0000
0010
0000
,
0010
0000
0000
0000
,
0100
0000
0100
0000
,
0100
0000
0000
0000
,
1000
0000
0000
0000
,
0010
0000
0000
0000
,
1000
0000
0000
0000
,
0100
0000
0000
0000
,
0010
0000
0000
0000
,
0001
0000
0000
0000
,
0100
0000
0000
0000
,
0001
0000
0000
0000
,
1000
0000
0000
0000
,
0001
0000
0000
0000
,
0100
0000
0000
0000
,
0010
0000
0000
0000
,
1000
0000
0000
0000
,
0001
0000
0000
0000
,
0010
0000
0000
0000
,
0100
0000
0000
0000
,
0110
0000
0000
0000
,
1000
0000
0000
0000
,
0010
0000
0000
0000
,
0100
0000
0000
0000
,
0110
0000
0000
0000
,
0001
0000
0000
0000
,
0010
0000
0000
0000
,
0100
0000
0100
0100
;

//---------------dance-single - ----------------
#NOTEDATA:;
#CHARTNAME:;
#CHARTHASH:4030751920;
#STEPSTYPE:dance-single;
#BANNER:;
#DESCRIPTION:;
#CHARTSTYLE:;
#DIFFICULTY:Easy;
#METER:2;
#METERF:0.000000;
#LASTSECONDHINT:116.359970;
#RADARVALUES:0.000000,0.000000,0.000000,0.000000,0.000000,0.000000,0.000000,0.000000,0.000000,0.000000,0.000000,0.000000,0.000000,0.000000,0.000000,0.000000,0.000000,0.000000,0.000000,0.000000,0.000000,0.000000,0.000000,0.000000,0.000000,0.000000,0.000000,0.000000;
#CREDIT:;
#NOTES:
0000
0000
0000
0000
,
0000
0000
0000
0000
,
0000
0000
0000
0000
,
0000
0000
0000
0000
,
2000
0000
0000
3000
,
0002
0000
0000
0003
,
0200
0000
0000
0300
,
0020
0000
0000
0030
,
0010
1000
0010
1000
,
0010
1000
0010
1000
,
0001
0100
0001
0100
,
0001
0100
0001
0000
,
1000
0001
1000
0001
,
1000
0001
1000
0001
,
0010
0100
0010
0100
,
0010
0100
0010
0010
,
0002
0000
0000
0003
,
2000
0000
0000
3000
,
0020
0000
0000
0030
,
0200
0000
0000
0300
,
0002
0000
0000
0003
,
2000
0000
0000
3000
,
0002
0000
0000
0003
,
1001
0000
0000
0000
,
0010
1000
0100
0000
,
0001
0000
0000
0000
,
0010
0001
0100
0000
,
1000
0000
0000
0000
,
0010
1000
0100
0000
,
0001
0000
0000
0000
,
0010
0001
0100
0000
,
1000
0000
0000
0000
,
1000
0001
1000
0001
,
1000
0001
1000
0001
,
0100
0010
0100
0010
,
0100
0010
0100
0000
,
0100
0001
0100
0001
,
0100
0001
0100
0001
,
0010
0001
0010
0001
,
0010
0001
0010
0000
,
0010
0000
0100
0000
,
2000
0000
3002
0000
,
0103
0000
0010
0000
,
0200
0000
0302
0000
,
0013
0000
0100
0000
,
2000
0000
3002
0000
,
1003
0000
0010
0000
,
0200
0000
0301
0001
,
0001
0000
1000
0000
,
0001
1000
0001
0000
,
1000
0000
0001
0000
,
1000
0001
1000
0000
,
1000
0000
0100
0000
,
0010
0001
0010
0000
,
0001
0000
0100
0000
,
0010
1000
0010
1000
;

//---------------dance-single - ----------------
#NOTEDATA:;
#CHARTNAME:;
#CHARTHASH:3896559126;
#STEPSTYPE:dance-single;
#BANNER:;
#DESCRIPTION:;
#CHARTSTYLE:;
#DIFFICULTY:Medium;
#METER:4;
#METERF:0.000000;
#LASTSECONDHINT:116.881767;
#RADARVALUES:0.000000,0.000000,0.000000,0.000000,0.000000,0.000000,0.000000,0.000000,0.000000,0.000000,0.000000,0.000000,0.000000,0.000000,0.000000,0.000000,0.000000,0.000000,0.000000,0.000000,0.000000,0.000000,0.000000,0.000000,0.000000,0.000000,0.000000,0.000000;
#CREDIT:;
#NOTES:
0000
0000
0000
0000
,
0000
0000
0000
0000
,
0000
0000
0000
0000
,
0000
0000
0000
0000
,
1000
0100
0010
0001
,
0000
0000
0000
0000
,
0001
0010
0100
1000
,
0000
0000
0000
0000
,
2000
3020
0032
0023
,
2030
3020
0032
0023
,
2030
3200
0302
0203
,
2300
3200
0301
0100
,
0002
0023
2030
3020
,
0032
0023
2030
3020
,
0032
0203
2300
3200
,
0302
0203
1300
0100
,
1000
0100
0010
0100
,
1000
1000
0001
0001
,
0100
0000
0100
0000
,
0010
0010
1000
1000
,
0001
0000
0001
0000
,
1000
1000
0001
0001
,
0010
0000
0010
0000
,
0100
0100
1000
1000
,
2000
3010
0020
1030
,
0010
0000
0000
0010
0000
0000
0100
0000
,
0200
0301
0002
0103
,
0010
0000
0000
0010
0000
0000
1000
0000
,
1000
0001
0010
0100
,
1000
0000
0000
1000
0000
0000
1000
0000
,
0001
0100
0010
1000
,
2002
0000
0000
3003
,
2000
3200
0302
0203
,
2300
3200
0302
0203
,
2300
3020
0032
0023
,
2030
3020
0031
0010
,
2000
3200
0302
0203
,
2300
3200
0302
0203
,
2300
3020
0032
0023
,
2030
3020
0031
0010
,
1000
0100
0010
0001
,
0100
0000
0000
0100
0000
0000
0100
0000
,
0010
1000
0001
0010
,
0100
0000
0000
0100
0000
0000
0100
0000
,
1000
0010
0100
0001
,
0010
0000
0000
0010
0000
0000
0010
0000
,
0100
1000
0001
0100
,
0010
0010
1000
0001
,
1001
0001
0001
0000
,
1000
0100
0001
0010
,
1000
1000
1000
0000
,
1000
0010
0001
0100
,
1000
0001
0001
0000
,
1000
0010
0001
0100
,
1000
0001
0001
0000
,
1000
0100
0001
0020
,
0030
0000
0000
0000
;

//---------------dance-single - ----------------
#NOTEDATA:;
#CHARTNAME:;
#CHARTHASH:1419423908;
#STEPSTYPE:dance-single;
#BANNER:;
#DESCRIPTION:;
#CHARTSTYLE:;
#DIFFICULTY:Hard;
#METER:8;
#METERF:0.000000;
#LASTSECONDHINT:116.620872;
#RADARVALUES:0.410533,0.469502,0.008403,0.168055,0.352914,342.000000,341.000000,1.000000,20.000000,0.000000,0.000000,0.000000,0.000000,0.000000,0.410533,0.469502,0.008403,0.168055,0.352914,342.000000,341.000000,1.000000,20.000000,0.000000,0.000000,0.000000,0.000000,0.000000;
#CREDIT:;
#NOTES:
// measure 0
0000
0000
0000
0000
,  // measure 1
0000
0000
0000
0000
,  // measure 2
0000
0000
0000
0000
,  // measure 3
0000
0000
0000
0000
,  // measure 4
1000
0000
0100
0000
0010
0001
0100
0000
,  // measure 5
0001
0000
0000
0001
0000
0000
0001
0000
0000
0000
0001
0000
0001
0000
0000
0000
,  // measure 6
0001
0000
0010
0000
0100
1000
0010
0000
,  // measure 7
1000
0000
0000
1000
0000
0000
1000
0000
1000
0000
0001
0000
1000
0000
0001
0000
,  // measure 8
1000
0000
0000
1000
0010
0000
0000
0010
0001
0000
0000
0001
0010
0000
0000
0010
,  // measure 9
1000
0000
0000
1000
0010
0000
0000
0010
0001
0000
0000
0001
0020
0000
0000
0000
,  // measure 10
0130
0000
0000
0100
0001
0000
0000
0001
0010
0000
0000
0010
0100
0000
0000
0100
,  // measure 11
1000
0000
0000
1000
0100
0000
0000
0000
0100
0000
1000
0000
0010
0000
0100
0000
,  // measure 12
1000
0000
0000
1000
0100
0000
0000
0100
0001
0000
0000
0001
0100
0000
0000
0100
,  // measure 13
1000
0000
0000
1000
0100
0000
0000
0100
0001
0000
0000
0001
0020
0000
0000
0000
,  // measure 14
0130
0000
0000
0100
1000
0000
0000
1000
0010
0000
0000
0010
0100
0000
0000
0100
,  // measure 15
0001
0000
0000
0001
0100
0000
0000
0000
1000
0000
0100
0000
0010
0000
0100
0000
,  // measure 16
0001
0000
0000
0000
0010
0000
0000
0001
0100
0000
0000
0000
0010
0000
0000
0000
,  // measure 17
0100
0100
0001
0001
1000
1000
0100
0100
,  // measure 18
0010
0000
0000
0000
0100
0000
0000
0010
0001
0000
0000
0000
1000
0000
0000
0000
,  // measure 19
0010
0010
1000
1000
0001
0001
0010
0010
,  // measure 20
1000
0000
0000
0000
0010
0000
0000
0100
0010
0000
0000
0000
0100
0000
0000
0000
,  // measure 21
0100
0100
1000
1000
0001
0001
0100
0100
,  // measure 22
0010
0000
0000
0000
0100
0000
0000
0010
1000
0000
0000
0000
0001
0000
0000
0000
,  // measure 23
0010
0010
0001
0001
1000
1000
0010
0010
,  // measure 24
1000
0000
0000
1000
0100
0000
0000
0000
0001
0000
0000
0001
0100
0000
0000
0000
,  // measure 25
0100
0000
0000
0010
0000
0000
1000
0000
0000
0001
0000
0000
1000
0000
0000
0000
,  // measure 26
0001
0000
0000
0001
0100
0000
0000
0000
1000
0000
0000
1000
0100
0000
0000
0000
,  // measure 27
0100
0000
0000
0010
0000
0000
0001
0000
0000
1000
0000
0000
0001
0000
0000
0000
,  // measure 28
0010
0000
0000
0010
0001
0000
0000
0000
0010
0000
0000
0010
1000
0000
0000
0000
,  // measure 29
0010
0000
0000
0100
0000
0000
1000
0000
0000
0001
0000
0000
1000
0000
0000
0000
,  // measure 30
0001
0000
0000
0001
0100
0000
0000
0000
1000
0000
0000
1000
0100
0000
0000
0000
,  // measure 31
1000
0010
1000
0010
1000
0010
1000
0010
1000
0000
0000
0000
0101
0000
0000
0000
,  // measure 32
0001
0000
0000
0001
0010
0000
0000
0010
1000
0000
0000
1000
0010
0000
0000
0010
,  // measure 33
0001
0000
0000
0001
0010
0000
0000
0010
1000
0000
0000
1000
0020
0000
0000
0000
,  // measure 34
0130
0000
0000
0100
1000
0000
0000
1000
0010
0000
0000
0010
0100
0000
0000
0100
,  // measure 35
0001
0000
0000
0001
0100
0000
0000
0000
0100
0000
0001
0000
0010
0000
0100
0000
,  // measure 36
0001
0000
0000
0001
0100
0000
0000
0100
1000
0000
0000
1000
0100
0000
0000
0100
,  // measure 37
0001
0000
0000
0001
0100
0000
0000
0100
1000
0000
0000
1000
0020
0000
0000
0000
,  // measure 38
0130
0000
0000
0100
0001
0000
0000
0001
0010
0000
0000
0010
0100
0000
0000
0100
,  // measure 39
1000
0000
0000
1000
0100
0000
0000
0000
0001
0000
0100
0000
0010
0000
0100
0000
,  // measure 40
2000
0100
3200
0010
0320
0001
0032
0000
,  // measure 41
0103
0000
0000
0100
0000
0000
0010
0000
0000
0010
0000
0000
0100
0000
0000
0000
,  // measure 42
0020
1000
2030
0001
3002
0010
0023
0000
,  // measure 43
0130
0000
0000
0100
0000
0000
0010
0000
0000
0010
0000
0000
0100
0000
0000
0000
,  // measure 44
1000
1000
0010
0000
0100
0100
0001
0000
,  // measure 45
0010
0000
0000
0001
0000
0000
0010
0000
0000
0100
0000
0000
1000
0000
0000
0000
,  // measure 46
0100
0100
1000
0000
0010
0010
0100
0000
,  // measure 47
0010
1000
0001
0010
0100
1000
0001
1000
,  // measure 48
0002
0100
0203
0010
0320
1000
2030
0000
,  // measure 49
3100
0000
0000
0100
0000
0000
0010
0000
0000
0010
0000
0000
0100
0000
0000
0000
,  // measure 50
0020
0001
0032
1000
2003
0010
3020
0000
,  // measure 51
0130
0000
0000
0100
0000
0000
0010
0000
0000
0010
0000
0000
0100
0000
0000
0000
,  // measure 52
0001
0001
0010
0000
0100
0100
1000
0000
,  // measure 53
0010
0000
0000
1000
0000
0000
0010
0000
0000
0100
0000
0000
0001
0000
0000
0000
,  // measure 54
0100
0100
0001
0000
0010
0010
0100
0000
,  // measure 55
0010
0001
1000
0010
0100
0001
1000
0001
;
