#VERSION:0.83;
#TITLE:Someone to Call My Lover;
#SUBTITLE:;
#ARTIST:Janet Jackson;
#TITLETRANSLIT:;
#SUBTITLETRANSLIT:;
#ARTISTTRANSLIT:;
#GENRE:2-Step;
#ORIGIN:;
#TAGS:;
#CREDIT:chewi;
#BANNER:Someone to Call My Lover.png;
#BACKGROUND:Someone to Call My Lover-bg.png;
#PREVIEWVID:;
#JACKET:Someone to Call My Lover-jacket.png;
#CDIMAGE:;
#DISCIMAGE:;
#LYRICSPATH:;
#CDTITLE:cdtitle.png;
#MUSIC:Someone to Call My Lover.ogg;
#OFFSET:1.877000;
#SAMPLESTART:30.024000;
#SAMPLELENGTH:12.000000;
#SELECTABLE:YES;
#BPMS:0.000000=127.893990
;
#STOPS:;
#DELAYS:;
#WARPS:;
#TIMESIGNATURES:0.000000=4=4
;
#TICKCOUNTS:0.000000=4
;
#COMBOS:0.000000=1
;
#SPEEDS:0.000000=1.000000=0.000000=0
;
#SCROLLS:0.000000=1.000000
;
#FAKES:;
#LABELS:0.000000=Song Start
;
#BGCHANGES:4.000=Someone to Call My Lover.mp4=1.000=1=0=1===CrossFade==,
227.000=Someone to Call My Lover-bg.png=1.000=1=0=1===CrossFade==,
99999=-nosongbg-=1.000=0=0=0 // don't automatically add -songbackground-
;
#KEYSOUNDS:;
#ATTACKS:
;

//---------------dance-single - chewi----------------
#NOTEDATA:;
#CHARTNAME:chewi;
#CHARTHASH:2147483647;
#STEPSTYPE:dance-single;
#BANNER:;
#DESCRIPTION:chewi;
#CHARTSTYLE:;
#DIFFICULTY:Beginner;
#METER:1;
#METERF:0.000000;
#LASTSECONDHINT:104.617447;
#RADARVALUES:0.088365,0.135011,0.000000,0.114194,0.000000,65.000000,65.000000,0.000000,12.000000,0.000000,0.000000,0.000000,0.000000,0.000000,0.088365,0.135011,0.000000,0.114194,0.000000,65.000000,65.000000,0.000000,12.000000,0.000000,0.000000,0.000000,0.000000,0.000000;
#CREDIT:chewi;
#NOTES:
// measure 0
0000
0000
0000
0000
,  // measure 1
0000
0000
0000
0000
,  // measure 2
0000
0000
0000
0000
,  // measure 3
0000
0000
0000
0000
,  // measure 4
0000
0000
0000
0000
,  // measure 5
1000
0000
0010
0000
,  // measure 6
1000
0000
0000
0000
,  // measure 7
0010
0000
0100
0000
,  // measure 8
0010
0000
0000
0000
,  // measure 9
0100
0000
0100
0000
,  // measure 10
0001
0000
0000
0000
,  // measure 11
0010
0000
0010
0000
,  // measure 12
0100
0000
0000
0000
,  // measure 13
1000
0000
1000
0000
,  // measure 14
0001
0000
0000
0000
,  // measure 15
1000
0000
1000
0000
,  // measure 16
0010
0000
0000
0000
,  // measure 17
2000
0000
0000
3000
,  // measure 18
1000
0000
0000
0000
,  // measure 19
0002
0000
0000
0003
,  // measure 20
0001
0000
0000
0000
,  // measure 21
0200
0000
0000
0300
,  // measure 22
0100
0000
0000
0000
,  // measure 23
0020
0000
0000
0030
,  // measure 24
0010
0000
0000
0000
,  // measure 25
2000
0000
0000
3000
,  // measure 26
1000
0000
0000
0000
,  // measure 27
0002
0000
0000
0003
,  // measure 28
0001
0000
0000
0000
,  // measure 29
0020
0000
0000
0030
,  // measure 30
0010
0000
0000
0000
,  // measure 31
0200
0000
0000
0300
,  // measure 32
0100
0000
0000
0000
,  // measure 33
0100
0000
0100
0000
,  // measure 34
0010
0000
0000
0000
,  // measure 35
0001
0000
0001
0000
,  // measure 36
1000
0000
0000
0000
,  // measure 37
0100
0000
0100
0000
,  // measure 38
0010
0000
0000
0000
,  // measure 39
1000
0000
1000
0000
,  // measure 40
0001
0000
0010
0000
,  // measure 41
0100
0000
0000
0000
,  // measure 42
0001
0000
0000
0000
,  // measure 43
0010
0000
0000
0000
,  // measure 44
1000
0000
0000
0000
,  // measure 45
0100
0000
0000
0000
,  // measure 46
0001
0000
0000
0000
,  // measure 47
0010
0000
0000
0000
,  // measure 48
1000
0000
0000
0000
,  // measure 49
2000
0000
0000
3000
,  // measure 50
1000
0000
0000
0000
,  // measure 51
0002
0000
0000
0003
,  // measure 52
0001
0000
0000
0000
,  // measure 53
0200
0000
0000
0300
,  // measure 54
0100
0000
0000
0000
,  // measure 55
0020
0000
0000
0030
,  // measure 56
0010
0000
0010
0010
;

//---------------dance-single - chewi----------------
#NOTEDATA:;
#CHARTNAME:chewi;
#CHARTHASH:33162010;
#STEPSTYPE:dance-single;
#BANNER:;
#DESCRIPTION:chewi;
#CHARTSTYLE:;
#DIFFICULTY:Easy;
#METER:2;
#METERF:3.000000;
#LASTSECONDHINT:104.617447;
#RADARVALUES:0.167213,0.189015,0.000000,0.000000,0.000000,123.000000,123.000000,0.000000,0.000000,0.000000,0.000000,0.000000,0.000000,0.000000,0.167213,0.189015,0.000000,0.000000,0.000000,123.000000,123.000000,0.000000,0.000000,0.000000,0.000000,0.000000,0.000000,0.000000;
#CREDIT:chewi;
#NOTES:
// measure 0
0000
0000
0000
0000
,  // measure 1
0000
0000
0000
0000
,  // measure 2
0000
0000
0000
0000
,  // measure 3
0000
0000
0000
0000
,  // measure 4
0000
0000
0000
0000
,  // measure 5
1000
0000
0010
0000
,  // measure 6
1000
0010
1000
0000
,  // measure 7
0010
0000
0100
0000
,  // measure 8
0010
0100
0010
0000
,  // measure 9
0100
0000
0100
0000
,  // measure 10
0001
0001
0001
0000
,  // measure 11
0010
0000
0010
0000
,  // measure 12
0100
0100
0100
0000
,  // measure 13
1000
0000
1000
0000
,  // measure 14
0001
0001
0001
0000
,  // measure 15
1000
0000
1000
0000
,  // measure 16
0010
0010
0010
0000
,  // measure 17
1000
0000
0010
0000
,  // measure 18
0001
0000
0100
0000
,  // measure 19
1000
0000
0100
0000
,  // measure 20
0001
0000
0010
0000
,  // measure 21
1000
0000
0100
0000
,  // measure 22
0001
0000
0010
0000
,  // measure 23
1000
0000
0010
0000
,  // measure 24
0001
0000
0010
0000
,  // measure 25
1000
0000
0100
0000
,  // measure 26
0001
0000
0010
0000
,  // measure 27
1000
0000
0010
0000
,  // measure 28
0001
0000
0100
0000
,  // measure 29
1000
0000
0010
0000
,  // measure 30
0001
0000
0100
0000
,  // measure 31
1000
0000
0100
0000
,  // measure 32
0001
0000
0100
0000
,  // measure 33
0100
0010
0100
0000
,  // measure 34
0010
0000
0100
0000
,  // measure 35
0001
1000
0001
0000
,  // measure 36
1000
0000
0001
0000
,  // measure 37
0010
0100
1000
0000
,  // measure 38
0100
0000
0010
0000
,  // measure 39
0001
0100
0010
0000
,  // measure 40
0100
0000
0010
0000
,  // measure 41
0100
0100
0100
0000
,  // measure 42
0001
0001
0001
0000
,  // measure 43
0010
0010
0010
0000
,  // measure 44
1000
1000
1000
0000
,  // measure 45
0100
0100
0100
0000
,  // measure 46
0001
0001
0001
0000
,  // measure 47
0010
0010
0010
0000
,  // measure 48
1000
1000
1000
0000
,  // measure 49
1000
0000
0010
0000
,  // measure 50
0001
0000
0100
0000
,  // measure 51
1000
0000
0100
0000
,  // measure 52
0001
0000
0010
0000
,  // measure 53
1000
0000
0100
0000
,  // measure 54
0001
0000
0010
0000
,  // measure 55
1000
0000
0010
0000
,  // measure 56
0001
0000
0010
0010
;

//---------------dance-single - chewi----------------
#NOTEDATA:;
#CHARTNAME:chewi;
#CHARTHASH:76030780;
#STEPSTYPE:dance-single;
#BANNER:;
#DESCRIPTION:chewi;
#CHARTSTYLE:;
#DIFFICULTY:Medium;
#METER:5;
#METERF:0.000000;
#LASTSECONDHINT:104.617447;
#RADARVALUES:0.348021,0.486040,0.466294,0.000000,0.000000,256.000000,207.000000,49.000000,0.000000,0.000000,0.000000,0.000000,0.000000,0.000000,0.348021,0.486040,0.466294,0.000000,0.000000,256.000000,207.000000,49.000000,0.000000,0.000000,0.000000,0.000000,0.000000,0.000000;
#CREDIT:chewi;
#NOTES:
// measure 0
0000
0000
0000
0000
,  // measure 1
0000
0000
0000
0000
,  // measure 2
0000
0000
0000
0000
,  // measure 3
0000
0000
0000
0000
,  // measure 4
0000
0000
0000
0000
,  // measure 5
1000
0000
0010
0000
0001
0001
0001
0000
,  // measure 6
1000
0000
0100
0000
0001
0001
0001
0000
,  // measure 7
1000
0000
0001
0000
0100
0100
0100
0000
,  // measure 8
0001
0000
1000
0000
0010
0010
0010
0000
,  // measure 9
0000
0100
0100
0000
0101
0000
0101
0000
,  // measure 10
0000
0001
0001
0000
1001
0000
1001
0000
,  // measure 11
0000
1000
1000
0000
1010
0000
1010
0000
,  // measure 12
0000
0010
0010
0000
0110
0000
0110
0000
,  // measure 13
0000
0100
0100
0000
1100
0000
1100
0000
,  // measure 14
0000
1000
1000
0000
1001
0000
1001
0000
,  // measure 15
0000
0001
0001
0000
0011
0000
0011
0000
,  // measure 16
0000
0010
0010
0000
0110
0000
0110
0000
,  // measure 17
1001
1001
0100
0010
,  // measure 18
1010
1010
0010
0100
,  // measure 19
0100
0001
0010
0100
,  // measure 20
1000
0000
0010
0000
1000
1000
1000
0000
,  // measure 21
1001
1001
0010
0100
,  // measure 22
0101
0101
0100
0010
,  // measure 23
0010
1000
0100
0010
,  // measure 24
0001
0000
0100
0000
0001
0001
0001
0000
,  // measure 25
0110
0110
0010
1000
,  // measure 26
0011
0011
0010
0100
,  // measure 27
1100
1100
1010
1010
,  // measure 28
0110
0110
1001
1001
,  // measure 29
0110
0110
0010
0001
,  // measure 30
0011
0011
0010
0100
,  // measure 31
1100
1100
0011
0011
,  // measure 32
1001
1001
0110
0110
,  // measure 33
0010
0001
0010
0100
,  // measure 34
0010
0000
1000
0000
0000
0010
0000
0010
,  // measure 35
0010
0100
0010
0100
,  // measure 36
0010
0000
0001
0000
0000
0001
0001
0000
,  // measure 37
0100
1000
0100
0010
,  // measure 38
0100
0000
0001
0000
0000
0100
0000
0100
,  // measure 39
0100
0010
0100
0010
,  // measure 40
0100
0000
1000
0000
0000
1000
1000
0000
,  // measure 41
0001
0100
1000
0100
,  // measure 42
0001
0010
1000
0010
,  // measure 43
1000
0001
0001
1000
,  // measure 44
1000
0100
0010
0001
,  // measure 45
1000
0010
0001
0010
,  // measure 46
1000
0100
0001
0100
,  // measure 47
0001
1000
1000
0001
,  // measure 48
0001
0010
0100
1000
,  // measure 49
1001
1000
0001
0010
,  // measure 50
0100
0001
0100
1000
,  // measure 51
0010
0100
0001
0100
,  // measure 52
0010
1000
0001
0010
,  // measure 53
0100
0000
0100
0000
,  // measure 54
0010
0000
0010
0000
,  // measure 55
0001
0000
0001
0000
,  // measure 56
1000
0000
1000
1000
;

//---------------dance-single - chewi----------------
#NOTEDATA:;
#CHARTNAME:chewi;
#CHARTHASH:76030780;
#STEPSTYPE:dance-single;
#BANNER:;
#DESCRIPTION:chewi;
#CHARTSTYLE:;
#DIFFICULTY:Hard;
#METER:7;
#METERF:0.000000;
#LASTSECONDHINT:104.852020;
#RADARVALUES:0.481248,0.487110,0.352099,0.000000,0.000000,354.000000,317.000000,37.000000,0.000000,0.000000,0.000000,0.000000,0.000000,0.000000,0.481248,0.487110,0.352099,0.000000,0.000000,354.000000,317.000000,37.000000,0.000000,0.000000,0.000000,0.000000,0.000000,0.000000;
#CREDIT:chewi;
#NOTES:
// measure 0
0000
0000
0000
0000
,  // measure 1
0000
0000
0000
0000
,  // measure 2
0000
0000
0000
0000
,  // measure 3
0000
0000
0000
0000
,  // measure 4
0000
0000
0000
0000
,  // measure 5
1000
0000
0010
0100
0001
0100
0010
0000
,  // measure 6
1000
0001
1000
0010
1000
0001
1000
0000
,  // measure 7
0001
0000
0010
0100
1000
0100
0010
0000
,  // measure 8
0001
1000
0001
0010
0001
1000
0001
0000
,  // measure 9
0001
0100
1000
0000
1000
0100
0001
0000
,  // measure 10
0001
0100
1000
0100
0001
0100
0010
1000
,  // measure 11
1000
0010
0001
0000
0001
0010
1000
0000
,  // measure 12
1000
0010
0001
0010
1000
0010
0100
0001
,  // measure 13
0001
0100
0001
0000
0010
0100
1000
0000
,  // measure 14
0001
0010
0100
1000
0001
0100
0010
1000
,  // measure 15
0010
1000
0010
0000
0010
0100
0001
0000
,  // measure 16
1000
0010
0100
0001
0010
0100
1000
0001
,  // measure 17
1001
0000
1001
0000
0100
0100
0010
0000
,  // measure 18
1010
0000
1010
0000
0010
0010
0100
0000
,  // measure 19
0100
0001
0100
0001
0010
0001
0010
0001
,  // measure 20
0010
0100
0010
0100
1000
0100
1000
0100
,  // measure 21
1001
0000
1001
0000
0010
0010
0100
0000
,  // measure 22
1100
0000
1100
0000
0100
0100
0010
0000
,  // measure 23
0010
0001
0010
0001
0100
0001
0100
0001
,  // measure 24
0100
0010
0100
0010
1000
0010
1000
0010
,  // measure 25
0110
0000
0110
0000
0010
1000
0001
0000
,  // measure 26
0011
0000
0011
0000
0010
0100
0010
0001
,  // measure 27
0101
0101
1010
1010
,  // measure 28
0010
0100
0010
0100
0001
1000
0001
1000
,  // measure 29
0110
0000
0110
0000
0010
0001
1000
0000
,  // measure 30
1010
0000
1010
0000
0010
0100
0010
1000
,  // measure 31
1100
1100
0011
0011
,  // measure 32
0010
0100
0010
0100
1000
0001
1000
0001
,  // measure 33
0000
0101
0011
0101
,  // measure 34
0011
0000
1001
0000
0000
1001
0000
1000
,  // measure 35
0010
1100
1010
1100
,  // measure 36
1010
0000
1001
0000
0000
1001
0000
0001
,  // measure 37
0100
0001
0010
0000
0010
0001
0100
0000
,  // measure 38
0001
0010
0100
1000
0000
0100
1000
0000
,  // measure 39
0100
1000
0010
0000
0010
1000
0100
0000
,  // measure 40
1000
0010
0100
0001
0000
0100
0001
0000
,  // measure 41
0001
0100
1000
0000
1000
0100
0001
0000
,  // measure 42
0001
0100
1000
0100
0001
0100
0010
1000
,  // measure 43
1000
0010
0001
0000
0001
0010
1000
0000
,  // measure 44
1000
0010
0001
0010
1000
0010
0100
0001
,  // measure 45
0001
0100
0001
0000
0010
0100
1000
0000
,  // measure 46
0001
0010
0100
1000
0001
0100
0010
1000
,  // measure 47
0010
1000
0010
0000
0010
0100
0001
0000
,  // measure 48
1000
0010
0100
0001
0010
0100
1000
0001
,  // measure 49
1001
0000
1000
0000
0001
0100
0010
0000
,  // measure 50
0100
0000
0001
0000
0010
0100
1000
0000
,  // measure 51
0010
0000
0100
0000
0001
0100
0010
0000
,  // measure 52
1000
0000
0001
0000
1000
0010
1000
0010
,  // measure 53
1000
0000
1000
0000
0001
1000
0001
0000
,  // measure 54
0010
0000
0010
0000
0100
1000
0100
0000
,  // measure 55
0010
0000
0010
0000
0001
0100
0001
0000
,  // measure 56
0100
0000
0100
0000
0010
1000
0010
1000
;
