#TITLE:So Special;
#SUBTITLE:;
#ARTIST:Citizen Queen;
#TITLETRANSLIT:;
#SUBTITLETRANSLIT:;
#ARTISTTRANSLIT:;
#GENRE:;
#CREDIT:;
#BANNER:;
#BACKGROUND:So Special-bg.png;
#LYRICSPATH:;
#CDTITLE:cdtitle.png;
#MUSIC:So Special.ogg;
#OFFSET:-0.102000;
#SAMPLESTART:83.501999;
#SAMPLELENGTH:10.000000;
#SELECTABLE:YES;
#BPMS:0.000000=100.000000
;
#STOPS:4.000000=1.200000,
134.000000=1.800000
;
#BGCHANGES:-0.102=So Special.mp4=1.000=1=0=0=StretchNoLoop==CrossFade==,
99999=-nosongbg-=1.000=0=0=0 // don't automatically add -songbackground-
;
#KEYSOUNDS:;
#ATTACKS:;

//---------------dance-single - ----------------
#NOTES:
     dance-single:
     :
     Beginner:
     1:
     0.106809,0.158160,0.095854,0.115025,0.000000,78.000000,68.000000,10.000000,12.000000,0.000000,0.000000,0.106809,0.158160,0.095854,0.115025,0.000000,78.000000,68.000000,10.000000,12.000000,0.000000,0.000000:
// measure 0
0000
0000
0000
0000
,  // measure 1
0000
0000
1000
0000
,  // measure 2
0100
0000
1000
0000
,  // measure 3
0010
0000
0001
0000
,  // measure 4
0100
0000
0001
0000
,  // measure 5
0010
0000
0100
0000
,  // measure 6
1000
0000
0001
0000
,  // measure 7
0010
0000
0100
0000
,  // measure 8
1000
0000
0010
0000
,  // measure 9
0100
0000
0200
0000
,  // measure 10
0000
0300
0020
0000
,  // measure 11
0000
0030
2000
0000
,  // measure 12
0000
3000
0002
0000
,  // measure 13
0000
0003
2000
0000
,  // measure 14
0000
3000
0200
0000
,  // measure 15
0000
0300
0020
0000
,  // measure 16
0000
0030
0002
0000
,  // measure 17
0000
0003
1001
0000
,  // measure 18
1000
0000
1000
1000
,  // measure 19
1000
0000
1001
0000
,  // measure 20
0001
0000
0001
0001
,  // measure 21
0001
0000
0110
0000
,  // measure 22
0000
0000
0110
0000
,  // measure 23
0000
0000
1001
0000
,  // measure 24
0000
0000
1000
1000
,  // measure 25
1000
0000
2000
0000
,  // measure 26
0000
3000
1000
0000
,  // measure 27
1000
0000
0002
0000
,  // measure 28
0000
0003
0001
0000
,  // measure 29
0001
0000
0020
0000
,  // measure 30
0000
0030
0010
0000
,  // measure 31
0010
0000
0200
0000
,  // measure 32
0000
0300
0100
0000
,  // measure 33
0100
0000
0000
1001
,  // measure 34
0000
1000
0000
1000
,  // measure 35
1000
1000
0000
1001
,  // measure 36
0000
0001
0000
0001
,  // measure 37
0001
0001
0000
0110
,  // measure 38
0000
0000
0000
0110
,  // measure 39
0000
0000
0000
1001
,  // measure 40
0000
0000
0000
1000
,  // measure 41
1000
1000
0000
0000
;

//---------------dance-single - ----------------
#NOTES:
     dance-single:
     :
     Easy:
     2:
     0.120503,0.177930,0.000000,0.076683,0.000000,88.000000,88.000000,0.000000,8.000000,0.000000,0.000000,0.120503,0.177930,0.000000,0.076683,0.000000,88.000000,88.000000,0.000000,8.000000,0.000000,0.000000:
0000
0000
0000
0000
,
0000
0000
1000
0100
,
0000
0000
0001
0100
,
0000
0000
1000
0010
,
0000
0000
0001
0010
,
0000
0000
0100
1000
,
0000
0000
0010
0100
,
0000
0000
0100
0001
,
0000
0000
0001
1000
,
0000
0000
2000
0000
,
0000
3000
0002
0000
,
0000
0003
0100
0100
,
0100
0000
0010
0010
,
0010
0000
0020
0000
,
0000
0030
0200
0000
,
0000
0300
0001
0001
,
0001
0000
1000
1000
,
1000
0000
1000
0000
,
0010
0000
0001
0000
,
0100
0000
1000
0000
,
0010
0000
0001
0000
,
0010
0000
0010
0000
,
0010
0010
0000
0000
,
0100
0100
0001
0001
,
1000
1000
0001
0001
,
1000
0000
2000
0000
,
0000
3000
0001
0001
,
0001
0000
0002
0000
,
0000
0003
1000
1000
,
1000
0000
0200
0000
,
0000
0300
0100
0010
,
0100
0000
0020
0000
,
0000
0030
0010
0100
,
0010
0000
0000
0001
,
0000
0100
0000
1000
,
0000
0010
0000
0001
,
0000
0100
0000
1000
,
0000
0100
0000
0100
,
0000
0100
0100
0000
,
0000
0010
0010
1000
,
1000
0001
0001
1000
,
1000
0001
0000
0000
;

//---------------dance-single - ----------------
#NOTES:
     dance-single:
     :
     Medium:
     4:
     0.260176,0.276779,0.268392,0.000000,0.000000,190.000000,162.000000,28.000000,0.000000,0.000000,0.000000,0.260176,0.276779,0.268392,0.000000,0.000000,190.000000,162.000000,28.000000,0.000000,0.000000,0.000000:
0000
0000
0000
0000
,
0000
0000
1000
1100
,
0001
0100
0001
0000
1000
0000
1100
0000
,
0001
0010
0001
0000
1000
0000
1100
0000
,
0001
0000
0101
0000
0100
0001
1000
0010
,
1000
0100
0001
0101
,
1000
0100
1000
0000
0001
0000
0101
0000
,
1000
0010
1000
0000
0001
0000
0101
0000
,
1000
0000
1100
0000
0100
1000
0001
0010
,
0001
0100
0010
1000
,
0001
1001
0010
0001
,
1000
0000
1001
0000
1000
0001
0100
0000
,
0100
0100
0100
0000
0001
0010
0100
0000
,
1000
0001
0100
0001
,
1000
1001
0100
1000
,
0001
0000
1001
0000
0001
1000
0010
0000
,
0100
0100
0100
0000
0010
1000
0100
0010
,
0001
0000
1000
1000
1000
0000
0010
0000
,
1000
0100
1000
1100
,
0001
0101
0001
0100
,
0001
0010
0001
0011
,
1000
1010
0110
0000
,
0100
0010
0100
0000
1001
0000
0000
0000
,
1000
0001
1000
0000
1100
0000
0101
0000
,
1100
0000
0010
0100
,
0001
0000
1000
0000
,
1001
0000
0001
1000
,
0010
0000
0100
0000
,
0110
0000
0010
0100
,
0001
0000
1000
0000
,
1001
0000
0001
1000
,
0100
0000
0100
0010
,
0001
1000
0010
0100
,
0001
1000
0000
0001
,
0100
0001
0010
0001
,
0011
1000
1010
1000
,
0010
1000
0100
1000
,
1100
0001
0101
0100
,
0000
0010
1000
0100
,
0000
0010
0001
0100
,
0010
1000
0001
1000
,
0100
0010
0000
0000
;

//---------------dance-single - ----------------
#NOTES:
     dance-single:
     :
     Hard:
     6:
     0.351922,0.340163,0.172538,0.172538,0.038342,257.000000,239.000000,18.000000,18.000000,0.000000,0.000000,0.351922,0.340163,0.172538,0.172538,0.038342,257.000000,239.000000,18.000000,18.000000,0.000000,0.000000:
0000
0000
0000
0000
,
0000
0000
0000
1000
0100
0010
0001
0000
,
1000
0010
0110
0000
0001
0010
0100
0000
,
1000
0001
1001
0000
1000
0010
0100
0001
,
0000
0000
0100
0001
0000
0000
0000
0000
1000
0000
0010
0000
1000
0000
0100
0000
,
1000
0001
0001
0010
0100
1000
0001
0000
,
0001
0100
0101
0000
0001
1000
0100
0000
,
0010
0100
0110
0000
0100
1000
0001
0010
,
0000
0000
0001
0010
0000
0000
0000
0000
0001
0000
0100
0000
0001
0000
0010
0000
,
0001
1000
1000
1000
0001
0010
1000
0010
,
0001
0000
1001
0000
1000
0010
0001
0010
,
1000
0000
1001
0000
0010
0100
0001
1000
,
0100
0100
0100
0000
0010
0001
1000
0001
,
0100
0010
0100
0000
1000
0100
0001
0100
,
1000
0000
1001
0000
0001
0100
1000
0100
,
0001
0000
1001
0000
0100
0010
1000
0001
,
0010
0010
0010
0000
0100
1000
0001
1000
,
0010
0000
1000
1000
1000
0001
0100
1000
,
0100
0000
0000
0001
0010
0100
0100
0001
,
0010
0100
0100
0000
0000
0001
0010
1000
,
0010
0000
0000
0001
1000
0010
0010
0001
,
1000
0010
0010
0000
2002
0000
3003
0000
,
1000
0001
1000
0001
0022
0000
0033
0000
,
0010
0100
1000
0001
2000
0000
3020
0000
,
0230
0000
0000
0000
0300
0000
0001
0001
0000
0000
0001
0000
0010
0000
0100
0000
,
2000
3002
0103
0000
,
0110
0000
0000
0000
0100
0000
0000
0000
0010
0000
0000
1000
0000
0000
0100
0000
,
1100
0000
0001
0001
1000
0000
0000
0010
,
0110
0000
0000
0000
0000
0000
0000
0000
0100
0000
0000
0001
0000
0000
0010
0000
,
0011
0000
1000
1000
0010
0000
0100
0000
,
0110
0000
0000
0000
0010
0000
0000
0000
0100
0000
0000
0001
0000
0000
0010
0000
,
0011
0000
1100
1000
0001
0000
1000
0010
,
0100
0010
1000
0100
0010
0100
1000
0001
,
1000
0000
0000
0000
0001
1000
0001
0000
0000
0000
0000
0000
1000
0000
0001
0000
,
0010
1000
0010
0000
0000
0001
0100
0010
,
0010
0001
0100
0010
0010
0001
1000
2002
,
0000
0000
0000
0000
3003
0001
1000
0100
,
0100
0001
1000
0100
0100
0000
0002
0000
,
0013
0000
0100
1000
0100
0000
0020
0000
,
0031
0000
1000
0100
1000
0001
2000
0000
,
3200
0000
0000
0000
0320
0000
0000
0000
0031
0000
1000
1000
0000
0000
0001
0000
,
0100
0010
2000
0000
0002
0000
3003
0000
;
