#TITLE:正解はいらない;
#SUBTITLE:;
#ARTIST:ナナヲアカリ;
#TITLETRANSLIT:Seikai Wa Iranai;
#SUBTITLETRANSLIT:;
#ARTISTTRANSLIT:NANAOAKARI;
#GENRE:;
#CREDIT:;
#BANNER:Seikai Wa Iranai.png;
#BACKGROUND:Seikai Wa Iranai-bg.png;
#LYRICSPATH:;
#CDTITLE:cdtitle.png;
#MUSIC:Seikai Wa Iranai.ogg;
#OFFSET:0.000000;
#SAMPLESTART:34.917999;
#SAMPLELENGTH:12.000000;
#SELECTABLE:YES;
#BPMS:0.000000=122.000000
;
#STOPS:
;
#BGCHANGES:0.000=Seikai Wa Iranai.mp4=1.000=1=0=1===CrossFade==,
177.000=Seikai Wa Iranai-bg.png=1.000=1=0=1===CrossFade==,
99999=-nosongbg-=1.000=0=0=0 // don't automatically add -songbackground-
;
#KEYSOUNDS:;
#ATTACKS:;

//---------------dance-single - ----------------
#NOTES:
     dance-single:
     :
     Beginner:
     1:
     0.140396,0.173962,0.124259,0.022592,0.000000,87.000000,76.000000,11.000000,2.000000,0.000000,0.000000,0.140396,0.173962,0.124259,0.022592,0.000000,87.000000,76.000000,11.000000,2.000000,0.000000,0.000000:
// measure 0
0000
0000
0000
0000
,  // measure 1
0000
0000
0000
0000
,  // measure 2
1000
0000
1000
0000
,  // measure 3
0001
0000
0001
0000
,  // measure 4
0010
0000
0010
0000
,  // measure 5
0100
0000
0100
0000
,  // measure 6
0110
0000
0000
0000
,  // measure 7
1001
0000
0000
0000
,  // measure 8
0110
0000
0000
0000
,  // measure 9
1001
0000
0000
0000
,  // measure 10
1000
0000
0001
0000
,  // measure 11
0100
0000
0100
0000
,  // measure 12
0001
0000
1000
0000
,  // measure 13
0100
0000
0100
0000
,  // measure 14
0020
0000
0000
0030
,  // measure 15
0010
0000
0000
0000
,  // measure 16
0200
0000
0000
0300
,  // measure 17
0100
0000
0000
0000
,  // measure 18
1000
0000
1000
0000
,  // measure 19
1000
1000
1000
0000
,  // measure 20
0001
0000
0001
0000
,  // measure 21
0001
0001
0001
0000
,  // measure 22
0100
0000
0100
0000
,  // measure 23
0100
0100
0100
0000
,  // measure 24
0010
0000
0010
0000
,  // measure 25
0010
0010
0010
0000
,  // measure 26
0110
0000
0010
0000
,  // measure 27
0100
0000
0100
0000
,  // measure 28
0110
0000
0010
0000
,  // measure 29
1000
0000
0001
0000
,  // measure 30
1000
0000
1000
0000
,  // measure 31
0001
0000
0001
0000
,  // measure 32
0100
0000
0100
0000
,  // measure 33
0010
0000
0000
0000
,  // measure 34
0110
0000
0010
0000
,  // measure 35
0100
0000
0000
1000
,  // measure 36
1000
0000
1000
0000
,  // measure 37
0001
0000
0001
0000
,  // measure 38
0010
0000
0010
0000
,  // measure 39
0100
0000
0100
0000
,  // measure 40
0110
0000
0000
0000
,  // measure 41
1001
0000
0000
0000
,  // measure 42
0110
0000
0000
0000
,  // measure 43
1001
0000
0000
0000
,  // measure 44
1000
0000
0000
0000
;

//---------------dance-single - ----------------
#NOTES:
     dance-single:
     :
     Easy:
     3:
     0.235607,0.249929,0.225925,0.282406,0.000000,146.000000,126.000000,20.000000,25.000000,0.000000,0.000000,0.235607,0.249929,0.225925,0.282406,0.000000,146.000000,126.000000,20.000000,25.000000,0.000000,0.000000:
0000
0000
0000
0000
,
0000
0000
0000
0000
,
1000
0001
2002
3003
,
0001
1000
2002
3003
,
0010
0100
0220
0330
,
0100
0010
0220
0330
,
0010
1000
0000
1000
,
0010
0100
0000
0100
,
0010
0001
0000
0001
,
0010
0100
0000
0100
,
0001
0010
0100
1000
,
0001
0010
0100
0000
,
1000
0010
0100
0001
,
1000
0010
0100
0000
,
0001
0000
1000
0000
,
0001
1000
0001
0000
,
1000
0000
0001
0000
,
1000
0001
1000
0000
,
1001
0000
1001
0000
,
1000
0100
0001
0000
,
1001
0000
1001
0000
,
0001
0100
1000
0000
,
1001
0000
1001
0000
,
0010
0100
0001
0000
,
1001
0000
1001
0000
,
0010
0100
1000
0000
,
2000
3100
2000
3010
,
2000
3100
2000
3001
,
0002
0013
0002
1003
,
0002
0103
0002
1003
,
1001
0000
1001
0000
,
0110
0000
0110
0000
,
0010
1000
0100
0001
,
0010
0000
0010
0000
,
0010
0001
0100
1000
,
0010
0000
0010
0000
,
0001
1000
2002
3003
,
1000
0001
2002
3003
,
0100
0010
0220
0330
,
0010
0100
0220
0330
,
0100
0001
0000
0001
,
0100
0010
0000
0010
,
0100
1000
0000
1000
,
0100
0010
0010
0100
,
2000
3000
0000
0000
;

//---------------dance-single - ----------------
#NOTES:
     dance-single:
     :
     Medium:
     6:
     0.279179,0.273369,0.112962,0.304999,0.073426,173.000000,163.000000,10.000000,27.000000,0.000000,0.000000,0.279179,0.273369,0.112962,0.304999,0.073426,173.000000,163.000000,10.000000,27.000000,0.000000,0.000000:
0000
0000
0000
0000
,
0000
0000
0000
0000
,
1000
0000
0000
0100
0000
0000
1000
0000
0100
0000
0000
0000
0000
0000
0000
0000
,
0010
0000
0000
0001
0000
0000
0010
0000
0001
0000
0000
0000
0000
0000
0000
0000
,
0001
0000
0000
0010
0000
0000
0001
0000
0010
0000
0000
0000
0000
0000
0000
0000
,
0100
0000
0000
1000
0000
0000
0100
0000
1000
0000
0000
0000
1001
0000
0000
0000
,
0200
0010
0001
0310
,
0020
0001
0100
1030
,
2000
0001
0100
3010
,
0002
0010
1000
0103
,
0100
0000
0000
0100
0010
0000
0000
0000
0020
0000
0000
0000
0230
0000
0000
0000
,
0301
0000
0000
0001
1000
0000
0000
0000
0002
0000
0000
0000
2003
0000
0000
0000
,
3010
0000
0000
0010
0100
0000
0000
0000
0200
0000
0000
0000
0320
0000
0000
0000
,
1030
0000
0000
1000
0001
0000
0000
0000
0020
0000
0000
0000
0230
0000
0000
0000
,
1300
0100
0000
1000
0000
0010
0000
0100
,
0000
0001
0000
0010
0000
0010
0000
0100
,
0010
0010
0001
1000
,
1000
0000
0000
0001
0000
0000
1001
0000
0000
0000
0000
0000
0000
0000
0000
0000
,
2000
3100
0002
0103
,
2000
3010
0002
0013
,
0010
1000
0001
0100
,
0010
0000
0010
0010
0000
0000
0000
0000
,
0002
0013
2000
3010
,
0002
0103
2000
3100
,
0100
0001
1000
0010
,
0100
0000
0100
0100
0000
0000
1000
0000
,
1001
0001
1001
1000
,
1000
0010
0001
0100
,
1000
0000
0001
0000
,
0100
0100
0010
1000
,
1001
0001
1001
1000
,
1000
0100
0001
0010
,
1000
0000
0001
0000
,
0100
0100
0010
0000
,
0110
0000
1001
0000
,
0220
0000
0000
0330
,
0001
0000
0000
0010
0000
0000
0001
0000
0010
0000
0000
0000
0000
0000
0000
0000
,
0100
0000
0000
1000
0000
0000
0100
0000
1000
0000
0000
0000
0000
0000
0000
0000
,
1000
0000
0000
0100
0000
0000
1000
0000
0100
0000
0000
0000
0000
0000
0000
0000
,
0010
0000
0000
0001
0000
0000
0010
0000
0001
0000
0000
0000
1001
0000
0000
0000
,
0020
0100
1000
0130
,
0200
1000
0010
0301
,
0002
1000
0010
0103
,
2000
0010
0100
0002
,
3003
0000
0000
0000
;

//---------------dance-single - ----------------
#NOTES:
     dance-single:
     :
     Hard:
     7:
     0.322750,0.349901,0.203332,0.429257,0.084722,200.000000,182.000000,18.000000,38.000000,0.000000,0.000000,0.322750,0.349901,0.203332,0.429257,0.084722,200.000000,182.000000,18.000000,38.000000,0.000000,0.000000:
0000
0000
0000
0000
,
0000
0000
0000
0000
,
1000
0000
0000
0100
0000
0000
1000
0000
2200
0000
0000
0000
3300
0000
0000
0000
,
0001
0000
0000
0100
0000
0000
0001
0000
0202
0000
0000
0000
0303
0000
0000
0000
,
0100
0000
0000
0010
0000
0000
0100
0000
0220
0000
0000
0000
0330
0000
0000
0000
,
1000
0000
0000
0001
0000
0000
1000
0000
2002
0000
0000
0000
3003
0000
0000
0000
,
0002
0000
0103
0000
0000
0001
0100
0000
,
0200
0000
0301
0000
0000
0100
0001
0010
,
0002
0000
0013
0000
0000
0001
0010
0000
,
0100
0000
1000
0000
0100
1000
0100
1000
,
0020
1030
0020
0031
,
0010
1000
0100
0010
,
0002
0103
2000
3100
,
0001
0100
1000
0010
,
0110
0000
0000
0010
0010
0010
0000
1000
,
1000
1000
0000
0001
1000
0001
1000
0001
,
1000
0100
0001
0100
,
0100
0000
0000
0001
0000
0000
0101
0000
0000
0000
0000
0000
0000
0000
0000
0000
,
0002
0103
0002
0013
,
0001
0000
0001
0000
1000
0001
1000
0000
,
2000
3010
2000
3100
,
1000
0000
1000
0000
0001
1000
0001
0000
,
0100
0010
1000
0001
,
0010
0000
0100
0000
0010
0010
0100
0000
,
0100
0010
0001
1000
,
0010
0000
0000
0000
0100
0000
0000
0000
0010
0000
0010
0000
0100
0000
0000
0110
,
0000
0000
0000
0000
1000
0000
0000
1001
0000
0000
0000
0000
0001
0000
0000
0011
,
0000
0010
0010
0000
0100
1000
0100
0000
,
1200
0001
1000
0310
,
0102
0000
0000
0000
1000
0000
0000
0000
0013
0000
0000
0000
0010
0000
0000
0110
,
0000
0000
0000
0000
0001
0000
0000
1001
0000
0000
0000
0000
1000
0000
0000
1010
,
0000
0100
0100
0000
0010
0001
0010
0000
,
0001
0001
1000
1000
,
0002
0103
2000
3100
,
0001
0010
0100
0000
,
1000
0010
0200
0300
,
0001
0000
0000
0010
0000
0000
0001
0000
0022
0000
0000
0000
0033
0000
0000
0000
,
1000
0000
0000
0010
0000
0000
1000
0000
2020
0000
0000
0000
3030
0000
0000
0000
,
0010
0000
0000
0100
0000
0000
0010
0000
0220
0000
0000
0000
0330
0000
0000
0000
,
0001
0000
0000
1000
0000
0000
0001
0000
2002
0000
0000
0000
3003
0000
0000
0000
,
2000
0000
3010
0000
0000
1000
0010
0000
,
0020
0000
1030
0000
0000
0010
1000
0100
,
2000
0000
3100
0000
0000
1000
0100
0000
,
0020
0000
0031
0000
0000
0010
0002
0000
,
0200
0303
0000
0000
;
