#VERSION:0.83;
#TITLE:SUBSTANCE;
#SUBTITLE:;
#ARTIST:DEMI LOVATO;
#TITLETRANSLIT:;
#SUBTITLETRANSLIT:;
#ARTISTTRANSLIT:;
#GENRE:;
#ORIGIN:;
#TAGS:;
#CREDIT:;
#BANNER:SUBSTANCE.png;
#BACKGROUND:SUBSTANCE-bg.png;
#PREVIEWVID:;
#JACKET:SUBSTANCE-jacket.png;
#CDIMAGE:;
#DISCIMAGE:;
#LYRICSPATH:;
#CDTITLE:cdtitle.png;
#MUSIC:SUBSTANCE.ogg;
#OFFSET:-0.353000;
#SAMPLESTART:27.535000;
#SAMPLELENGTH:20.000000;
#SELECTABLE:YES;
#BPMS:0.000000=169.964005
;
#STOPS:;
#DELAYS:;
#WARPS:;
#TIMESIGNATURES:0.000000=4=4
;
#TICKCOUNTS:0.000000=4
;
#COMBOS:0.000000=1
;
#SPEEDS:0.000000=1.000000=0.000000=0
;
#SCROLLS:0.000000=1.000000
;
#FAKES:;
#LABELS:0.000000=Song Start
;
#BGCHANGES:-0.353=SUBSTANCE.mp4=1.000=1=0=1===CrossFade==,
303.000=SUBSTANCE-bg.png=1.000=1=0=1===CrossFade==,
99999=-nosongbg-=1.000=0=0=0 // don't automatically add -songbackground-
;
#KEYSOUNDS:;
#ATTACKS:
;

//---------------dance-single - ----------------
#NOTEDATA:;
#CHARTNAME:;
#CHARTHASH:2147483647;
#STEPSTYPE:dance-single;
#BANNER:;
#DESCRIPTION:;
#CHARTSTYLE:;
#DIFFICULTY:Beginner;
#METER:1;
#METERF:1.000000;
#LASTSECONDHINT:107.316826;
#RADARVALUES:0.000000,0.000000,0.000000,0.000000,0.000000,0.000000,0.000000,0.000000,0.000000,0.000000,0.000000,0.000000,0.000000,0.000000,0.000000,0.000000,0.000000,0.000000,0.000000,0.000000,0.000000,0.000000,0.000000,0.000000,0.000000,0.000000,0.000000,0.000000;
#CREDIT:;
#NOTES:
0000
0000
0000
0000
,
0000
0000
0000
0000
,
0000
0000
0000
0000
,
0000
0000
0000
0000
,
0000
0000
0000
0000
,
0000
0000
0000
1000
,
0000
0000
0000
0100
,
0000
0000
0000
0010
,
0000
0000
0000
0001
,
0000
0000
0000
1000
,
0000
0000
0000
0010
,
0000
0000
0000
0100
,
0000
0000
0000
0001
,
0000
0000
0000
1000
,
0000
0000
0000
0001
,
0000
0000
0000
0010
,
0000
0000
0000
0100
,
0000
0000
0000
0110
,
0000
0000
0000
0000
,
0000
0100
0100
0000
,
0000
0000
0000
0100
,
0000
0100
0000
0100
,
0000
0000
0000
0000
,
0000
0010
0010
0000
,
0000
0000
0000
0001
,
0000
0001
0000
0001
,
0000
0000
0000
0000
,
0000
0000
0000
1001
,
0000
0000
0000
0110
,
0000
0000
0000
1001
,
0000
0000
0000
0110
,
0000
0000
0000
0100
,
0100
0000
0000
0010
,
0010
0000
0000
1000
,
0000
0000
0000
0001
,
0000
0000
0000
1001
,
0000
0000
0000
0000
,
0000
0000
0000
0100
,
0000
0000
0000
0100
,
0000
0000
0000
0010
,
0000
0000
0000
0010
,
0000
0000
0000
0001
,
0000
0000
0000
0001
,
0000
0000
0000
1000
,
0000
0000
0000
1000
,
0000
0000
0000
0010
,
0000
0000
0000
0010
,
0000
0000
0000
0100
,
0000
0000
0000
0100
,
0000
0000
0000
0100
,
0000
0000
0000
0100
,
0000
0000
0000
0001
,
0000
0000
0000
0001
,
0000
0000
0000
0010
,
0000
0000
0000
0000
,
0000
0100
0100
0000
,
0000
0000
0000
0100
,
0000
0100
0000
0100
,
0000
0000
0000
0000
,
0000
0010
0010
0000
,
0000
0000
0000
0001
,
0000
0001
0000
0001
,
0000
0000
0000
0000
,
0000
0000
0000
1001
,
0000
0000
0000
0110
,
0000
0000
0000
1001
,
0000
0000
0000
0110
,
0000
0000
0000
0100
,
0100
0000
0000
0010
,
0010
0000
0000
1000
,
0000
0000
0000
0001
,
0000
0000
0000
1001
,
0000
0000
0000
0110
,
0000
0000
0000
2002
,
0000
0000
0000
0000
,
0000
0000
0000
3003
;

//---------------dance-single - ----------------
#NOTEDATA:;
#CHARTNAME:;
#CHARTHASH:2147483647;
#STEPSTYPE:dance-single;
#BANNER:;
#DESCRIPTION:;
#CHARTSTYLE:;
#DIFFICULTY:Easy;
#METER:4;
#METERF:4.000000;
#LASTSECONDHINT:107.316826;
#RADARVALUES:0.000000,0.000000,0.000000,0.000000,0.000000,0.000000,0.000000,0.000000,0.000000,0.000000,0.000000,0.000000,0.000000,0.000000,0.000000,0.000000,0.000000,0.000000,0.000000,0.000000,0.000000,0.000000,0.000000,0.000000,0.000000,0.000000,0.000000,0.000000;
#CREDIT:;
#NOTES:
0000
0000
0000
0000
,
0000
0000
0000
0000
,
0000
0000
0000
0000
,
0000
0000
0000
0000
,
0000
0000
0000
0000
,
0000
0000
0000
1000
,
0100
1000
1000
0001
,
0100
0001
0001
0100
,
0010
1000
1000
0100
,
0010
0001
0001
1000
,
0001
1000
0001
0010
,
0100
0010
0100
1000
,
0001
1000
0001
0100
,
0010
0100
0010
1000
,
0010
1000
0010
0100
,
0001
0100
0001
1000
,
0100
0010
0001
0001
,
0010
0100
1000
2002
,
0000
0000
0000
3003
,
1001
1001
1001
0000
,
1001
0000
0000
1000
,
0001
0100
0010
1000
,
0000
0000
0000
0000
,
0000
1001
1001
0000
,
0000
0000
0000
1000
,
0100
0010
0001
0010
,
0000
0000
0000
0000
,
0010
0100
1000
0002
,
0003
1000
0001
2000
,
3000
0001
1000
0020
,
0030
0100
0001
0200
,
0300
0010
1000
0001
,
1000
0100
0100
1000
,
0001
0100
0100
0110
,
0000
0000
0110
0000
,
0000
0100
0001
1001
,
0000
0000
1001
0000
,
0000
1000
1000
0200
,
0300
2000
3000
0001
,
1000
0100
0100
0020
,
0030
0002
0003
1000
,
0010
0100
0001
0200
,
0300
0020
0030
1000
,
0001
0010
0100
2000
,
3000
0002
0003
0200
,
0300
0020
0030
1000
,
0001
0010
0001
1000
,
0001
0010
0001
1000
,
0100
1000
0001
1000
,
0000
0001
0000
1001
,
1000
1000
1000
0010
,
0010
0010
0010
0001
,
0001
0001
0001
0100
,
0100
0100
0100
1000
,
1000
1000
0000
0001
,
0001
0001
0000
0000
,
1001
0000
1001
0000
,
1000
0100
0001
0100
,
1000
0010
0001
0010
,
1000
0010
0001
0010
,
0100
1000
1000
0100
,
0010
0001
0001
0100
,
0000
0100
0000
0010
,
0000
0010
0000
0220
,
0330
0010
0000
2002
,
3003
1000
1000
0001
,
0010
0100
1000
0001
,
0010
0100
1000
0001
,
1000
0100
0000
1000
,
0001
0100
0100
0100
,
0000
0100
0000
0010
,
0000
0010
0000
1000
,
0000
1000
0000
0001
,
0000
0001
1000
2002
,
0000
0000
0000
0000
,
0000
0000
0000
3003
;

//---------------dance-single - ----------------
#NOTEDATA:;
#CHARTNAME:;
#CHARTHASH:1689972237;
#STEPSTYPE:dance-single;
#BANNER:;
#DESCRIPTION:;
#CHARTSTYLE:;
#DIFFICULTY:Medium;
#METER:6;
#METERF:6.000000;
#LASTSECONDHINT:107.316826;
#RADARVALUES:0.000000,0.000000,0.000000,0.000000,0.000000,0.000000,0.000000,0.000000,0.000000,0.000000,0.000000,0.000000,0.000000,0.000000,0.000000,0.000000,0.000000,0.000000,0.000000,0.000000,0.000000,0.000000,0.000000,0.000000,0.000000,0.000000,0.000000,0.000000;
#CREDIT:;
#NOTES:
0000
0000
0000
0000
,
0000
0000
0000
0000
,
0000
0000
0000
0000
,
0000
0000
0000
0000
,
0000
0000
0000
0000
,
0000
0000
0000
1000
,
0010
0000
1000
0010
1000
0000
0001
0000
,
0100
0000
0001
0100
0001
0000
0100
0000
,
0010
0000
1000
0001
1000
0000
0001
0000
,
0010
0000
0100
1000
0100
0000
1000
0000
,
0100
0010
0100
1000
,
0001
0000
0100
0001
0100
0000
0010
0000
,
0100
0001
1000
0001
,
0010
0000
0100
0010
0001
0000
0001
0000
,
0010
0100
0010
0001
,
1000
0000
0010
0100
0001
0000
0100
0000
,
0010
1000
0001
1000
,
0100
0000
0010
0001
0010
0000
2002
0000
,
0000
0000
0000
0000
,
3003
1001
1001
0000
,
1000
0001
1000
0001
,
0010
0100
0010
0001
,
0100
0010
0010
1000
,
0100
0010
0010
0001
,
0010
0100
1000
1000
,
0100
0010
0001
1000
,
0000
0001
0000
0000
1000
0000
0000
0001
,
0000
1000
0001
2002
,
3003
1000
0010
2020
,
3030
0010
0100
0202
,
0303
0100
0001
0022
,
0033
0010
0100
1000
,
0100
1000
0100
0010
,
0001
0010
0001
1000
,
0000
0001
0000
0000
1000
0000
0000
0001
,
0000
1000
1000
0010
,
0000
0100
0000
0000
0010
0000
0000
0100
,
0000
0010
0010
1000
,
0000
1001
0000
1000
,
1000
0100
0000
0010
,
0000
0100
0000
1000
,
0001
0100
0010
0100
,
0000
0110
0000
0010
,
0010
0100
0000
0001
,
0010
0100
1000
1000
,
0100
0010
0001
2000
,
0010
0100
0010
0001
,
0100
0001
3001
2002
,
0000
0000
0000
0000
,
0000
0000
3003
0001
,
0001
0100
0100
1000
,
1000
0010
0010
0001
,
0001
0010
0010
1000
,
1000
0100
0100
0110
,
0000
0000
0000
0000
,
0000
0110
0110
0000
,
1000
0001
1000
0001
,
0100
0010
0100
0001
,
0010
0100
0100
1000
,
0010
0100
0100
0001
,
0100
0010
1000
1000
,
0010
0100
0001
1000
,
0000
0001
0000
0000
1000
0000
0000
0001
,
0000
1000
0001
2002
,
3003
1000
0100
2200
,
3300
0100
0010
0022
,
0033
0010
0001
0202
,
0303
0100
0010
1000
,
0010
1000
0010
0100
,
0001
0100
0001
1000
,
0000
0001
0000
0000
1000
0000
0000
0001
,
0000
1000
1000
0100
,
0000
0010
0000
0000
0100
0000
0000
0010
,
0000
0200
0020
0000
,
0000
0000
0000
0000
,
0000
0000
0000
0330
;

//---------------dance-single - ----------------
#NOTEDATA:;
#CHARTNAME:;
#CHARTHASH:2147483647;
#STEPSTYPE:dance-single;
#BANNER:;
#DESCRIPTION:;
#CHARTSTYLE:;
#DIFFICULTY:Hard;
#METER:9;
#METERF:9.000000;
#LASTSECONDHINT:107.316826;
#RADARVALUES:0.549197,0.663432,0.728312,0.055315,0.036877,417.000000,338.000000,79.000000,6.000000,0.000000,0.000000,0.000000,0.000000,0.000000,0.549197,0.663432,0.728312,0.055315,0.036877,417.000000,338.000000,79.000000,6.000000,0.000000,0.000000,0.000000,0.000000,0.000000;
#CREDIT:;
#NOTES:
// measure 0
0000
0000
0000
0000
,  // measure 1
0000
0000
0000
0000
,  // measure 2
0000
0000
0000
0000
,  // measure 3
0000
0000
0000
0000
,  // measure 4
0000
0000
0000
0000
,  // measure 5
0000
0000
0000
1000
,  // measure 6
0010
0000
1000
0010
0100
0001
0000
0010
,  // measure 7
0000
0000
0100
0010
0001
0000
0001
0000
,  // measure 8
0100
0000
0001
0100
0010
1000
0000
0100
,  // measure 9
0000
0000
0010
0100
1000
0000
0001
0000
,  // measure 10
1001
0000
1000
0001
0100
0000
1000
0001
,  // measure 11
0100
0001
1000
0100
1000
0000
0100
0000
,  // measure 12
0110
0000
0010
0100
1000
0000
0010
0100
,  // measure 13
1000
0100
0010
0001
0010
0100
0001
0000
,  // measure 14
1001
0000
1000
0001
0010
0000
1000
0001
,  // measure 15
0010
0001
1000
0010
1000
0000
0010
0000
,  // measure 16
0110
0000
0100
0010
1000
0000
0100
0010
,  // measure 17
1000
0010
0100
0001
0100
0010
0001
0000
,  // measure 18
0000
0010
0000
0100
,  // measure 19
0000
0000
0000
0000
1000
0000
0000
0000
0001
1000
0001
1000
0000
0000
0000
0000
,  // measure 20
1100
0000
1000
0100
1100
0000
0100
0010
,  // measure 21
0110
0000
0010
0001
0011
0000
1000
0010
,  // measure 22
1010
0000
0010
0100
0110
0000
0100
0001
,  // measure 23
0101
0000
0000
0000
1000
0000
0001
0000
1000
0000
0001
1000
0001
0000
0010
0000
,  // measure 24
0011
0000
0010
0100
0110
0000
0100
1000
,  // measure 25
1100
0000
1000
0010
1010
0000
0110
0000
,  // measure 26
0000
0101
0000
0000
0110
0000
0000
1010
,  // measure 27
0000
0000
1000
0001
1000
0001
0010
0000
,  // measure 28
0110
0000
0100
1000
0010
0010
0000
0110
,  // measure 29
0000
0000
0100
0001
1000
0010
1000
0000
,  // measure 30
1010
0000
0001
0010
0100
1000
0000
1010
,  // measure 31
0000
0000
0000
0000
0010
0000
0100
0000
0001
0000
1000
0001
1000
0000
0000
0000
,  // measure 32
1001
0000
1000
0100
1100
0000
0100
0010
,  // measure 33
0011
0000
0001
1000
1001
0000
0101
0000
,  // measure 34
0000
0110
0000
0000
1010
0000
0000
0110
,  // measure 35
0000
0101
0101
1001
,  // measure 36
0000
1100
0000
0000
1001
0000
0000
0011
,  // measure 37
0000
0000
0110
0000
0110
0000
0100
0010
,  // measure 38
0100
0000
1000
0000
0010
0100
0010
0000
,  // measure 39
1000
0000
0001
0100
0001
0100
0001
1000
,  // measure 40
0001
0000
1000
0000
0001
0010
0100
0000
,  // measure 41
1000
0000
0001
0010
0100
1000
0001
1000
,  // measure 42
0001
0000
0100
0000
0010
1000
0010
0000
,  // measure 43
1000
0000
0001
0100
0001
0000
0100
0010
,  // measure 44
0100
0001
0100
0000
0010
0100
0001
0100
,  // measure 45
0010
0000
1000
0001
0010
0000
0110
0000
,  // measure 46
0100
1000
0001
0101
,  // measure 47
0100
0010
1000
2002
,  // measure 48
0000
0000
0000
0000
,  // measure 49
0000
0000
3003
1000
,  // measure 50
1000
0010
0010
0001
,  // measure 51
0001
0100
0100
1000
,  // measure 52
1000
0001
0001
0100
,  // measure 53
0100
0010
0010
0220
,  // measure 54
0000
0000
0000
0000
,  // measure 55
0330
0000
0000
0000
0110
0000
0000
0000
1000
0001
1000
0001
0000
0000
0000
0000
,  // measure 56
0011
0000
0001
0010
0011
0000
0010
0100
,  // measure 57
0110
0000
0100
1000
1100
0000
0001
0100
,  // measure 58
0101
0000
0100
0010
0110
0000
0010
1000
,  // measure 59
1010
0000
0001
1000
0001
1000
1000
0100
,  // measure 60
1100
0000
0100
0010
0110
0000
0010
0001
,  // measure 61
0011
0000
0001
0100
0101
0000
0110
0000
,  // measure 62
0000
1010
0000
0000
0110
0000
0000
0101
,  // measure 63
0000
0000
0001
1000
0001
1000
0100
0000
,  // measure 64
0110
0000
0010
0001
0100
0100
0000
0110
,  // measure 65
0000
0000
0010
1000
0001
0100
0001
0000
,  // measure 66
0101
0000
1000
0100
0010
0001
0000
0101
,  // measure 67
0000
0000
0000
0000
0100
0010
0100
0000
0001
1000
0001
0000
1000
0000
0100
0000
,  // measure 68
1100
0000
0001
0010
0011
0000
0010
0100
,  // measure 69
1100
0000
1000
0001
1001
0000
1010
0000
,  // measure 70
0000
0110
0000
0000
0101
0000
0000
0110
,  // measure 71
0000
1010
1010
1001
,  // measure 72
0000
0011
0000
0000
1001
0000
0000
1100
,  // measure 73
0000
0110
0220
0000
,  // measure 74
0000
0000
0000
0000
,  // measure 75
0000
0000
0000
0330
;
