#VERSION:0.83;
#TITLE:Record Deal;
#SUBTITLE:;
#ARTIST:COBRAH;
#TITLETRANSLIT:;
#SUBTITLETRANSLIT:;
#ARTISTTRANSLIT:;
#GENRE:Electro House;
#ORIGIN:;
#TAGS:;
#CREDIT:chewi;
#BANNER:Record Deal.png;
#BACKGROUND:Record Deal-bg.png;
#PREVIEWVID:;
#JACKET:Record Deal-jacket.png;
#CDIMAGE:;
#DISCIMAGE:;
#LYRICSPATH:;
#CDTITLE:cdtitle.png;
#MUSIC:Record Deal.ogg;
#OFFSET:1.554000;
#SAMPLESTART:42.897999;
#SAMPLELENGTH:12.000000;
#SELECTABLE:YES;
#BPMS:0.000000=135.000000
;
#STOPS:;
#DELAYS:;
#WARPS:;
#TIMESIGNATURES:0.000000=4=4
;
#TICKCOUNTS:0.000000=4
;
#COMBOS:0.000000=1
;
#SPEEDS:0.000000=1.000000=0.000000=0
;
#SCROLLS:0.000000=1.000000
;
#FAKES:;
#LABELS:0.000000=Song Start
;
#BGCHANGES:3.500=Record Deal.mp4=1.000=1=0=1===CrossFade==,
259.000=Record Deal-bg.png=1.000=1=0=1===CrossFade==,
99999=-nosongbg-=1.000=0=0=0 // don't automatically add -songbackground-
;
#KEYSOUNDS:;
#ATTACKS:
;

//---------------dance-single - ----------------
#NOTEDATA:;
#CHARTNAME:;
#CHARTHASH:178282713;
#STEPSTYPE:dance-single;
#BANNER:;
#DESCRIPTION:;
#CHARTSTYLE:;
#DIFFICULTY:Easy;
#METER:3;
#METERF:0.000000;
#LASTSECONDHINT:113.557114;
#RADARVALUES:0.192373,0.253141,0.000000,0.104254,0.000000,155.000000,155.000000,0.000000,12.000000,0.000000,0.000000,0.000000,0.000000,0.000000,0.192373,0.253141,0.000000,0.104254,0.000000,155.000000,155.000000,0.000000,12.000000,0.000000,0.000000,0.000000,0.000000,0.000000;
#CREDIT:;
#NOTES:
0000
0000
0000
0000
,
0000
0000
0000
0000
,
0000
0000
0000
0000
,
0000
0000
0000
0000
,
0000
0000
0000
0000
,
1000
0000
0100
0000
,
0010
0001
0100
0000
,
0010
0000
1000
0000
,
0100
0010
0001
0000
,
0010
0100
0010
0000
,
0100
0010
0100
0000
,
1000
0001
1000
0000
,
0001
1000
0001
0000
,
1000
0010
1000
0000
,
0010
0100
0010
0000
,
0100
0010
0100
0000
,
0001
0100
0001
0000
,
0002
0000
0000
0000
,
0203
0000
0000
0000
,
0320
0000
0000
0000
,
2030
0000
0000
0000
,
3200
0000
0000
0000
,
0320
0000
0000
0000
,
0032
0000
0000
0000
,
2003
0000
0000
0000
,
3001
1000
0001
0000
,
0010
0010
0010
0000
,
0010
0100
0010
0000
,
1000
1000
1000
0000
,
1000
0001
0010
0000
,
0100
0100
0100
0000
,
0010
0100
1000
0000
,
0001
0001
0001
0000
,
1000
0010
1000
0100
,
1000
0000
0001
0000
,
0001
0100
0001
0010
,
0001
0000
1000
0000
,
1000
0100
1000
0010
,
1000
0000
0001
0000
,
0001
0000
1000
0000
,
0001
0000
0010
0000
,
0200
0000
0000
0000
,
2300
0000
0000
0000
,
3020
0000
0000
0000
,
0230
0000
0000
0000
,
0300
0001
0000
0001
,
0000
0100
0000
0100
,
0000
0010
0000
0010
,
0000
1000
0000
0000
,
1000
0001
1000
0000
,
0010
0010
0010
0000
,
0100
0010
0100
0000
,
0001
0001
0001
0000
,
0001
1000
0100
0000
,
0010
0010
0010
0000
,
0100
0010
0001
0000
,
1000
1000
1000
0000
,
0001
0100
0001
0010
,
0001
0100
0010
0010
,
1000
0010
1000
0100
,
1000
0010
0100
0100
,
0001
0010
0001
0100
,
0001
0010
0100
1000
,
1000
0100
0010
0001
,
1000
0001
0100
0001
;

//---------------dance-single - ----------------
#NOTEDATA:;
#CHARTNAME:;
#CHARTHASH:3560105063;
#STEPSTYPE:dance-single;
#BANNER:;
#DESCRIPTION:;
#CHARTSTYLE:;
#DIFFICULTY:Beginner;
#METER:1;
#METERF:0.000000;
#LASTSECONDHINT:112.223778;
#RADARVALUES:0.080672,0.139005,0.043439,0.000000,0.000000,65.000000,60.000000,5.000000,0.000000,0.000000,0.000000,0.000000,0.000000,0.000000,0.080672,0.139005,0.043439,0.000000,0.000000,65.000000,60.000000,5.000000,0.000000,0.000000,0.000000,0.000000,0.000000,0.000000;
#CREDIT:;
#NOTES:
0000
0000
0000
0000
,
0000
0000
0000
0000
,
0000
0000
0000
0000
,
0000
0000
0000
0000
,
0000
0000
0000
0000
,
1000
0000
0000
0000
,
0001
0000
0000
0000
,
0100
0000
0000
0000
,
0010
0000
0000
0000
,
1000
0000
0000
0000
,
0100
0000
0000
0000
,
0010
0000
0000
0000
,
0100
0000
0000
0000
,
1000
0000
0000
0000
,
0010
0000
0000
0000
,
0100
0000
0000
0000
,
0001
0000
0000
0000
,
1001
0000
0000
0000
,
0100
0000
0000
0000
,
0110
0000
0000
0000
,
0010
0000
0000
0000
,
1001
0000
0000
0000
,
0001
0000
0000
0000
,
0110
0000
0000
0000
,
0100
0000
0000
0000
,
0100
0000
0000
0000
,
1000
0000
0000
0000
,
0010
0000
0000
0000
,
0001
0000
0000
0000
,
0100
0000
0000
0000
,
1000
0000
0000
0000
,
0010
0000
0000
0000
,
0001
0000
0000
0000
,
1000
0000
0000
0000
,
0001
0000
0000
0000
,
1000
0000
0000
0000
,
0100
0000
0000
0000
,
0010
0000
0000
0000
,
0001
0000
0000
0000
,
0100
0000
0000
0000
,
0001
0000
0000
0000
,
1001
0000
0000
0000
,
1000
0000
0000
0000
,
0001
0000
0000
0000
,
0010
0000
0000
0000
,
0100
0000
0000
0000
,
0010
0000
0000
0000
,
0001
0000
0000
0000
,
1000
0000
0000
0000
,
0100
0000
0000
0000
,
1000
0000
0000
0000
,
0010
0000
0000
0000
,
0001
0000
0000
0000
,
0100
0000
0000
0000
,
1000
0000
0000
0000
,
0010
0000
0000
0000
,
0001
0000
0000
0000
,
1000
0000
0000
0000
,
0001
0000
0000
0000
,
1000
0000
0000
0000
,
0100
0000
0000
0000
,
0010
0000
0000
0000
,
0001
0000
0000
0000
,
0100
0000
0000
0000
,
0001
0000
0000
0000
;

//---------------dance-single - ----------------
#NOTEDATA:;
#CHARTNAME:;
#CHARTHASH:4076157644;
#STEPSTYPE:dance-single;
#BANNER:;
#DESCRIPTION:;
#CHARTSTYLE:;
#DIFFICULTY:Medium;
#METER:4;
#METERF:0.000000;
#LASTSECONDHINT:113.557114;
#RADARVALUES:0.259393,0.281267,0.086878,0.000000,0.000000,209.000000,199.000000,10.000000,0.000000,0.000000,0.000000,0.000000,0.000000,0.000000,0.259393,0.281267,0.086878,0.000000,0.000000,209.000000,199.000000,10.000000,0.000000,0.000000,0.000000,0.000000,0.000000,0.000000;
#CREDIT:;
#NOTES:
0000
0000
0000
0000
,
0000
0000
0000
0000
,
0000
0000
0000
0000
,
0000
0000
0000
0000
,
0000
0000
0000
0000
,
1000
0010
1000
0010
,
0100
0001
0100
0001
,
0001
0010
0001
0010
,
0100
1000
0100
0000
,
0100
0010
0001
0000
,
1000
0100
0010
0000
,
0001
0100
0010
0000
,
1000
0001
0100
0000
,
0001
0010
0100
0000
,
0010
0100
1000
0000
,
0010
0100
0001
0000
,
0100
0010
1000
0000
,
0000
1000
1000
0001
,
0001
0100
0100
0100
,
0000
0010
0010
1000
,
1000
0001
0001
0001
,
0000
0010
0010
0100
,
0100
1000
1000
1000
,
0000
0010
0010
0100
,
0100
0001
0001
0001
,
1000
0010
1000
0000
,
0010
0100
0110
0000
,
0100
0001
0100
0000
,
0001
1000
1001
0000
,
1000
0100
0001
0000
,
0001
0100
1000
0000
,
1000
0010
0001
0000
,
0001
0010
1000
0000
,
1000
0001
0100
0010
,
0100
0110
0010
0000
,
1000
0001
0010
0100
,
1000
1100
0100
0000
,
0010
0001
1000
0010
,
0100
0101
0001
0000
,
0100
0110
0010
0000
,
0010
1010
1000
0000
,
1000
0001
0100
1000
,
0100
0001
0010
0100
,
1000
0001
0000
0000
,
0000
1000
0000
1000
,
1000
0100
1000
0010
,
0100
0001
0010
0100
,
1000
0001
0000
1000
,
1000
1000
1000
0000
,
0001
0100
0001
0000
,
0100
0010
0110
0000
,
0010
1000
0010
0000
,
1000
0001
1001
0000
,
0001
0010
1000
0000
,
1000
0010
0001
0000
,
0001
0100
1000
0000
,
1000
0100
0001
0000
,
0001
1000
0010
0100
,
0010
0100
0100
0010
,
1000
0001
0010
0100
,
1000
0001
1001
0000
,
0100
1000
0001
0100
,
0010
1000
0010
0100
,
0010
0100
0001
0100
,
0001
0010
0100
1000
;

//---------------dance-single - ----------------
#NOTEDATA:;
#CHARTNAME:;
#CHARTHASH:2596694458;
#STEPSTYPE:dance-single;
#BANNER:;
#DESCRIPTION:;
#CHARTSTYLE:;
#DIFFICULTY:Hard;
#METER:7;
#METERF:0.000000;
#LASTSECONDHINT:113.557114;
#RADARVALUES:0.467900,0.534408,0.434390,0.399639,0.013032,377.000000,327.000000,50.000000,46.000000,0.000000,0.000000,0.000000,0.000000,0.000000,0.467900,0.534408,0.434390,0.399639,0.013032,377.000000,327.000000,50.000000,46.000000,0.000000,0.000000,0.000000,0.000000,0.000000;
#CREDIT:;
#NOTES:
// measure 0
0000
0000
0000
0000
,  // measure 1
0000
0000
0000
0000
,  // measure 2
0000
0000
0000
0000
,  // measure 3
0000
0000
0000
0000
,  // measure 4
0000
0000
0000
0000
,  // measure 5
0000
0000
2002
0000
3003
0000
1000
0001
,  // measure 6
0010
0100
1000
0001
0020
0000
0230
0000
,  // measure 7
1300
0000
0010
0000
0100
0000
0001
0100
,  // measure 8
0010
1000
0001
0100
0020
0000
2030
0000
,  // measure 9
3001
0101
1000
1100
,  // measure 10
0010
0010
0001
0001
0020
0000
0230
0000
,  // measure 11
1300
1010
0001
0011
,  // measure 12
0010
0010
0100
0100
2000
0000
3002
0000
,  // measure 13
1003
1001
0001
0101
,  // measure 14
0100
0100
0010
0010
2000
0000
3002
0000
,  // measure 15
2003
0000
3002
0000
2003
0000
3100
0010
,  // measure 16
0001
1000
0100
0010
0002
0000
2003
0000
,  // measure 17
3000
0000
0001
0100
0010
0010
1000
0100
,  // measure 18
0010
0010
0001
0100
0020
0000
2030
0000
,  // measure 19
3000
0000
0001
0010
0100
0100
1000
0010
,  // measure 20
0100
0100
0001
0010
0200
0000
2300
0000
,  // measure 21
3000
0000
1000
0010
0100
0100
0001
0010
,  // measure 22
0100
0100
1000
0010
0200
0000
0302
0000
,  // measure 23
0003
0000
1000
0100
0010
0010
0001
0100
,  // measure 24
0010
0000
0010
0000
1000
0000
0100
0000
0020
0000
0000
0000
0031
0010
0001
0010
,  // measure 25
0001
0100
0101
0000
0010
0000
1010
0000
,  // measure 26
0110
1010
1100
1000
,  // measure 27
0001
0010
0011
0000
0100
0000
1100
0000
,  // measure 28
1001
0101
1100
1000
,  // measure 29
1000
0100
1100
0000
0010
0000
1010
0000
,  // measure 30
0110
0101
0011
0001
,  // measure 31
0010
0100
1100
0000
1000
0000
1100
0000
,  // measure 32
1001
0101
0220
0330
,  // measure 33
0010
1000
0100
1000
0020
0000
0230
0000
,  // measure 34
0301
0010
1000
0010
0002
0000
0003
0000
,  // measure 35
0000
0100
0010
1000
2000
0000
3200
0000
,  // measure 36
0301
0100
1000
0100
0002
0000
0103
0000
,  // measure 37
1000
0010
0100
0001
0020
0000
0032
0000
,  // measure 38
0103
0010
0100
0010
0100
0200
0300
0000
,  // measure 39
0001
1000
0001
1000
0001
0002
0003
0000
,  // measure 40
1000
0100
0010
0001
0010
0010
0100
0000
,  // measure 41
0100
1000
0010
1000
0100
0100
0010
0001
,  // measure 42
2000
0000
3002
0000
0103
0001
0010
0100
,  // measure 43
1000
0000
0100
0100
0000
1000
1000
0000
,  // measure 44
0010
0010
0000
0100
0100
0000
0001
0000
,  // measure 45
0100
0001
0010
0001
0100
0100
0010
1000
,  // measure 46
0002
0000
2003
0000
3001
0010
0100
1000
,  // measure 47
0020
0000
0230
0000
0310
0100
0010
0100
,  // measure 48
0001
0000
1000
0000
0001
0000
1000
0000
0001
1000
0000
0000
0000
0000
0000
0000
,  // measure 49
1000
0010
1010
0000
0100
0000
0101
0000
,  // measure 50
0110
0101
0011
0001
,  // measure 51
1000
0100
1100
0000
0010
0000
0011
0000
,  // measure 52
1001
1010
0011
0001
,  // measure 53
0001
0010
0011
0000
0100
0000
0101
0000
,  // measure 54
0110
1010
1100
1000
,  // measure 55
0100
0010
0011
0000
0001
0000
0011
0000
,  // measure 56
1001
1010
0220
0330
,  // measure 57
0100
0001
0010
0000
0001
0010
1000
0000
,  // measure 58
0010
0001
0100
0100
0001
0010
1000
0000
,  // measure 59
0010
0100
1000
0000
0010
0100
0001
0000
,  // measure 60
1100
0101
2200
3300
,  // measure 61
0100
1000
0010
0000
1000
0010
0001
0000
,  // measure 62
0010
1000
0100
0100
1000
0010
0001
0000
,  // measure 63
0010
0100
0001
0000
0010
0100
1000
0000
,  // measure 64
0001
0010
1000
0100
1000
0010
0001
0000
;
